osu file format v14

[General]
AudioFilename: audio.mp3
AudioLeadIn: 0
PreviewTime: 61615
Countdown: 0
SampleSet: Soft
StackLeniency: 0.7
Mode: 0
LetterboxInBreaks: 0
WidescreenStoryboard: 1

[Editor]
Bookmarks: 13014,18284,18314
DistanceSpacing: 0.9
BeatDivisor: 6
GridSize: 4
TimelineZoom: 1.9

[Metadata]
Title:Deal with the devil
TitleUnicode:Deal with the devil
Artist:Tia
ArtistUnicode:Tia
Creator:Hey lululu
Version:Koa%wer Extra
Source:賭ケグルイ
Tags:ryo (supercell) kakegurui anime op tv size Compulsive Gambler - AzRaeL - -N a n a k o- Garden Koalazy Akitoshi
BeatmapID:1427722
BeatmapSetID:666709

[Difficulty]
HPDrainRate:6.6
CircleSize:3.6
OverallDifficulty:6.6
ApproachRate:8.6
SliderMultiplier:1.41999990463257
SliderTickRate:1

[Events]
//Background and Video events
0,0,"BG2.png",0,0
//Break Periods
//Storyboard Layer 0 (Background)
//Storyboard Layer 1 (Fail)
//Storyboard Layer 2 (Pass)
//Storyboard Layer 3 (Foreground)
//Storyboard Sound Samples

[TimingPoints]
563,405.405405405405,4,2,1,75,1,0
968,415.800415800416,4,2,1,75,1,0
2215,433.212996389892,4,2,1,75,1,0
2215,-37.593984962406,4,2,1,80,0,0
2648,-60.2409638554217,4,2,1,80,0,0
3081,-151.515151515152,4,2,1,80,0,0
3514,-27.322404371585,4,2,1,80,0,0
3947,422.535211267606,4,2,1,75,1,0
3947,-60.2409638554217,4,2,1,80,0,0
5003,-37.593984962406,4,2,1,80,0,0
5637,424.028268551237,4,2,1,75,1,0
5743,-37.593984962406,4,2,1,80,0,0
6909,405.405405405405,4,2,1,75,1,0
7010,441.176470588235,4,2,1,75,1,0
7010,-151.515151515152,4,2,1,80,0,0
7340,413.365483982087,4,2,1,75,1,0
8993,476.190476190476,4,2,1,75,1,0
9469,392.156862745098,4,2,1,75,1,0
9665,389.61038961039,4,2,1,75,1,0
9860,419.58041958042,4,2,1,75,1,0
10279,400,4,2,1,75,1,0
10679,424.628450106157,4,2,1,75,1,0
10679,-27.322404371585,4,2,1,80,0,0
11032,-60.2409638554217,4,2,1,80,0,0
14076,-27.322404371585,4,2,1,80,0,0
14500,-60.2409638554217,4,2,1,80,0,0
15774,424.478245489919,4,2,1,75,1,0
17047,-151.515151515152,4,2,1,80,0,0
17471,421.644413211525,4,2,1,50,1,0
17471,-60.2409638554217,4,2,3,50,0,0
23514,-27.322404371585,4,2,1,80,0,0
23795,410.958904109589,4,2,1,80,1,0
23795,-27.322404371585,4,2,1,80,0,0
24206,434.782608695652,4,2,3,50,1,0
24423,-60.2409638554217,4,2,1,50,0,0
24640,423.579244617014,4,2,1,50,1,0
24640,-60.2409638554217,4,2,3,50,0,0
25911,423.579244617014,4,2,1,50,1,0
25911,-60.2409638554217,4,2,3,50,0,0
28876,408.163265306122,4,2,3,50,1,0
29299,423.579244617014,4,2,1,50,1,0
29299,-151.515151515152,4,2,1,50,0,0
30252,-27.322404371585,4,2,1,80,0,0
30569,-60.2409638554217,4,2,1,80,0,0
30994,421.348314606742,4,2,1,75,1,0
30994,-60.2409638554217,4,2,1,80,0,0
34364,-27.322404371585,4,2,1,80,0,0
34996,-37.593984962406,4,2,1,80,0,0
35628,-151.515151515152,4,2,1,80,0,0
37314,-60.2409638554217,4,2,1,80,0,0
37735,422.535211267606,4,2,1,75,1,0
37735,-27.322404371585,4,2,1,80,0,0
38157,-60.2409638554217,4,2,1,80,0,0
40841,397.350993377483,4,2,1,75,1,0
41139,419.58041958042,4,2,1,75,1,0
41139,-27.322404371585,4,2,1,80,0,0
41558,-60.2409638554217,4,2,1,80,0,0
42187,-37.593984962406,4,2,1,80,0,0
42817,421.052631578947,4,2,1,75,1,0
44080,-151.515151515152,4,2,1,80,0,0
44501,422.113098169436,4,2,1,75,1,0
44923,-37.593984962406,4,2,1,80,0,0
46189,-60.2409638554217,4,2,1,80,0,0
49566,-27.322404371585,4,1,1,80,0,0
50269,-37.593984962406,4,2,1,80,0,0
50410,-60.2409638554217,4,1,1,80,0,0
51254,424.028268551237,4,2,1,75,1,0
51254,-27.322404371585,4,2,1,80,0,0
51678,-60.2409638554217,4,2,1,80,0,0
57614,-151.515151515152,4,2,1,80,0,0
58039,419.14076143905,4,2,3,75,1,0
59715,422.535211267606,4,2,1,75,1,0
60982,405.405405405405,4,2,1,75,1,0
60982,-151.515151515152,4,2,1,80,0,0
61426,379.746835443038,4,2,1,75,1,0
61426,-27.322404371585,4,2,1,80,0,0
61615,422.535211267606,4,2,1,75,1,0
61615,-37.593984962406,4,2,1,80,0,0
64995,427.807486631016,4,2,1,75,1,0
64995,-37.593984962406,4,2,1,80,0,0
66385,-27.322404371585,4,2,1,80,0,0
66920,451.127819548872,4,2,1,75,1,0
66920,-37.593984962406,4,2,1,80,0,0
67146,394.088669950739,4,2,1,75,1,0
67540,422.535211267606,4,2,1,75,1,0
67540,-60.2409638554217,4,2,1,80,0,0
68385,421.644413211525,4,2,1,75,1,0
68385,-27.322404371585,4,2,1,80,0,0
68701,-37.593984962406,4,2,1,80,0,0
71758,-27.322404371585,4,2,1,80,0,0
72074,-37.593984962406,4,2,1,80,0,0
74288,-27.322404371585,4,2,1,80,0,0
75131,422.386483632524,4,2,1,75,1,0
75131,-27.322404371585,4,2,1,80,0,0
75342,-37.593984962406,4,2,1,80,0,0
79882,-27.322404371585,4,2,1,80,0,0
80410,-37.593984962406,4,2,1,80,0,0
81889,-27.322404371585,4,2,1,80,0,0
82205,-37.593984962406,4,2,1,80,0,0
85268,422.535211267606,4,2,1,75,1,0
85268,-37.593984962406,4,2,1,80,0,0
86746,433.212996389892,4,2,1,75,1,0
87829,422.535211267606,4,2,1,75,1,0
87829,-27.322404371585,4,2,1,80,0,0
88674,422.535211267606,4,2,1,75,1,0
90575,-37.593984962406,4,2,1,80,0,0
91314,-27.322404371585,4,2,1,80,0,0
92054,434.782608695652,4,2,1,75,1,0
92380,408.163265306122,4,2,1,75,1,0
92584,413.793103448276,4,2,1,75,1,0
92584,-37.593984962406,4,2,1,80,0,0
92894,413.793103448276,4,2,1,75,1,0
93100,-37.593984962406,4,2,1,80,0,0
93515,434.782608695652,4,2,1,75,1,0
94601,-151.515151515152,4,2,1,10,0,0

[Colours]
Combo1 : 0,128,255
Combo2 : 255,255,0
Combo3 : 0,255,255
Combo4 : 255,0,0

[HitObjects]
143,60,2215,6,0,P|180:44|268:49,2,125.90665302356,4|0|0,0:0|0:0|0:0,0:0:0:0:
251,126,2648,6,0,P|210:118|173:133,2,78.5733291953227,4|0|0,0:0|0:0|0:0,0:0:0:0:
209,202,3081,6,0,P|215:193|228:210,1,31.2399978065796,8|0,0:0|0:0,0:0:0:0:
242,273,3370,1,0,0:0:0:0:
143,60,3514,6,0,B|176:132|176:132|179:160|199:181|199:181|242:273|242:273|265:214|259:182,1,259.859977888711,4|0,1:0|0:0,0:0:0:0:
251,126,3839,1,0,0:0:0:0:
101,159,3947,6,0,B|17:191|8:262|8:262|64:242,1,176.789990689476,4|0,3:0|0:0,0:0:0:0:
251,126,4369,1,0,0:0:0:0:
411,225,4580,6,0,B|495:193|504:122|504:122|448:142,1,176.789990689476,4|0,3:0|0:0,0:0:0:0:
232,296,5003,2,2,P|186:311|149:365,6,62.9533265117801
26,284,5637,5,4,0:0:0:0:
96,339,5743,2,0,P|51:186|77:114,1,188.85997953534,4|0,3:0|0:0,0:0:0:0:
256,35,6061,1,2,0:0:0:0:
256,35,6273,1,4,0:0:0:0:
455,162,6379,2,0,P|458:255|416:339,1,188.85997953534,4|0,3:0|0:0,0:0:0:0:
256,349,6697,1,2,0:0:0:0:
256,349,6909,1,0,0:0:0:0:
158,89,7010,6,0,B|147:169,1,70.2899950648042,0|0,0:0|1:0,0:0:0:0:
198,290,7443,1,0,1:0:0:0:
275,304,7650,1,0,0:0:0:0:
343,265,7856,1,0,0:0:0:0:
370,192,8063,1,0,3:0:0:0:
343,118,8270,1,0,3:0:0:0:
275,79,8476,1,0,2:0:0:0:
198,93,8580,1,0,1:0:0:0:
148,152,8786,1,0,1:0:0:0:
148,231,8993,1,4,1:0:0:0:
471,66,10679,6,0,B|417:84|388:26|388:26|280:64|272:140,1,259.859977888711,4|0,3:0|0:0,0:0:0:0:
214,44,11032,1,2,0:0:0:0:
214,44,11103,1,2,0:0:0:0:
98,162,11315,6,0,P|142:139|168:112,1,78.5733291953227,0|2,0:0|0:0,0:0:0:0:
214,44,11528,1,2,0:0:0:0:
217,227,11740,6,0,P|233:174|232:133,1,78.5733291953227,0|2,0:0|0:0,0:0:0:0:
214,44,11952,1,2,0:0:0:0:
359,185,12165,6,0,P|331:131|298:100,1,78.5733291953227,0|2,0:0|0:0,0:0:0:0:
214,44,12378,1,2,0:0:0:0:
437,41,12589,6,0,P|373:21|324:22,1,78.5733291953227,0|2,0:0|0:0,0:0:0:0:
214,44,12802,1,2,0:0:0:0:
214,44,13014,6,0,P|278:64|327:63,1,78.5733291953227,0|2,0:0|0:0,0:0:0:0:
437,41,13227,1,2,0:0:0:0:
234,251,13439,6,0,P|165:258|130:265,1,78.5733291953227,0|2,0:0|0:0,0:0:0:0:
79,296,13651,1,2,0:0:0:0:
41,143,13792,1,2,1:0:0:0:
41,143,13863,1,2,1:0:0:0:
373,287,14076,6,0,B|400:259|400:259|327:280|234:251|234:251|176:255|148:276,1,259.859977888711,4|0,3:0|0:0,0:0:0:0:
79,296,14429,5,2,0:0:0:0:
12,236,14500,2,0,P|103:292|139:294,1,117.859993792984,2|0,0:0|0:0,0:0:0:0:
349,275,14854,5,2,0:0:0:0:
419,217,14925,2,0,P|439:153|431:90,1,117.859993792984,2|0,0:0|0:0,0:0:0:0:
248,41,15279,5,2,0:0:0:0:
158,43,15349,2,0,P|239:74|277:99,1,117.859993792984,2|0,0:0|0:0,0:0:0:0:
324,247,15774,5,0,1:0:0:0:
70,153,15986,1,0,3:0:0:0:
254,188,16199,1,0,1:0:0:0:
140,212,16304,1,0,3:0:0:0:
254,188,16410,1,0,1:0:0:0:
140,212,16516,1,0,3:0:0:0:
324,247,16729,1,0,1:0:0:0:
70,153,16941,1,0,3:0:0:0:
324,247,17047,2,0,P|354:250|404:232,1,78.0999945164491,4|0,1:0|1:0,1:0:0:0:
462,182,17471,6,0,P|487:129|477:72,1,117.859993792984,2|0,0:0|0:0,0:0:0:0:
324,247,17892,2,0,L|223:324,1,117.859993792984,2|0,0:0|0:0,0:0:0:0:
230,318,18244,1,0,0:0:0:0:
136,287,18314,2,0,L|229:215,1,117.859993792984,2|0,0:0|0:0,0:0:0:0:
293,169,18665,1,0,0:0:0:0:
324,247,18735,2,0,B|348:319|348:319|293:365,1,117.859993792984,2|0,0:0|0:0,0:0:0:0:
230,318,19087,1,0,0:0:0:0:
136,287,19157,6,0,B|112:215|112:215|167:169,1,117.859993792984,2|0,0:0|0:0,0:0:0:0:
293,169,19508,1,0,0:0:0:0:
293,169,19579,2,0,P|324:119|300:69,1,117.859993792984,2|0,0:0|0:0,0:0:0:0:
144,188,19930,1,0,0:0:0:0:
144,188,20000,2,0,P|113:238|137:288,1,117.859993792984,2|0,0:0|0:0,0:0:0:0:
230,318,20352,1,0,0:0:0:0:
136,287,20422,2,0,L|10:305,1,117.859993792984,2|0,0:0|0:0,0:0:0:0:
86,41,20773,5,0,0:0:0:0:
86,41,20844,1,2,0:0:0:0:
117,117,21054,1,0,0:0:0:0:
148,193,21195,1,0,0:0:0:0:
148,193,21265,1,2,0:0:0:0:
188,52,21476,5,0,0:0:0:0:
219,128,21617,1,0,0:0:0:0:
219,128,21687,1,2,0:0:0:0:
250,204,21898,1,0,0:0:0:0:
290,63,22038,5,0,0:0:0:0:
290,63,22109,1,2,0:0:0:0:
321,139,22319,1,0,0:0:0:0:
352,215,22460,1,0,0:0:0:0:
352,215,22530,1,2,0:0:0:0:
392,74,22741,5,0,0:0:0:0:
423,150,22882,1,0,0:0:0:0:
423,150,22952,1,2,0:0:0:0:
454,226,23163,1,0,0:0:0:0:
234,316,23303,5,0,0:0:0:0:
234,316,23374,1,2,0:0:0:0:
146,332,23514,2,2,L|94:245,1,86.6199926295702,10|2,0:0|0:0,0:0:0:0:
423,150,23795,2,2,L|437:59,1,86.6199926295702,10|2,0:0|0:0,0:0:0:0:
86,41,24000,5,0,0:0:0:0:
117,117,24103,1,0,0:0:0:0:
148,193,24206,1,6,0:0:0:0:
310,84,24423,2,0,P|245:65|204:40,1,78.5733291953227
390,68,24640,1,2,0:0:0:0:
253,177,24851,2,0,P|195:141|161:107,1,78.5733291953227
346,182,25063,1,2,0:0:0:0:
173,252,25275,2,0,P|126:203|103:160,1,78.5733291953227
275,286,25487,1,2,0:0:0:0:
77,304,25698,2,0,P|44:244|33:197,1,78.5733291953227
194,368,25910,6,0,P|175:283|175:220,1,117.859993792984,2|0,0:0|0:0,0:0:0:0:
288,281,26263,1,0,0:0:0:0:
288,281,26334,2,0,P|291:193|307:133,1,117.859993792984,2|0,0:0|0:0,0:0:0:0:
187,168,26687,1,0,0:0:0:0:
173,252,26758,2,0,P|178:311|194:368,1,117.859993792984,2|0,0:0|0:0,0:0:0:0:
194,368,27111,1,0,0:0:0:0:
288,281,27181,2,0,P|291:193|307:133,1,117.859993792984,2|0,0:0|0:0,0:0:0:0:
390,43,27534,5,0,0:0:0:0:
390,43,27605,1,2,0:0:0:0:
309,60,27817,1,0,0:0:0:0:
229,38,27958,1,0,0:0:0:0:
229,38,28028,1,2,0:0:0:0:
2,83,28240,5,0,0:0:0:0:
83,66,28381,1,0,0:0:0:0:
83,66,28452,1,2,0:0:0:0:
163,88,28664,1,0,0:0:0:0:
378,155,28805,5,0,0:0:0:0:
378,155,28876,1,2,0:0:0:0:
297,172,29080,1,0,0:0:0:0:
217,150,29216,1,0,0:0:0:0:
217,150,29299,6,0,B|294:192|378:155|378:155|381:169|368:178,1,187.439986839478,4|0,3:0|0:0,0:0:0:0:
304,279,30252,2,2,B|273:141|349:55|349:55|362:94,1,259.859977888711
433,64,30569,2,0,B|431:78|445:113|378:155|378:155|339:172|297:172,1,196.433322988307,2|0,1:0|0:0,0:0:0:0:
186,248,30993,6,0,P|218:155|145:78,1,196.433322988307,4|2,1:0|0:0,1:0:0:0:
123,174,31415,1,2,0:0:0:0:
247,33,31626,1,0,0:0:0:0:
372,250,31766,1,2,0:0:0:0:
354,166,31836,2,0,L|324:26,1,117.859993792984,2|0,0:0|0:0,0:0:0:0:
123,174,32187,1,2,0:0:0:0:
123,174,32258,2,0,P|199:150|258:158,1,117.859993792984,2|0,0:0|0:0,0:0:0:0:
265,351,32609,1,2,0:0:0:0:
265,351,32679,5,2,0:0:0:0:
372,250,32890,2,0,L|277:232,1,78.5733291953227,0|2,0:0|0:0,0:0:0:0:
423,322,33100,1,2,0:0:0:0:
143,289,33311,2,0,L|238:271,1,78.5733291953227,0|2,0:0|0:0,0:0:0:0:
372,250,33522,1,2,0:0:0:0:
72,214,33662,1,2,0:0:0:0:
72,214,33732,1,2,0:0:0:0:
181,43,33873,1,2,3:0:0:0:
181,43,33943,1,2,3:0:0:0:
181,43,34083,1,2,1:0:0:0:
181,43,34364,6,0,P|295:119|68:203,1,519.719955777421,4|0,1:0|0:0,0:0:0:0:
177,75,34926,1,2,0:0:0:0:
177,75,34996,6,0,P|260:130|94:192,1,377.719959070681,4|0,0:0|0:0,0:0:0:0:
178,108,35558,1,2,0:0:0:0:
178,108,35628,6,0,P|230:142|126:181,1,234.299983549347,4|0,0:0|0:0,0:0:0:0:
474,326,36822,1,2,0:0:0:0:
474,326,36892,2,0,B|434:315|434:315|420:342|420:342|431:342,1,78.0999945164491,8|0,0:0|0:0,0:0:0:0:
342,342,37314,2,2,B|313:349|313:349|220:311|220:311|256:305,1,157.146658390645
498,175,37735,6,0,P|443:188|224:103,1,259.859977888711,4|0,1:0|0:0,0:0:0:0:
176,16,38157,2,0,P|199:68|132:109,1,117.859993792984,8|0,0:0|0:0,0:0:0:0:
204,313,38509,1,2,0:0:0:0:
204,313,38580,1,2,0:0:0:0:
240,185,38791,1,0,0:0:0:0:
46,210,38932,1,2,0:0:0:0:
46,210,39002,2,0,L|172:188,1,117.859993792984,2|0,0:0|0:0,0:0:0:0:
455,97,39354,1,2,0:0:0:0:
441,135,39425,6,0,P|390:106|361:42,1,117.859993792984,2|0,0:0|0:0,0:0:0:0:
355,193,39777,1,2,0:0:0:0:
313,233,39847,2,0,P|271:191|259:122,1,117.859993792984,2|0,0:0|0:0,0:0:0:0:
193,279,40199,1,2,0:0:0:0:
117,302,40270,2,0,P|87:251|94:181,1,117.859993792984,2|0,0:0|0:0,0:0:0:0:
145,120,40622,2,0,L|173:213,1,78.5733291953227,0|2,0:0|0:0,0:0:0:0:
350,345,40841,1,2,0:0:0:0:
350,345,41139,6,0,L|433:66,1,259.859977888711,4|0,1:0|0:0,0:0:0:0:
145,120,41558,1,8,0:0:0:0:
145,120,41768,1,0,0:0:0:0:
167,195,41908,1,2,0:0:0:0:
167,195,41978,1,2,0:0:0:0:
352,72,42187,2,2,B|284:72|194:37|194:37|206:65|203:79,2,188.85997953534
148,231,42817,5,0,1:0:0:0:
370,192,43027,1,0,1:0:0:0:
148,152,43238,1,2,3:0:0:0:
343,265,43343,1,0,3:0:0:0:
198,93,43448,1,2,3:0:0:0:
275,304,43553,1,0,3:0:0:0:
275,79,43764,1,0,3:0:0:0:
198,290,43974,1,0,3:0:0:0:
343,118,44080,2,0,L|279:171,1,78.0999945164491,4|0,0:0|0:0,0:0:0:0:
106,301,44501,5,4,0:0:0:0:
106,301,44712,1,0,0:0:0:0:
348,239,44852,1,2,0:0:0:0:
348,239,44923,2,0,B|269:211|198:264|198:264|150:243,1,188.85997953534,10|0,0:0|0:0,0:0:0:0:
106,55,45345,2,0,B|169:111|170:252|170:252|232:303|280:279,2,314.766632558901,0|0|0,0:0|1:0|0:0,0:0:0:0:
210,63,46119,1,2,0:0:0:0:
284,110,46189,6,0,P|357:102|408:73,1,117.859993792984,2|0,0:0|0:0,0:0:0:0:
77,38,46541,1,2,0:0:0:0:
98,125,46611,2,0,L|125:240,1,117.859993792984,2|0,0:0|0:0,0:0:0:0:
279,331,46963,1,2,0:0:0:0:
332,248,47033,2,0,P|290:202|215:194,1,117.859993792984,2|0,0:0|0:0,0:0:0:0:
139,203,47350,2,2,P|83:231|56:302,1,117.859993792984
279,331,47666,1,2,3:0:0:0:
40,79,47877,5,2,0:0:0:0:
40,79,48088,2,0,P|106:72|145:20,2,117.859993792984,2|8|0,0:0|0:0|0:0,0:0:0:0:
438,82,48722,2,0,P|313:39|250:145,1,235.719987585968,0|0,1:0|0:0,0:0:0:0:
493,167,49355,5,0,0:0:0:0:
493,167,49566,2,2,P|446:253|440:337,1,173.23998525914,2|2,0:0|2:0,0:0:0:0:
291,370,49777,2,2,P|336:256|418:187,1,173.23998525914,2|2,0:0|2:0,0:0:0:0:
258,125,49988,2,2,P|249:217|186:296,1,173.23998525914,2|2,0:0|2:0,0:0:0:0:
96,259,50199,1,2,0:0:0:0:
125,161,50269,2,2,P|131:228|122:261,1,62.9533265117801
10,334,50410,2,2,P|88:316|137:286,1,117.859993792984
292,52,50832,2,2,P|214:70|165:100,1,117.859993792984
333,356,51254,6,2,B|339:232|491:177|491:177|496:79|340:50|315:164,1,433.099963147851,4|0,1:0|0:0,0:0:0:0:
278,222,51678,2,0,P|196:244|131:231,1,117.859993792984,8|0,0:0|0:0,0:0:0:0:
19,34,52102,2,0,P|36:77|91:116,1,78.5733291953227,2|0,0:0|0:0,0:0:0:0:
286,50,52314,1,0,0:0:0:0:
286,50,52455,1,2,0:0:0:0:
286,50,52526,2,0,L|135:69,1,117.859993792984
24,178,52879,1,2,0:0:0:0:
24,178,52950,5,2,0:0:0:0:
205,215,53162,2,0,B|172:196|141:218|141:218|110:245|68:218,1,117.859993792984
299,318,53515,1,2,0:0:0:0:
299,318,53586,1,0,0:0:0:0:
299,318,53727,1,0,0:0:0:0:
299,318,53798,2,0,L|382:343,1,78.5733291953227,2|0,0:0|0:0,0:0:0:0:
305,192,54010,2,0,L|364:255,1,78.5733291953227,2|0,1:0|0:0,0:0:0:0:
373,85,54222,2,0,L|392:169,1,78.5733291953227,2|0,3:0|0:0,0:0:0:0:
374,340,54434,1,4,0:0:0:0:
374,340,54646,6,0,L|220:350,1,117.859993792984,4|0,0:0|0:0,0:0:0:0:
57,290,54999,1,2,3:0:0:0:
57,290,55070,2,2,L|101:300,1,39.2866645976614,2|2,3:0|3:0,3:0:0:0:
87,266,55211,2,2,L|41:264,1,39.2866645976614,2|2,3:0|3:0,3:0:0:0:
63,241,55352,2,2,L|107:251,1,39.2866645976614,2|2,3:0|3:0,3:0:0:0:
105,220,55494,2,2,L|59:218,1,39.2866645976614,2|2,3:0|3:0,3:0:0:0:
69,192,55635,2,2,L|113:202,1,39.2866645976614,2|2,3:0|3:0,3:0:0:0:
123,174,55776,2,2,L|77:172,1,39.2866645976614,2|2,3:0|3:0,3:0:0:0:
75,143,55918,2,2,L|119:153,1,39.2866645976614,2|2,3:0|3:0,3:0:0:0:
142,128,56059,2,2,L|96:126,1,39.2866645976614,2|2,3:0|3:0,3:0:0:0:
81,94,56200,2,2,L|125:104,1,39.2866645976614,2|2,3:0|3:0,3:0:0:0:
190,46,56342,5,4,0:0:0:0:
203,245,56554,1,2,3:0:0:0:
322,46,56766,1,0,1:0:0:0:
309,245,56872,1,0,3:0:0:0:
322,46,56978,1,0,1:0:0:0:
142,128,57084,1,0,3:0:0:0:
349,173,57296,1,0,1:0:0:0:
142,128,57508,1,2,3:0:0:0:
349,173,57614,2,0,P|290:171|265:181,1,78.0999945164491,4|0,3:0|0:0,0:0:0:0:
190,255,58038,6,2,L|185:239,1,11.7149991774674,2|0,0:0|0:0,0:0:0:0:
143,258,58143,6,2,L|146:241,1,17.7499988079071,2|0,0:0|0:0,0:0:0:0:
105,239,58248,6,2,L|116:226,1,17.7499988079071,2|0,0:0|0:0,0:0:0:0:
83,207,58353,6,2,L|99:202,1,17.7499988079071,2|0,0:0|0:0,0:0:0:0:
81,173,58458,6,2,L|97:176,1,17.7499988079071,2|0,0:0|0:0,0:0:0:0:
95,145,58562,6,2,L|107:156,1,17.7499988079071,2|0,0:0|0:0,0:0:0:0:
118,130,58667,6,2,L|122:147,1,17.7499988079071,2|0,0:0|0:0,0:0:0:0:
142,128,58772,6,2,L|137:146,1,17.7499988079071,2|0,0:0|0:0,0:0:0:0:
163,138,58877,6,2,L|151:150,1,17.7499988079071,2|0,0:0|0:0,0:0:0:0:
174,155,58982,6,2,L|157:160,1,17.7499988079071,2|0,0:0|0:0,0:0:0:0:
175,173,59086,6,2,L|158:169,1,17.7499988079071,2|0,0:0|0:0,0:0:0:0:
168,188,59191,6,2,L|155:176,1,17.7499988079071,2|0,0:0|0:0,0:0:0:0:
156,196,59296,6,2,L|151:179,1,17.7499988079071,2|0,0:0|0:0,0:0:0:0:
142,197,59401,6,2,L|145:180,1,17.7499988079071,2|0,0:0|0:0,0:0:0:0:
132,191,59505,6,2,L|143:178,1,17.7499988079071,2|0,0:0|0:0,0:0:0:0:
126,183,59610,6,2,L|142:178,1,17.7499988079071,2|0,0:0|0:0,0:0:0:0:
143,164,59715,5,4,1:0:0:0:
357,123,59820,1,8,0:0:0:0:
368,140,60348,5,4,3:0:0:0:
140,79,60454,1,8,0:0:0:0:
126,99,60982,6,2,P|171:93|206:110,1,78.0999945164491
88,94,61426,6,0,P|177:214|241:186,1,173.23998525914,4|0,1:0|0:0,0:0:0:0:
302,53,61615,2,0,L|263:186,1,94.4299897676702,10|0,0:0|0:0,0:0:0:0:
224,300,61826,1,0,0:0:0:0:
408,356,61931,2,0,P|359:310|292:291,1,94.4299897676702,8|0,0:0|0:0,0:0:0:0:
175,213,62143,1,0,0:0:0:0:
224,300,62248,2,0,P|300:301|346:272,1,94.4299897676702,8|0,0:0|0:0,0:0:0:0:
386,230,62460,2,0,B|439:237|488:181|488:181|472:246,2,141.644984651505,8|0|8,0:0|0:0|0:0,0:0:0:0:
213,122,62882,1,0,0:0:0:0:
398,137,62988,6,0,L|303:145,1,94.4299897676702,4|0,0:0|0:0,0:0:0:0:
132,68,63305,2,0,P|103:167|104:211,1,94.4299897676702,12|0,0:0|0:0,0:0:0:0:
129,290,63516,1,0,0:0:0:0:
47,233,63622,1,8,0:0:0:0:
291,277,63833,1,0,0:0:0:0:
209,220,63938,1,8,0:0:0:0:
453,265,64150,1,0,0:0:0:0:
372,208,64255,2,0,L|277:140,1,94.4299897676702,8|0,0:0|0:0,0:0:0:0:
120,124,64467,2,0,P|174:130|231:114,1,94.4299897676702,8|0,0:0|0:0,0:0:0:0:
360,24,64678,6,0,P|296:119|351:199,1,188.85997953534,2|0,0:0|0:0,0:0:0:0:
343,352,64995,2,0,L|383:251,1,94.4299897676702,8|0,0:0|0:0,0:0:0:0:
356,90,65208,1,0,0:0:0:0:
356,90,65315,2,0,L|321:177,1,94.4299897676702,8|0,0:0|0:0,0:0:0:0:
219,338,65529,1,0,0:0:0:0:
219,338,65636,2,0,L|259:237,1,94.4299897676702,8|0,0:0|0:0,0:0:0:0:
232,76,65850,1,0,0:0:0:0:
232,76,65957,2,0,L|197:163,1,94.4299897676702,8|0,0:0|0:0,0:0:0:0:
79,264,66171,2,0,B|151:264|151:264|172:216,1,94.4299897676702,8|0,0:0|0:0,0:0:0:0:
32,98,66385,6,0,B|86:177|79:264|79:264|145:271|145:271|114:336,1,259.859977888711,4|0,3:0|0:0,0:0:0:0:
219,338,66706,1,4,0:0:0:0:
419,87,66920,2,0,L|381:173,1,94.4299897676702,4|0,3:0|0:0,0:0:0:0:
219,338,67145,1,4,3:0:0:0:
419,87,67343,1,0,0:0:0:0:
419,87,67540,2,2,B|370:198|370:198|340:238|340:238|333:284|333:284|296:310|296:310|334:331,1,294.64998448246,2|2,1:0|2:0,1:0:0:0:
323,325,68385,6,0,P|306:147|191:119,1,259.859977888711,4|0,1:0|0:0,0:0:0:0:
219,31,68701,2,0,L|332:49,1,94.4299897676702,8|0,0:0|0:0,0:0:0:0:
470,94,68912,1,0,0:0:0:0:
470,94,69017,2,0,P|386:95|342:127,1,94.4299897676702,8|0,0:0|0:0,0:0:0:0:
204,264,69228,1,0,0:0:0:0:
473,206,69439,2,0,L|316:212,1,94.4299897676702,8|0,0:0|0:0,0:0:0:0:
299,262,69649,1,0,0:0:0:0:
289,112,69755,2,0,B|301:53|301:53|326:31,1,94.4299897676702,8|0,0:0|0:0,0:0:0:0:
168,343,70071,5,4,0:0:0:0:
150,93,70282,1,0,0:0:0:0:
207,167,70387,2,0,P|205:224|152:273,1,94.4299897676702,8|0,0:0|0:0,0:0:0:0:
90,302,70598,1,0,0:0:0:0:
33,228,70704,2,0,P|31:181|55:141,1,94.4299897676702,8|0,0:0|0:0,0:0:0:0:
150,93,70914,1,0,0:0:0:0:
207,167,71020,2,0,P|257:193|326:172,1,94.4299897676702,8|0,0:0|0:0,0:0:0:0:
422,82,71231,1,0,0:0:0:0:
479,156,71336,2,0,P|480:202|456:242,1,94.4299897676702,8|0,0:0|0:0,0:0:0:0:
305,217,71547,6,0,P|307:160|360:111,1,94.4299897676702,2|0,0:0|0:0,0:0:0:0:
433,62,71758,2,0,B|380:286|380:286|332:323,1,259.859977888711,4|0,0:0|0:0,0:0:0:0:
197,304,72074,2,0,B|234:150|234:150|258:131,1,188.85997953534,4|0,0:0|0:0,0:0:0:0:
323,61,72390,2,0,B|243:15|186:72|186:72|96:95|67:33,2,251.813306047121,4|0|2,0:0|1:0|0:0,0:0:0:0:
200,337,73233,5,2,3:0:0:0:
321,297,73374,1,2,3:0:0:0:
191,233,73515,1,2,3:0:0:0:
330,193,73655,1,2,3:0:0:0:
182,129,73796,1,2,3:0:0:0:
339,89,73936,1,2,3:0:0:0:
148,337,74288,6,2,P|226:193|38:293,1,519.719955777421,6|2,2:0|3:0,0:0:0:0:
10,282,75131,6,0,L|226:251,1,129.929988944355,12|0,0:0|0:0,0:0:0:0:
290,219,75342,1,0,0:0:0:0:
200,191,75447,2,0,P|140:169|95:178,1,94.4299897676702,8|0,0:0|0:0,0:0:0:0:
290,219,75658,2,0,P|290:116|208:55,1,188.85997953534,8|0,0:0|0:0,0:0:0:0:
378,31,75975,1,0,0:0:0:0:
378,31,76186,2,0,L|251:57,1,94.4299897676702,8|0,0:0|0:0,0:0:0:0:
461,357,76398,1,0,0:0:0:0:
393,299,76609,6,0,L|442:93,1,188.85997953534,0|4,0:0|0:0,0:0:0:0:
143,97,77031,1,0,0:0:0:0:
167,188,77137,2,0,L|196:292,1,94.4299897676702,8|0,0:0|0:0,0:0:0:0:
234,121,77348,1,0,0:0:0:0:
143,97,77454,1,0,0:0:0:0:
192,278,77665,1,0,0:0:0:0:
192,278,77770,2,0,L|343:123,1,188.85997953534,8|8,0:0|0:0,0:0:0:0:
14,93,78193,6,0,P|72:180|72:276,1,188.85997953534,2|0,0:0|0:0,0:0:0:0:
278,319,78510,1,4,0:0:0:0:
192,278,78721,1,0,0:0:0:0:
278,319,78826,2,0,P|353:339|409:339,1,94.4299897676702,8|0,0:0|0:0,0:0:0:0:
213,93,79038,1,0,0:0:0:0:
135,147,79143,2,0,P|80:202|52:251,1,94.4299897676702,8|0,0:0|0:0,0:0:0:0:
362,204,79354,1,0,0:0:0:0:
354,109,79460,2,0,P|334:34|306:-14,1,94.4299897676702,8|0,0:0|0:0,0:0:0:0:
135,147,79671,2,0,P|80:202|52:251,1,94.4299897676702,8|0,0:0|0:0,0:0:0:0:
424,357,79882,6,0,B|383:267|383:267|211:173|211:173|265:326,1,389.789966833066,4|2,1:0|0:0,0:0:0:0:
243,263,80410,2,0,B|294:290|294:290|331:280,1,94.4299897676702
122,80,80727,1,0,0:0:0:0:
122,80,81044,2,2,B|19:88|9:170|57:199|120:191|120:191|205:178|249:260|165:338|36:297,1,472.149948838351,2|2,1:0|0:0,1:0:0:0:
166,325,81677,1,4,0:0:0:0:
166,325,81889,6,0,L|64:34,1,259.859977888711,4|0,0:0|0:0,0:0:0:0:
167,33,82205,2,0,L|136:122,1,94.4299897676702,8|0,0:0|0:0,0:0:0:0:
348,361,82417,1,0,0:0:0:0:
257,343,82522,2,0,L|226:254,1,94.4299897676702,8|0,0:0|0:0,0:0:0:0:
361,57,82733,2,0,P|404:108|411:168,1,94.4299897676702,8|0,0:0|0:0,0:0:0:0:
392,289,82945,2,0,L|366:194,2,94.4299897676702,8|0|0,0:0|0:0|0:0,0:0:0:0:
166,325,83367,5,2,0:0:0:0:
361,57,83578,1,6,0:0:0:0:
174,231,83789,1,0,0:0:0:0:
89,271,83895,2,0,B|24:302|24:302|45:254,1,94.4299897676702,8|0,0:0|0:0,0:0:0:0:
361,57,84212,2,0,L|149:158,2,188.85997953534,8|0|2,0:0|0:0|0:0,0:0:0:0:
89,271,84740,1,2,0:0:0:0:
174,231,84845,1,2,0:0:0:0:
386,311,85057,5,2,0:0:0:0:
386,311,85268,2,0,P|455:195|308:99,1,314.766632558901,4|2,0:0|0:0,0:0:0:0:
344,205,85690,1,2,0:0:0:0:
256,38,85901,1,0,0:0:0:0:
168,205,86113,1,8,3:0:0:0:
344,205,86218,1,8,3:0:0:0:
256,169,86324,1,8,3:0:0:0:
256,326,86535,1,0,0:0:0:0:
344,205,86746,5,2,3:0:0:0:
354,301,86890,1,2,3:0:0:0:
256,169,87034,1,2,3:0:0:0:
256,326,87179,1,2,3:0:0:0:
168,205,87323,1,2,3:0:0:0:
158,301,87468,1,2,3:0:0:0:
158,301,87829,2,0,B|129:256|99:246|99:246|30:226|21:160|78:114|124:142|124:142|168:96|219:117|267:180|222:241|153:221,1,433.099963147851,4|2,1:0|0:0,0:0:0:0:
192,213,88251,1,4,3:0:0:0:
430,159,88462,5,4,0:0:0:0:
289,90,88674,1,2,3:0:0:0:
379,83,88885,1,2,3:0:0:0:
379,83,88990,1,2,3:0:0:0:
82,225,89202,5,4,0:0:0:0:
109,309,89519,1,2,3:0:0:0:
201,326,89730,1,2,3:0:0:0:
201,326,89800,1,2,3:0:0:0:
403,309,90047,5,4,3:0:0:0:
484,196,90364,1,0,3:0:0:0:
484,196,90469,1,0,3:0:0:0:
484,196,90575,2,0,P|493:135|473:61,1,125.90665302356,0|0,3:0|0:0,0:0:0:0:
28,196,90892,1,2,0:0:0:0:
28,196,90997,1,2,0:0:0:0:
28,196,91103,2,0,P|19:135|39:61,1,94.4299897676702,6|0,3:0|0:0,0:0:0:0:
83,259,91314,2,0,B|32:132|82:41|82:41|153:90|127:195,1,389.789966833066,4|0,3:0|0:0,0:0:0:0:
21,362,91843,5,4,0:0:0:0:
403,309,92054,1,2,3:0:0:0:
311,326,92162,1,2,3:0:0:0:
403,309,92271,1,2,3:0:0:0:
311,326,92379,1,2,3:0:0:0:
457,88,92584,2,0,P|338:84|196:-1,1,283.289969303011,4|0,0:0|0:0,0:0:0:0:
149,75,92997,1,0,0:0:0:0:
256,192,93100,2,2,B|264:167|271:163|271:163|295:142|295:123|276:119|249:140|249:140|238:114|210:118|208:141|224:153|224:153|228:168|221:181,1,188.85997953534,0|0,1:0|0:0,1:0:0:0:
414,305,93515,5,0,3:0:0:0:
56,192,93659,1,0,3:0:0:0:
192,377,93804,1,0,3:0:0:0:
414,73,93949,1,0,3:0:0:0:
192,1,94094,1,0,3:0:0:0:
256,192,94239,1,2,3:0:0:0:
256,192,94601,6,0,B|262:174|267:171|267:171|285:156|285:142|271:139|251:154|251:154|243:135|223:138|221:155|233:164|233:164|236:175|231:184,1,140.579990129608,2|2,2:0|0:0,0:0:0:0:
