osu file format v14

[General]
AudioFilename: audio.mp3
AudioLeadIn: 0
PreviewTime: 61615
Countdown: 0
SampleSet: Soft
StackLeniency: 0.7
Mode: 0
LetterboxInBreaks: 0
WidescreenStoryboard: 1

[Editor]
DistanceSpacing: 1
BeatDivisor: 2
GridSize: 4
TimelineZoom: 2

[Metadata]
Title:Deal with the devil
TitleUnicode:Deal with the devil
Artist:Tia
ArtistUnicode:Tia
Creator:Hey lululu
Version:Easy
Source:賭ケグルイ
Tags:ryo (supercell) kakegurui anime op tv size Compulsive Gambler - AzRaeL - -N a n a k o- Garden Koalazy Akitoshi
BeatmapID:1427073
BeatmapSetID:666709

[Difficulty]
HPDrainRate:2
CircleSize:3
OverallDifficulty:2
ApproachRate:3
SliderMultiplier:0.899999904632568
SliderTickRate:1

[Events]
//Background and Video events
0,0,"BG.png",0,0
//Break Periods
2,58238,60175
//Storyboard Layer 0 (Background)
//Storyboard Layer 1 (Fail)
//Storyboard Layer 2 (Pass)
//Storyboard Layer 3 (Foreground)
//Storyboard Sound Samples

[TimingPoints]
563,405.405405405405,4,2,1,75,1,0
968,415.800415800416,4,2,1,75,1,0
2215,433.212996389892,4,2,1,75,1,0
3947,422.535211267606,4,2,1,75,1,0
5637,424.028268551237,4,2,1,75,1,0
6909,405.405405405405,4,2,1,75,1,0
7010,441.176470588235,4,2,1,75,1,0
7340,413.365483982087,4,2,1,75,1,0
8993,476.190476190476,4,2,1,75,1,0
9469,392.156862745098,4,2,1,75,1,0
9665,389.61038961039,4,2,1,75,1,0
9860,419.58041958042,4,2,1,75,1,0
10279,400,4,2,1,75,1,0
10679,424.628450106157,4,2,2,75,1,0
13757,-100,4,2,1,75,0,0
14076,-100,4,2,2,75,0,0
15774,424.478245489919,4,2,1,75,1,0
17471,421.644413211525,4,2,3,50,1,0
23374,-100,4,2,1,50,0,0
23795,410.958904109589,4,2,1,50,1,0
24206,434.782608695652,4,2,3,50,1,0
24640,423.579244617014,4,2,3,50,1,0
25911,423.579244617014,4,2,3,50,1,0
28876,408.163265306122,4,2,3,50,1,0
29299,423.579244617014,4,2,1,50,1,0
30994,421.348314606742,4,2,4,75,1,0
33943,-100,4,2,1,75,0,0
34364,-100,4,2,4,75,0,0
36050,-100,4,2,1,75,0,0
37735,422.535211267606,4,2,4,75,1,0
40841,397.350993377483,4,2,1,75,1,0
41139,419.58041958042,4,2,4,75,1,0
42817,421.052631578947,4,2,1,75,1,0
44501,422.113098169436,4,2,1,75,1,0
51254,424.028268551237,4,2,1,75,1,0
58039,419.14076143905,4,2,1,75,1,0
59715,422.535211267606,4,2,1,75,1,0
60982,405.405405405405,4,2,1,75,1,0
61426,379.746835443038,4,2,1,75,1,0
61615,422.535211267606,4,2,1,75,1,1
64995,427.807486631016,4,2,1,75,1,1
66920,451.127819548872,4,2,1,75,1,1
67146,394.088669950739,4,2,1,75,1,1
67540,422.535211267606,4,2,1,75,1,1
67962,-100,4,2,1,75,0,0
68385,421.644413211525,4,2,1,75,1,1
74709,-100,4,2,1,75,0,0
75131,422.386483632524,4,2,1,75,1,1
81466,-100,4,2,1,75,0,0
81889,-100,4,2,1,75,0,1
85268,422.535211267606,4,2,1,75,1,1
86746,433.212996389892,4,2,1,75,1,1
87829,422.535211267606,4,2,1,75,1,1
88462,-100,4,2,1,75,0,0
88674,422.535211267606,4,2,1,75,1,0
92054,434.782608695652,4,2,1,75,1,0
92380,408.163265306122,4,2,1,75,1,0
92584,413.793103448276,4,2,1,75,1,0
92894,413.793103448276,4,2,1,75,1,0
93515,434.782608695652,4,2,1,75,1,0

[Colours]
Combo1 : 0,128,255
Combo2 : 255,255,0
Combo3 : 0,255,255
Combo4 : 255,0,0

[HitObjects]
54,194,2215,6,0,B|122:166|182:210|182:210|238:253|325:220,1,269.99997138977,0|4,0:0|0:3,0:0:0:0:
376,160,3947,2,0,P|436:151|490:207,1,134.999985694885,8|0,0:0|0:0,0:0:0:0:
465,325,5214,1,2,0:0:0:0:
382,359,5637,2,0,L|246:335,1,134.999985694885,8|0,0:0|0:0,0:0:0:0:
122,253,7010,2,0,P|117:213|127:181,1,67.4999928474426
256,192,7546,12,8,8993,0:0:0:0:
88,149,10679,6,0,L|98:295,2,134.999985694885,8|8|0,0:0|0:0|0:0,0:0:0:0:
34,74,12377,1,0,0:0:0:0:
99,12,12802,2,0,P|140:25|199:21,1,89.9999904632568,0|0,0:0|0:0,0:0:0:0:
272,1,13651,1,0,0:0:0:0:
333,66,14076,6,0,L|477:45,2,134.999985694885,0|8|0,0:0|0:0|0:0,0:0:0:0:
285,142,15774,1,8,0:0:0:0:
351,202,16198,2,0,L|454:185,1,89.9999904632568,8|0,0:0|0:0,0:0:0:0:
479,268,17047,1,8,0:0:0:0:
413,330,17471,6,0,P|365:332|308:307,1,89.9999904632568,2|2,0:0|0:0,0:0:0:0:
257,259,18314,2,0,L|269:158,1,89.9999904632568,2|2,0:0|0:0,0:0:0:0:
194,117,19157,2,0,L|182:16,2,89.9999904632568,2|2|2,0:0|0:0|0:0,0:0:0:0:
135,183,20422,1,2,0:0:0:0:
75,251,20844,6,0,P|45:195|67:122,2,134.999985694885,2|0|2,0:0|0:0|0:0,0:0:0:0:
160,280,22530,1,2,0:0:0:0:
241,241,22952,2,0,L|337:230,1,89.9999904632568,2|0,0:0|0:0,0:0:0:0:
388,158,23795,1,8,0:0:0:0:
318,108,24206,6,0,L|228:118,1,89.9999904632568,2|2,0:0|0:0,0:0:0:0:
147,78,25063,2,0,P|136:116|154:170,1,89.9999904632568,2|2,0:0|0:0,0:0:0:0:
225,202,25911,2,0,L|314:191,1,89.9999904632568,2|2,0:0|0:0,0:0:0:0:
396,154,26758,1,2,0:0:0:0:
369,68,27181,1,2,0:0:0:0:
282,42,27605,6,0,L|136:54,2,134.999985694885,2|0|2,0:0|0:0|0:0,0:0:0:0:
366,68,29299,1,2,0:0:0:0:
324,243,30146,2,0,P|270:262|226:258,1,89.9999904632568,0|2,0:0|0:1,0:0:0:0:
147,248,30994,6,0,L|156:346,2,89.9999904632568,4|0|0,0:0|0:0|0:0,0:0:0:0:
141,158,32258,1,2,0:0:0:0:
87,85,32679,2,0,P|37:92|-4:83,2,89.9999904632568,2|0|0,0:0|0:0|0:0,0:0:0:0:
156,27,33943,1,0,0:0:0:0:
213,95,34364,6,0,L|199:242,2,134.999985694885,0|2|2,0:0|0:0|0:0,0:0:0:0:
282,39,36050,2,0,P|368:34|425:111,1,179.999980926514,8|0,0:0|0:0,0:0:0:0:
418,192,37314,1,8,0:0:0:0:
372,269,37735,6,0,L|281:283,2,89.9999904632568,4|0|0,0:0|0:0|0:0,0:0:0:0:
445,321,39002,1,2,0:0:0:0:
362,356,39425,2,0,L|271:370,1,89.9999904632568,2|0,0:0|0:0,0:0:0:0:
183,362,40270,2,0,P|158:325|152:271,1,89.9999904632568
184,191,41139,6,0,L|159:46,2,134.999985694885,4|2|0,0:0|0:0|0:0,0:0:0:0:
255,243,42817,2,0,B|347:289|415:213|415:213|438:127|374:22,1,359.999961853027,8|6,0:0|0:0,0:0:0:0:
295,58,44923,6,0,P|190:86|84:25,1,224.999976158142,0|2,0:0|0:0,0:0:0:0:
32,102,46400,2,0,L|50:246,1,134.999985694885,0|2,0:0|0:0,0:0:0:0:
96,312,47455,1,2,0:0:0:0:
177,274,47877,6,0,P|223:268|283:282,1,89.9999904632568,2|0,0:0|0:0,0:0:0:0:
343,320,48722,2,0,L|372:127,1,179.999980926514,2|8,0:0|0:0,0:0:0:0:
303,83,49988,1,8,0:0:0:0:
234,141,50410,2,0,L|218:242,1,89.9999904632568,0|8,0:0|0:0,0:0:0:0:
157,294,51254,6,0,P|71:281|40:193,1,179.999980926514,4|2,0:0|0:0,0:0:0:0:
72,119,52526,1,0,0:0:0:0:
161,106,52950,1,2,0:0:0:0:
229,163,53374,2,0,L|322:155,1,89.9999904632568,2|2,0:0|0:0,0:0:0:0:
375,85,54222,1,2,0:0:0:0:
310,22,54646,6,0,L|220:29,1,89.9999904632568
156,92,55494,2,0,L|66:99,1,89.9999904632568,0|0,0:0|0:0,0:0:0:0:
54,188,56342,2,0,B|143:179|143:179|317:228|317:228|412:218,1,359.999961853027,8|0,0:0|0:0,0:0:0:0:
115,68,61615,6,0,L|129:173,1,89.9999904632568,4|8,0:1|0:0,0:0:0:0:
216,155,62460,2,0,L|230:260,1,89.9999904632568,8|8,0:0|0:0,0:0:0:0:
301,296,63305,2,0,P|369:313|425:272,2,134.999985694885,8|8|0,0:0|0:0|0:0,0:0:0:0:
351,222,64995,6,0,L|338:83,2,134.999985694885,8|8|0,0:0|0:0|0:0,0:0:0:0:
258,310,66920,1,2,0:0:0:0:
126,319,67540,2,0,L|113:226,1,89.9999904632568,4|8,0:0|0:0,0:0:0:0:
68,151,68385,6,0,P|108:140|165:160,1,89.9999904632568,4|8,0:1|0:0,0:0:0:0:
213,219,69228,2,0,P|253:230|310:210,1,89.9999904632568,8|8,0:0|0:0,0:0:0:0:
388,214,70071,2,0,L|381:318,2,89.9999904632568,8|0|8,0:0|0:0|0:0,0:0:0:0:
465,168,71336,1,8,0:0:0:0:
428,85,71758,6,0,P|356:96|292:98,1,134.999985694885,8|0,0:0|0:0,0:0:0:0:
138,188,73233,2,0,P|78:100|151:16,1,224.999976158142,0|4,0:0|0:0,0:0:0:0:
277,130,75131,6,0,L|180:119,1,89.9999904632568,4|8,0:1|0:0,0:0:0:0:
135,193,75975,2,0,L|224:203,1,89.9999904632568,8|8,0:0|0:0,0:0:0:0:
312,220,76820,2,0,B|378:212|378:212|445:236,2,134.999985694885,8|8|0,0:0|0:0|0:0,0:0:0:0:
229,256,78510,6,0,P|205:317|222:398,2,134.999985694885,8|8|0,0:0|0:0|0:0,0:0:0:0:
339,333,80410,1,2,0:0:0:0:
421,227,81044,2,0,B|466:236|466:236|534:224,1,89.9999904632568,4|8,0:0|0:0,0:0:0:0:
498,138,81889,6,0,L|515:32,1,89.9999904632568,4|8,0:1|0:0,0:0:0:0:
422,42,82733,2,0,L|407:130,1,89.9999904632568,8|8,0:0|0:0,0:0:0:0:
346,197,83578,2,0,B|301:210|301:210|232:191,2,89.9999904632568,8|0|8,0:0|0:0|0:0,0:0:0:0:
347,106,84845,1,8,0:0:0:0:
274,52,85268,6,0,P|205:56|131:89,1,134.999985694885,8|0,0:0|0:0,0:0:0:0:
55,231,86746,2,0,B|132:281|132:281|271:244,1,224.999976158142,0|4,0:0|0:1,0:0:0:0:
353,344,88462,6,0,P|428:344|470:277,1,157.499983310699,2|2,0:1|0:1,0:0:0:0:
415,108,90047,1,0,0:0:0:0:
233,239,91103,2,0,P|232:161|208:86,1,157.499983310699,0|6,0:0|0:1,0:0:0:0:
47,85,92584,2,0,L|41:156,1,67.4999928474426,2|0,0:1|0:0,0:0:0:0:
9,276,93515,2,0,B|73:257|136:272|136:272|150:322,1,179.999980926514,8|0,0:0|0:0,0:0:0:0:
