osu file format v14

[General]
AudioFilename: audio.mp3
AudioLeadIn: 0
PreviewTime: 61594
Countdown: 0
SampleSet: Soft
StackLeniency: 0.3
Mode: 0
LetterboxInBreaks: 0
WidescreenStoryboard: 1

[Editor]
Bookmarks: 2228,3918,10678,17439,24199,30960,44481,58002,61382,68566,73213,74904,86735,88425,93495,94340
DistanceSpacing: 0.5
BeatDivisor: 8
GridSize: 8
TimelineZoom: 2.6

[Metadata]
Title:Deal with the devil
TitleUnicode:Deal with the devil
Artist:Tia
ArtistUnicode:Tia
Creator:DeviousPanda
Version:diuS' Insane
Source:賭ケグルイ
Tags:Kakegurui Anime OP
BeatmapID:1382423
BeatmapSetID:638443

[Difficulty]
HPDrainRate:5.4
CircleSize:4.4
OverallDifficulty:8
ApproachRate:9.3
SliderMultiplier:2.99999990463257
SliderTickRate:1

[Events]
//Background and Video events
0,0,"Kakegurui BG.png",0,0
//Break Periods
//Storyboard Layer 0 (Background)
//Storyboard Layer 1 (Fail)
//Storyboard Layer 2 (Pass)
//Storyboard Layer 3 (Foreground)
//Storyboard Sound Samples

[TimingPoints]
2238,422.535211267606,4,3,0,70,1,0
2238,-100,4,3,0,70,0,0
15759,-83.3333333333333,4,3,0,70,0,0
15917,-83.3333333333333,4,3,0,5,0,0
15970,-83.3333333333333,4,3,0,70,0,0
16128,-83.3333333333333,4,3,0,5,0,0
16181,-83.3333333333333,4,3,0,70,0,0
17871,-133.333333333333,4,3,0,70,0,0
23470,-100,4,3,0,70,0,0
24209,-83.3333333333333,4,3,0,70,0,0
24526,-133.333333333333,4,3,0,70,0,0
29280,-400,4,3,0,70,0,0
30230,-100,4,3,0,70,0,0
30970,-100,4,3,0,70,0,0
37308,-83.3333333333333,4,3,0,70,0,0
38047,-100,4,3,0,70,0,0
41111,-83.3333333333333,4,3,0,70,0,0
41745,-100,4,3,0,70,0,0
42801,-83.3333333333333,4,3,0,70,0,0
44702,-111.111111111111,4,3,0,70,0,0
49561,-76.9230769230769,4,3,0,70,0,0
49773,-90.9090909090909,4,3,0,70,0,0
50618,-111.111111111111,4,3,0,70,0,0
51252,-83.3333333333333,4,3,0,70,0,0
51674,-111.111111111111,4,3,0,70,0,0
55054,-100,4,3,0,70,0,0
55477,-90.9090909090909,4,3,0,70,0,0
55899,-83.3333333333333,4,3,0,70,0,0
56322,-76.9230769230769,4,3,0,70,0,0
58118,-100,4,2,0,70,0,0
61604,422.535211267606,4,2,0,70,1,0
61604,-80,4,3,0,70,0,1
73223,-80,4,3,0,70,0,0
74913,-80,4,3,0,70,0,1
88434,424.028268551237,4,2,0,70,1,0
94794,-100,4,2,0,15,0,0

[Colours]
Combo1 : 242,57,75
Combo2 : 77,77,77
Combo3 : 255,149,202
Combo4 : 128,0,128

[HitObjects]
227,236,2238,5,0,0:0:0:0:
251,142,2378,1,0,0:0:0:0:
297,304,2519,1,0,0:0:0:0:
236,122,2660,5,0,0:0:0:0:
212,216,2801,1,0,0:0:0:0:
167,55,2942,1,0,0:0:0:0:
329,96,3083,5,0,0:0:0:0:
401,111,3223,1,0,0:0:0:0:
474,127,3364,1,0,0:0:0:0:
347,193,3505,2,0,P|369:282|428:212,1,224.999992847443
329,96,3928,5,0,0:0:0:0:
401,111,4033,1,0,0:0:0:0:
299,88,4245,5,0,0:0:0:0:
401,111,4350,1,0,0:0:0:0:
227,175,4561,5,0,0:0:0:0:
155,190,4667,1,0,0:0:0:0:
257,167,4878,5,0,0:0:0:0:
155,190,4984,1,0,0:0:0:0:
347,193,5195,5,0,0:0:0:0:
396,248,5301,1,0,0:0:0:0:
446,304,5407,1,0,0:0:0:0:
228,343,5618,5,0,0:0:0:0:
243,271,5723,1,0,0:0:0:0:
220,373,5935,5,0,0:0:0:0:
268,266,6040,1,0,0:0:0:0:
230,67,6252,5,0,0:0:0:0:
245,139,6357,1,0,0:0:0:0:
222,37,6568,5,0,0:0:0:0:
253,169,6674,1,0,0:0:0:0:
403,56,6885,5,0,0:0:0:0:
375,128,6991,2,0,B|375:68|335:48|338:-14|401:-5|437:19|398:60,1,199.999993642171
446,196,7660,6,0,L|434:311,1,99.9999968210857
418,217,7871,2,0,L|406:332,1,99.9999968210857
390,238,8083,2,0,L|378:353,1,99.9999968210857
351,358,8294,2,0,L|362:259,1,99.9999968210857
390,238,8505,5,0,0:0:0:0:
390,238,8576,1,0,0:0:0:0:
310,174,8716,1,0,0:0:0:0:
310,174,8787,2,0,L|197:192,1,99.9999968210857
130,235,8998,5,0,0:0:0:0:
201,19,10688,5,0,0:0:0:0:
182,289,10899,1,0,0:0:0:0:
168,262,11005,1,0,0:0:0:0:
154,235,11111,2,0,L|143:110,1,112.499996423721
106,57,11322,2,0,L|95:182,1,112.499996423721
66,248,11533,5,0,0:0:0:0:
201,19,11745,1,0,0:0:0:0:
216,44,11850,1,0,0:0:0:0:
231,69,11956,2,0,L|249:193,1,112.499996423721
281,245,12167,2,0,L|297:133,1,112.499996423721
308,48,12378,5,0,0:0:0:0:
190,252,12590,1,0,0:0:0:0:
199,280,12695,1,0,0:0:0:0:
208,308,12801,2,0,P|252:336|343:327,1,112.499996423721
383,302,13012,2,0,P|327:309|276:288,1,112.499996423721
292,187,13223,1,0,0:0:0:0:
339,204,13329,1,0,0:0:0:0:
390,197,13435,1,0,0:0:0:0:
441,190,13540,1,0,0:0:0:0:
490,206,13646,5,0,0:0:0:0:
451,242,13752,1,0,0:0:0:0:
441,190,13857,1,0,0:0:0:0:
187,53,14068,6,0,B|163:155|163:155|210:134,1,149.999995231629
280,65,14385,1,0,0:0:0:0:
292,37,14491,2,0,L|304:168,1,112.499996423721
341,211,14702,2,0,L|351:98,1,112.499996423721
371,15,14914,5,0,0:0:0:0:
425,225,15019,1,0,0:0:0:0:
425,225,15125,2,0,P|412:260|407:303,1,74.9999976158143
324,359,15336,6,0,P|323:290|239:315,1,149.999995231629
241,369,15653,1,0,0:0:0:0:
241,369,15759,6,0,L|99:356,1,134.999991588593
151,282,15970,2,0,L|25:224,1,134.999991588593
92,166,16181,5,0,0:0:0:0:
85,56,16287,1,0,0:0:0:0:
201,152,16392,1,0,0:0:0:0:
71,155,16498,1,0,0:0:0:0:
50,144,16709,5,0,0:0:0:0:
209,242,16921,5,0,0:0:0:0:
92,166,17026,2,0,B|146:279|36:337|55:369|55:369|91:325|139:311,1,314.999980373383
209,242,17449,6,0,P|280:213|350:124,1,179.99998878479
418,20,17766,1,0,0:0:0:0:
418,20,17871,2,0,P|365:35|267:20,1,112.500000715256
203,4,18188,1,0,0:0:0:0:
203,4,18294,2,0,P|223:56|226:112,1,112.500000715256
263,210,18611,1,0,0:0:0:0:
264,209,18716,2,0,P|298:164|345:134,1,112.500000715256
435,112,19033,5,0,0:0:0:0:
435,112,19139,2,0,L|421:174,1,56.2500003576279
349,276,19350,1,0,0:0:0:0:
349,276,19456,1,0,0:0:0:0:
349,276,19561,2,0,L|363:198,1,56.2500003576279
333,124,19773,1,0,0:0:0:0:
333,124,19878,1,0,0:0:0:0:
333,124,19984,6,0,L|235:109,1,56.2500003576279
97,124,20195,6,0,L|194:109,1,56.2500003576279
344,134,20407,2,0,L|246:119,1,56.2500003576279
86,134,20618,2,0,L|183:119,1,56.2500003576279
208,178,20829,6,0,B|216:226|216:226|289:258,1,112.500000715256
417,235,21146,1,0,0:0:0:0:
417,235,21252,2,0,L|338:214,1,56.2500003576279
290,149,21463,2,0,L|344:133,2,56.2500003576279
109,153,21885,1,0,0:0:0:0:
109,153,21991,1,0,0:0:0:0:
109,153,22097,2,0,B|121:196|121:196|81:263,1,112.500000715256
15,178,22414,1,0,0:0:0:0:
15,178,22519,5,0,0:0:0:0:
175,275,22730,2,0,L|184:339,2,56.2500003576279
182,116,23153,2,0,L|188:53,2,56.2500003576279
280,175,23470,6,0,P|303:196|273:209,1,74.9999976158143
82,195,23681,1,0,0:0:0:0:
82,195,23787,6,0,P|59:174|89:161,1,74.9999976158143
185,194,23998,1,0,0:0:0:0:
165,266,24104,1,0,0:0:0:0:
146,338,24209,6,0,B|190:367|190:367|323:344,1,179.99998878479
439,256,24526,1,0,0:0:0:0:
439,256,24632,2,0,L|320:247,1,112.500000715256
386,169,24949,1,0,0:0:0:0:
386,169,25054,2,0,L|495:139,1,112.500000715256
401,73,25371,1,0,0:0:0:0:
401,73,25477,2,0,L|309:7,1,112.500000715256
294,117,25794,1,0,0:0:0:0:
294,117,25899,6,0,P|294:151|286:177,1,56.2500003576279
234,285,26111,1,0,0:0:0:0:
234,285,26216,1,0,0:0:0:0:
234,285,26322,2,0,P|217:255|197:237,1,56.2500003576279
145,152,26533,1,0,0:0:0:0:
145,152,26639,1,0,0:0:0:0:
145,152,26745,2,0,P|178:152|205:143,1,56.2500003576279
264,47,26956,6,0,L|199:28,1,56.2500003576279
101,62,27167,2,0,L|47:77,1,56.2500003576279
254,62,27378,6,0,L|189:43,1,56.2500003576279
91,77,27590,2,0,P|69:96|59:186,1,112.500000715256
119,234,27907,1,0,0:0:0:0:
119,234,28012,1,0,0:0:0:0:
285,108,28223,2,0,L|243:45,2,56.2500003576279
211,306,28646,1,0,0:0:0:0:
211,306,28752,1,0,0:0:0:0:
211,306,28857,2,0,L|226:170,1,112.500000715256
131,105,29174,1,0,0:0:0:0:
131,105,29280,6,0,P|150:139|78:157,1,140.624995529652
65,133,30125,5,0,0:0:0:0:
174,155,30230,2,0,P|211:126|364:157,1,187.499994039536
362,156,30547,2,0,P|260:116|203:18,1,224.999992847443
111,41,30970,6,0,P|112:78|99:113,1,74.9999976158143
31,222,31181,2,0,P|63:202|100:198,1,74.9999976158143
230,201,31392,2,0,P|197:184|174:155,1,74.9999976158143
100,198,31604,5,2,0:0:0:0:
100,198,31709,1,2,0:0:0:0:
157,258,31815,2,0,P|193:291|206:328,1,74.9999976158143
229,201,32026,2,0,P|197:184|174:155,1,74.9999976158143
171,68,32238,5,2,0:0:0:0:
250,111,32343,2,0,B|282:129|282:129|435:97,1,149.999995231629,2|0,0:0|0:0,0:0:0:0:
352,31,32660,1,2,0:0:0:0:
409,193,32766,2,0,L|394:367,1,149.999995231629,2|0,0:0|0:0,0:0:0:0:
268,259,33083,6,0,L|248:95,1,149.999995231629,0|2,0:0|0:0,0:0:0:0:
352,31,33399,1,2,0:0:0:0:
340,158,33505,2,0,P|397:129|409:193,1,149.999995231629
339,252,33822,1,0,0:0:0:0:
339,252,33928,1,2,0:0:0:0:
254,192,34033,2,0,B|202:171|202:171|61:193,1,149.999995231629,2|0,0:0|0:0,0:0:0:0:
41,122,34350,5,0,0:0:0:0:
8,221,34456,2,0,P|61:251|113:357,1,149.999995231629
199,381,34773,2,0,L|190:255,1,112.499996423721
190,245,34984,1,2,0:0:0:0:
274,292,35090,2,0,P|310:227|373:188,1,149.999995231629
247,157,35407,2,0,L|238:44,1,112.499996423721
238,21,35618,1,2,0:0:0:0:
158,112,35723,2,0,B|99:95|99:95|-20:124,1,149.999995231629,2|0,0:0|0:0,0:0:0:0:
6,218,36040,5,0,0:0:0:0:
14,238,36146,1,0,0:0:0:0:
85,208,36252,5,0,0:0:0:0:
93,188,36357,1,0,0:0:0:0:
159,230,36463,5,0,0:0:0:0:
167,250,36568,1,0,0:0:0:0:
236,219,36674,5,2,0:0:0:0:
247,199,36780,1,2,0:0:0:0:
314,250,36885,6,0,P|368:230|446:221,1,112.499996423721
470,266,37097,2,0,P|450:211|441:133,1,112.499996423721
501,128,37308,2,0,B|421:92|395:164|336:135|336:135|386:109|406:62|387:12,1,314.999980373383
295,45,37730,6,0,L|344:261,1,179.99998878479
235,288,38047,1,0,0:0:0:0:
235,288,38153,2,0,L|245:197,1,74.9999976158143
152,192,38364,1,0,0:0:0:0:
152,192,38470,1,0,0:0:0:0:
142,284,38576,2,0,L|112:354,1,74.9999976158143
63,233,38787,2,0,L|39:160,1,74.9999976158143
113,116,38998,1,0,0:0:0:0:
152,192,39104,6,0,B|191:226|191:226|302:241,1,149.999995231629
352,162,39421,1,0,0:0:0:0:
379,265,39526,2,0,P|348:315|241:322,1,149.999995231629
288,239,39843,5,0,0:0:0:0:
281,225,39949,1,0,0:0:0:0:
278,151,40054,5,0,0:0:0:0:
271,137,40160,1,0,0:0:0:0:
261,68,40266,6,0,P|249:133|211:189,1,112.499996423721
198,197,40477,2,0,P|210:262|248:318,1,112.499996423721
256,311,40688,1,0,0:0:0:0:
321,260,40794,1,0,0:0:0:0:
400,278,40899,1,0,0:0:0:0:
411,53,41111,6,0,B|443:96|460:138|454:187|396:236|351:214|268:202|264:116|334:45|376:121|381:140,1,359.999977569581
467,325,41745,1,2,0:0:0:0:
400,278,41850,6,0,P|311:266|235:196,1,187.499994039536,2|0,0:0|0:0,0:0:0:0:
236,176,42167,2,0,P|241:124|218:66,1,112.499996423721
207,42,42378,2,0,P|202:93|225:152,1,112.499996423721
236,176,42590,2,0,P|256:207|259:289,1,112.499996423721
194,322,42801,6,0,L|368:303,1,134.999991588593
362,373,43012,2,0,L|343:199,1,134.999991588593
328,140,43223,5,0,0:0:0:0:
444,230,43329,1,0,0:0:0:0:
412,91,43435,1,0,0:0:0:0:
400,167,43540,1,0,0:0:0:0:
389,191,43752,5,0,0:0:0:0:
194,322,43963,5,0,0:0:0:0:
282,217,44068,2,0,B|332:235|369:252|378:333|350:360|293:380|293:380|264:337|282:294,1,314.999980373383
205,244,44491,6,0,P|171:217|170:80,1,179.99998878479
418,53,44914,6,0,B|354:62|354:62|288:39,1,134.999991588593
287,119,45230,1,0,0:0:0:0:
287,119,45336,2,0,L|308:271,1,134.999991588593
378,332,45653,1,0,0:0:0:0:
378,332,45759,2,0,L|419:185,1,134.999991588593
422,126,46076,2,0,L|443:278,1,134.999991588593
378,332,46392,6,0,L|300:351,1,67.4999957942964
216,362,46604,2,0,L|231:296,1,67.4999957942964
291,219,46815,1,0,0:0:0:0:
301,186,46921,1,0,0:0:0:0:
311,154,47026,2,0,L|326:219,1,67.4999957942964
312,347,47238,2,0,L|377:331,1,67.4999957942964
407,248,47449,5,0,0:0:0:0:
411,160,47554,1,0,0:0:0:0:
415,72,47660,1,0,0:0:0:0:
152,28,47871,5,0,0:0:0:0:
42,174,48083,2,0,P|33:215|40:254,1,67.4999957942964
134,375,48294,2,0,P|142:333|136:295,1,67.4999957942964
154,201,48505,2,0,P|145:159|152:121,1,67.4999957942964
152,28,48716,2,0,P|192:28|258:103,1,134.999991588593
253,172,49033,1,0,0:0:0:0:
248,253,49139,2,0,L|375:319,1,134.999991588593
435,224,49456,1,0,0:0:0:0:
435,224,49561,6,0,L|425:106,1,97.4999924373631
345,159,49773,6,0,L|335:56,1,82.4999998950959
255,94,49984,6,0,L|245:-9,1,82.4999998950959
165,29,50195,1,0,0:0:0:0:
101,92,50301,2,0,B|105:131|105:131|81:210|81:210|90:266,1,164.999999790192
182,218,50618,6,0,L|201:311,1,67.4999957942964
281,258,50829,5,0,0:0:0:0:
349,260,50935,1,0,0:0:0:0:
396,210,51040,1,0,0:0:0:0:
389,141,51146,1,0,0:0:0:0:
332,101,51252,6,0,B|276:83|232:135|170:137|89:68|102:0|158:8|204:34|202:72,1,314.999980373383
194,146,51674,6,0,P|222:214|221:297,1,134.999991588593
283,362,51991,1,0,0:0:0:0:
283,362,52097,2,0,P|309:300|355:251,1,134.999991588593
398,178,52414,1,0,0:0:0:0:
302,176,52519,2,0,L|291:92,1,67.4999957942964
206,0,52730,2,0,L|217:84,1,67.4999957942964
226,240,52942,5,0,0:0:0:0:
293,29,53153,2,0,P|323:15|356:5,1,67.4999957942964
438,32,53364,1,0,0:0:0:0:
379,86,53470,2,0,L|389:119,2,33.7499978971482
439,195,53681,1,0,0:0:0:0:
439,195,53787,6,0,L|353:217,1,67.4999957942964
295,144,53998,2,0,L|229:127,1,67.4999957942964
151,103,54209,1,0,0:0:0:0:
151,258,54368,1,0,0:0:0:0:
151,258,54421,1,0,0:0:0:0:
302,336,54632,6,0,L|383:326,1,67.4999957942964
423,252,54843,2,0,L|356:243,1,67.4999957942964
151,258,55054,6,0,P|114:273|81:311,1,74.9999976158143
96,383,55266,2,0,P|133:368|166:330,1,74.9999976158143
260,164,55477,6,0,L|338:140,1,82.4999998950959
423,252,55688,2,0,L|345:228,1,82.4999998950959
168,127,55899,6,0,P|121:150|87:207,1,89.9999943923952
81,311,56111,2,0,P|126:287|161:230,1,89.9999943923952
355,46,56322,6,0,B|407:42|407:42|470:63,1,97.4999924373631
433,149,56533,2,0,B|390:135|390:135|338:139,1,97.4999924373631
279,76,56745,1,0,0:0:0:0:
208,44,56850,1,0,0:0:0:0:
137,76,56956,1,0,0:0:0:0:
67,45,57061,1,0,0:0:0:0:
5,90,57167,1,0,0:0:0:0:
25,192,57308,6,0,L|68:323,1,129.999989916484
124,381,57519,1,0,0:0:0:0:
124,381,57590,2,0,B|160:323|160:323|123:211|331:158|361:402|183:357,1,389.999969749452
172,158,58223,5,0,0:0:0:0:
176,135,58329,1,0,0:0:0:0:
180,112,58435,1,0,0:0:0:0:
279,25,58646,5,0,0:0:0:0:
272,152,58857,1,0,0:0:0:0:
276,175,58963,1,0,0:0:0:0:
280,198,59068,1,0,0:0:0:0:
376,136,59280,5,0,0:0:0:0:
380,113,59385,1,0,0:0:0:0:
384,90,59491,1,0,0:0:0:0:
180,112,59702,5,0,0:0:0:0:
197,17,59808,1,0,0:0:0:0:
178,222,60019,5,0,0:0:0:0:
191,265,60125,1,0,0:0:0:0:
384,90,60336,5,0,0:0:0:0:
279,74,60442,1,0,0:0:0:0:
477,140,60653,5,0,0:0:0:0:
464,183,60759,1,0,0:0:0:0:
257,384,60970,6,0,P|292:267|320:138,1,224.999992847443
233,140,61392,2,0,P|226:183|210:232,1,74.9999976158143
187,61,61604,5,0,0:0:0:0:
139,287,61815,1,2,0:0:0:0:
123,243,61920,2,0,L|137:126,1,93.7499970197678,2|8,0:0|0:0,0:0:0:0:
325,197,62132,2,0,L|351:422,1,187.499994039536
246,350,62449,2,0,L|232:233,1,93.7499970197678,10|0,0:0|0:0,0:0:0:0:
233,140,62660,2,0,L|219:257,1,93.7499970197678,2|0,0:0|0:0,0:0:0:0:
325,197,62871,1,8,0:0:0:0:
325,197,62977,2,0,P|367:208|332:125,1,187.499994039536,2|0,0:0|0:0,0:0:0:0:
293,52,63294,5,10,0:0:0:0:
119,309,63505,1,2,0:0:0:0:
154,278,63611,2,0,P|167:231|159:172,1,93.7499970197678,2|8,0:0|0:0,0:0:0:0:
96,44,63822,1,2,0:0:0:0:
53,81,63927,2,0,P|40:128|48:187,1,93.7499970197678,2|0,0:0|0:0,0:0:0:0:
201,76,64139,1,10,0:0:0:0:
254,129,64244,2,0,P|300:132|345:119,1,93.7499970197678,2|0,0:0|0:0,0:0:0:0:
396,49,64456,1,0,0:0:0:0:
411,4,64561,5,8,0:0:0:0:
360,317,64773,2,0,L|352:223,1,93.7499970197678,2|0,0:0|0:0,0:0:0:0:
345,119,64984,5,10,0:0:0:0:
138,186,65195,1,2,0:0:0:0:
83,171,65301,2,0,L|188:143,1,93.7499970197678,2|8,0:0|0:0,0:0:0:0:
209,25,65512,1,2,0:0:0:0:
244,64,65618,2,0,L|153:39,1,93.7499970197678,2|0,0:0|0:0,0:0:0:0:
43,77,65829,1,10,0:0:0:0:
4,112,65934,2,0,L|28:21,1,93.7499970197678,2|0,0:0|0:0,0:0:0:0:
8,229,66146,5,0,0:0:0:0:
2,256,66251,1,8,0:0:0:0:
73,351,66357,2,0,B|101:307|101:307|39:253|101:147|178:145|284:243|193:316|167:320,1,374.999988079071,4|0,0:0|0:0,0:0:0:0:
145,259,66885,1,0,0:0:0:0:
198,185,66991,2,0,B|277:128|277:128|392:141,1,187.499994039536
477,170,67308,2,0,L|378:250,1,93.7499970197678
327,326,67519,2,0,B|371:383|371:383|227:354|227:354|200:240|310:172|440:212|431:350,1,562.499982118607,12|0,0:0|0:0,0:0:0:0:
198,185,68364,5,12,0:0:0:0:
420,85,68575,1,2,0:0:0:0:
376,100,68681,2,0,L|263:128,1,93.7499970197678,2|8,0:0|0:0,0:0:0:0:
55,130,68892,1,2,0:0:0:0:
99,115,68998,2,0,L|212:87,1,93.7499970197678,2|0,0:0|0:0,0:0:0:0:
198,185,69209,2,0,L|179:289,2,93.7499970197678,10|0|2,0:0|0:0|0:0,0:0:0:0:
279,216,69526,1,2,0:0:0:0:
324,225,69632,6,0,P|330:183|289:87,1,140.624995529652,8|0,0:0|0:0,0:0:0:0:
280,76,69843,1,0,0:0:0:0:
405,288,70054,5,8,0:0:0:0:
198,185,70265,1,2,0:0:0:0:
196,231,70371,2,0,P|202:280|234:340,1,93.7499970197678,2|8,0:0|0:0,0:0:0:0:
315,264,70582,1,2,0:0:0:0:
315,264,70688,2,0,P|361:282|428:285,1,93.7499970197678,2|0,0:0|0:0,0:0:0:0:
402,177,70899,2,0,P|441:146|477:89,1,93.7499970197678,10|0,0:0|0:0,0:0:0:0:
432,33,71111,1,2,0:0:0:0:
373,93,71216,2,0,P|336:121|292:139,1,93.7499970197678,2|8,0:0|0:0,0:0:0:0:
227,230,71427,1,2,0:0:0:0:
227,230,71533,2,0,L|315:264,1,93.7499970197678,2|0,0:0|0:0,0:0:0:0:
199,143,71744,6,0,P|155:174|170:302,1,187.499994039536,10|0,0:0|0:0,0:0:0:0:
98,252,72061,1,0,0:0:0:0:
61,186,72167,2,0,L|42:68,1,93.7499970197678,10|0,0:0|0:0,0:0:0:0:
326,26,72378,6,0,L|102:78,1,187.499994039536,2|8,0:0|0:0,0:0:0:0:
215,89,72695,1,0,0:0:0:0:
284,116,72801,2,0,L|508:168,1,187.499994039536,2|8,0:0|0:0,0:0:0:0:
395,234,73118,1,0,0:0:0:0:
395,234,73223,5,2,0:0:0:0:
305,208,73364,1,2,0:0:0:0:
214,182,73505,1,2,0:0:0:0:
284,116,73646,1,2,0:0:0:0:
305,208,73787,1,2,0:0:0:0:
328,299,73927,1,2,0:0:0:0:
236,273,74068,1,2,0:0:0:0:
284,116,74279,2,0,B|108:-2|264:-62|351:32|169:124,1,328.124989569187
168,118,74701,1,0,0:0:0:0:
350,59,74913,5,0,0:0:0:0:
463,273,75125,5,0,0:0:0:0:
213,277,75336,1,0,0:0:0:0:
185,239,75442,2,0,P|169:199|161:125,1,93.7499970197678
257,173,75653,1,0,0:0:0:0:
251,126,75758,2,0,P|257:84|288:15,1,93.7499970197678
425,10,75970,2,0,P|398:42|337:86,1,93.7499970197678
186,56,76181,1,0,0:0:0:0:
228,35,76287,1,0,0:0:0:0:
274,35,76392,2,0,P|319:51|359:75,1,93.7499970197678
447,195,76604,5,0,0:0:0:0:
425,10,76815,1,0,0:0:0:0:
313,215,77026,1,0,0:0:0:0:
273,279,77132,2,0,L|288:182,1,93.7499970197678
406,63,77343,1,0,0:0:0:0:
425,10,77449,2,0,L|348:71,1,93.7499970197678
248,96,77660,1,0,0:0:0:0:
201,102,77765,2,0,L|117:51,1,93.7499970197678
273,16,77977,1,0,0:0:0:0:
273,16,78082,2,0,L|371:81,1,93.7499970197678
363,167,78289,5,0,0:0:0:0:
198,346,78505,1,0,0:0:0:0:
278,109,78716,1,0,0:0:0:0:
236,146,78822,2,0,P|223:196|225:259,1,93.7499970197678
475,83,79033,1,0,0:0:0:0:
420,94,79139,2,0,P|384:131|353:186,1,93.7499970197678
297,384,79350,1,0,0:0:0:0:
316,331,79456,2,0,B|322:286|322:286|308:232,1,93.7499970197678
229,54,79667,2,0,B|223:99|223:99|237:153,1,93.7499970197678
221,248,79878,6,0,B|235:289|235:289|181:279|150:246|150:246|120:307|56:297|56:297|20:264|46:222|83:197|121:202,1,374.999988079071
150,246,80406,1,0,0:0:0:0:
163,348,80512,2,0,P|251:363|349:308,1,187.499994039536
406,244,80829,2,0,L|306:231,1,93.7499970197678
295,109,81040,2,0,B|324:54|324:54|389:157|211:142|269:230|256:283|326:347|383:319,1,374.999988079071
406,244,81568,1,0,0:0:0:0:
373,226,81674,1,0,0:0:0:0:
214,24,81885,5,0,0:0:0:0:
133,289,82096,1,0,0:0:0:0:
156,248,82202,2,0,L|277:207,1,93.7499970197678
366,178,82413,1,0,0:0:0:0:
343,137,82519,2,0,L|222:96,1,93.7499970197678
326,257,82730,2,0,L|367:378,1,93.7499970197678
176,150,82942,1,0,0:0:0:0:
133,130,83047,1,0,0:0:0:0:
86,124,83153,6,0,P|37:129|-5:47,1,140.624995529652
10,44,83364,1,0,0:0:0:0:
101,207,83575,5,0,0:0:0:0:
288,23,83787,1,0,0:0:0:0:
276,115,83892,2,0,L|295:211,1,93.7499970197678
347,285,84104,1,0,0:0:0:0:
438,280,84209,2,0,P|424:235|389:204,1,93.7499970197678
401,360,84420,2,0,P|446:367|489:349,1,93.7499970197678
347,285,84632,1,0,0:0:0:0:
300,286,84737,2,0,L|193:312,1,93.7499970197678
105,316,84949,1,0,0:0:0:0:
105,316,85054,2,0,L|137:212,1,93.7499970197678
48,197,85265,6,0,P|114:139|211:180,1,187.499994039536
153,110,85582,1,0,0:0:0:0:
93,63,85688,2,0,P|46:77|-6:119,1,93.7499970197678
132,226,85899,6,0,B|181:259|181:259|341:269,1,187.499994039536
238,294,86216,1,0,0:0:0:0:
177,338,86322,2,0,L|75:353,1,93.7499970197678
217,181,86533,1,0,0:0:0:0:
217,181,86639,1,0,0:0:0:0:
217,181,86744,5,0,0:0:0:0:
308,150,86885,1,0,0:0:0:0:
398,122,87026,1,0,0:0:0:0:
329,59,87167,1,0,0:0:0:0:
398,122,87308,1,0,0:0:0:0:
467,185,87449,1,0,0:0:0:0:
488,94,87589,1,0,0:0:0:0:
188,126,87801,2,0,B|156:123|56:176|123:243|168:293|91:371|26:355,1,328.124989569187
31,338,88223,1,0,0:0:0:0:
193,201,88434,5,0,0:0:0:0:
308,304,88646,1,0,0:0:0:0:
330,311,88752,1,0,0:0:0:0:
352,318,88858,1,0,0:0:0:0:
374,326,88964,2,0,L|435:313,2,37.4999988079071,0|0|0,3:0|3:0|3:0,3:0:0:0:
193,201,89282,5,0,0:0:0:0:
122,85,89494,2,0,L|114:48,1,37.4999988079071,0|0,3:0|3:0,3:0:0:0:
41,93,89653,2,0,L|-20:80,2,37.4999988079071,0|0|0,3:0|3:0|3:0,3:0:0:0:
193,201,90024,6,0,L|193:248,2,37.4999988079071,0|0|0,3:0|3:0|3:0,3:0:0:0:
200,28,90342,1,0,0:0:0:0:
221,21,90448,1,0,0:0:0:0:
243,23,90554,2,0,P|264:27|293:44,2,37.4999988079071,0|0|0,3:0|3:0|3:0,3:0:0:0:
308,122,90766,1,0,0:0:0:0:
300,143,90872,2,0,P|241:158|175:205,1,112.499996423721,0|0,0:0|3:0,0:0:0:0:
193,201,91084,6,0,L|202:339,1,112.499996423721
193,201,91296,6,0,L|200:88,1,112.499996423721
208,81,91508,1,0,3:0:0:0:
208,81,91561,1,0,3:0:0:0:
406,167,91826,6,0,L|414:268,1,74.9999976158143
364,348,92038,1,0,0:0:0:0:
401,342,92144,1,0,0:0:0:0:
438,336,92250,1,0,3:0:0:0:
476,331,92356,1,0,3:0:0:0:
193,201,92568,5,0,0:0:0:0:
315,87,92886,1,0,0:0:0:0:
337,80,92992,1,0,0:0:0:0:
359,72,93098,2,0,L|420:85,2,37.4999988079071,0|0|0,3:0|3:0|3:0,3:0:0:0:
247,296,93522,5,0,0:0:0:0:
137,296,93663,1,0,0:0:0:0:
82,201,93805,1,0,0:0:0:0:
137,105,93946,1,0,0:0:0:0:
247,105,94087,1,0,0:0:0:0:
302,201,94229,1,0,0:0:0:0:
193,201,94794,6,0,B|167:141|192:103|192:103|218:64|239:14|157:-45|108:-17|73:13|72:68|99:100,1,374.999988079071,2|0,0:0|0:0,0:0:0:0:
