osu file format v14

[General]
AudioFilename: audio.mp3
AudioLeadIn: 0
PreviewTime: 61594
Countdown: 0
SampleSet: None
StackLeniency: 0.5
Mode: 0
LetterboxInBreaks: 0
WidescreenStoryboard: 0

[Editor]
Bookmarks: 2228,3918,10678,17439,24199,30960,44481,58002,61382,68354,73213,74904,81875,86735,88425,93495,94340
DistanceSpacing: 1
BeatDivisor: 4
GridSize: 8
TimelineZoom: 2.5

[Metadata]
Title:Deal with the devil
TitleUnicode:Deal with the devil
Artist:Tia
ArtistUnicode:Tia
Creator:DeviousPanda
Version:Normal
Source:賭ケグルイ
Tags:Kakegurui Anime OP
BeatmapID:1359728
BeatmapSetID:638443

[Difficulty]
HPDrainRate:3
CircleSize:3
OverallDifficulty:4
ApproachRate:5
SliderMultiplier:1.99999990463257
SliderTickRate:1

[Events]
//Background and Video events
0,0,"Kakegurui BG.png",0,0
//Break Periods
//Storyboard Layer 0 (Background)
//Storyboard Layer 1 (Fail)
//Storyboard Layer 2 (Pass)
//Storyboard Layer 3 (Foreground)
//Storyboard Sound Samples

[TimingPoints]
2228,422.535211267606,4,3,0,70,1,0
2228,-133.333333333333,4,3,0,70,0,0
3918,-111.111111111111,4,3,0,70,0,0
17439,-200,4,3,0,70,0,0
30960,-111.111111111111,4,3,0,70,0,0
44481,-133.333333333333,4,3,0,70,0,0
61382,-111.111111111111,4,3,0,85,0,1
73213,-111.111111111111,4,3,0,85,0,0
74904,-111.111111111111,4,3,0,85,0,1
86735,-111.111111111111,4,3,0,85,0,0
88425,-111.111111111111,4,3,0,70,0,0
93495,-111.111111111111,4,3,0,85,0,1
94340,-111.111111111111,4,3,0,70,0,0

[Colours]
Combo1 : 242,57,75
Combo2 : 77,77,77
Combo3 : 255,149,202
Combo4 : 128,0,128

[HitObjects]
90,32,3918,6,0,P|179:18|270:48,1,179.999985923768,4|0,0:0|0:0,0:0:0:0:
306,123,4551,2,0,B|291:210|291:210|301:312,1,179.999985923768,4|0,0:0|0:0,0:0:0:0:
372,355,5185,1,8,0:0:0:0:
473,206,5608,6,0,L|269:208,1,179.999985923768,4|0,0:0|0:0,0:0:0:0:
207,183,6242,2,0,P|182:104|221:0,1,179.999985923768,4|4,0:0|0:0,0:0:0:0:
344,27,6981,6,0,P|364:99|346:193,1,134.999989442826,4|4,0:0|0:0,0:0:0:0:
209,176,7650,6,0,L|198:83,2,89.9999929618838,8|8|8,0:0|0:0|0:0,0:0:0:0:
269,243,8284,2,0,B|327:256|327:256|400:247,1,119.999990615845,8|8,0:0|0:0,0:0:0:0:
451,184,8777,1,8,0:0:0:0:
468,88,8988,1,8,0:0:0:0:
235,293,10678,6,0,L|243:171,1,89.9999929618838,8|4,2:0|0:0,0:0:0:0:
281,122,11101,2,0,B|358:111|358:111|437:112,2,134.999989442826,4|4|4,0:0|0:0|0:0,0:0:0:0:
190,118,11946,1,4,0:0:0:0:
110,76,12157,1,4,0:0:0:0:
32,121,12368,1,4,0:0:0:0:
181,231,12791,6,0,L|278:229,1,89.9999929618838,4|4,0:0|0:0,0:0:0:0:
343,176,13213,2,0,B|344:108|344:108|330:23,2,134.999989442826,4|4|4,0:0|0:0|0:0,0:0:0:0:
356,265,14058,1,8,2:0:0:0:
251,123,14481,6,0,P|200:117|144:127,1,89.9999929618838,4|4,0:0|0:0,0:0:0:0:
87,173,14904,2,0,L|76:317,2,134.999989442826,4|4|4,0:0|0:0|0:0,0:0:0:0:
256,192,15749,12,4,17016,0:0:0:0:
308,129,17861,6,0,L|305:229,2,99.9999952316285
235,60,19129,2,0,P|188:53|127:62,3,99.9999952316285
54,117,20819,6,0,B|49:231,1,99.9999952316285
81,255,21453,2,0,P|130:268|185:258,1,99.9999952316285
220,233,22087,2,0,P|269:220|324:230,1,99.9999952316285
360,251,22720,2,0,P|409:264|464:254,1,99.9999952316285
499,229,23354,1,0,0:0:0:0:
308,166,24199,6,0,L|302:56,3,99.9999952316285
215,17,25889,2,0,P|146:13|108:21,3,99.9999952316285
61,103,27580,6,0,L|63:215,1,99.9999952316285
96,240,28213,2,0,P|170:253|205:245,1,99.9999952316285
237,224,28847,1,0,0:0:0:0:
256,192,29270,12,0,30537,0:0:0:0:
61,123,31382,5,0,0:0:0:0:
124,58,31594,1,4,0:0:0:0:
210,81,31805,2,0,P|312:92|421:73,1,179.999985923768,4|4,0:0|0:0,0:0:0:0:
439,253,32650,6,0,B|345:238|345:238|228:254,1,179.999985923768,4|4,0:0|0:0,0:0:0:0:
182,294,33284,1,4,0:0:0:0:
95,271,33495,2,0,P|85:190|114:68,1,179.999985923768,4|4,0:0|0:0,0:0:0:0:
275,42,34340,6,0,P|376:31|473:81,1,179.999985923768,4|4,0:0|0:0,0:0:0:0:
487,140,34974,2,0,P|446:232|351:290,1,179.999985923768,4|4,0:0|0:0,0:0:0:0:
293,271,35608,2,0,P|232:189|231:76,2,179.999985923768,4|4|4,0:0|0:0|0:0,0:0:0:0:
399,126,36875,2,0,B|305:100|305:100|215:116,1,179.999985923768,4|4,0:0|0:0,0:0:0:0:
91,238,37720,6,0,P|191:253|289:215,1,179.999985923768,8|4,2:0|0:0,0:0:0:0:
321,160,38354,1,4,0:0:0:0:
252,101,38566,2,0,L|43:104,1,179.999985923768,4|4,0:0|0:0,0:0:0:0:
89,293,39411,6,0,B|181:271|181:271|305:290,1,179.999985923768,4|4,0:0|0:0,0:0:0:0:
352,306,40044,1,4,0:0:0:0:
437,278,40256,2,0,P|457:193|418:76,1,179.999985923768,4|4,0:0|0:0,0:0:0:0:
263,64,41101,6,0,P|158:47|46:65,1,179.999985923768,4|4,0:0|0:0,0:0:0:0:
18,114,41735,2,0,B|-4:210|-4:210|21:320,1,179.999985923768,4|4,0:0|0:0,0:0:0:0:
76,354,42368,1,4,0:0:0:0:
256,192,42791,12,4,44058,0:0:0:0:
193,115,44904,5,4,0:0:0:0:
52,166,45326,2,0,P|44:218|56:294,2,112.499998927116,4|4|4,0:0|0:0|0:0,0:0:0:0:
193,115,46382,2,0,L|347:111,1,149.999998569489,4|4,0:0|0:0,0:0:0:0:
397,163,47016,2,0,B|409:215|409:215|405:288,2,112.499998927116,4|4|4,0:0|0:0|0:0,0:0:0:0:
342,111,47861,5,4,0:0:0:0:
267,102,48073,1,4,0:0:0:0:
194,122,48284,2,0,P|161:150|146:187,1,74.9999992847443,4|4,0:0|0:0,0:0:0:0:
182,244,48706,6,0,B|233:269|233:269|318:286,2,112.499998927116,4|4|4,0:0|0:0|0:0,0:0:0:0:
147,178,49551,2,0,L|147:79,3,74.9999992847443,4|4|4|4,0:0|0:0|0:0|0:0,0:0:0:0:
194,44,50397,2,0,P|337:5|484:53,1,299.999997138977,4|12,0:0|0:0,0:0:0:0:
432,191,51664,5,4,0:0:0:0:
304,269,52087,2,0,P|229:286|140:267,1,149.999998569489,4|4,0:0|0:0,0:0:0:0:
92,237,52720,1,4,0:0:0:0:
213,148,53143,6,0,B|227:97|227:97|211:26,2,112.499998927116,4|4|4,0:0|0:0|0:0,0:0:0:0:
166,226,53988,2,0,L|82:224,2,74.9999992847443,4|4|4,0:0|0:0|0:0,0:0:0:0:
226,295,54622,6,0,L|403:282,1,149.999998569489,4|4,0:0|0:0,0:0:0:0:
472,169,55467,2,0,L|295:156,1,149.999998569489,4|4,0:0|0:0,0:0:0:0:
172,170,56312,6,0,P|161:114|201:24,1,149.999998569489,4|4,0:0|0:0,0:0:0:0:
269,42,56946,2,0,B|332:53|332:53|443:44,1,149.999998569489,4|4,0:0|0:0,0:0:0:0:
488,19,57580,1,4,0:0:0:0:
256,192,58002,12,4,60960,0:0:0:0:
417,55,61382,5,12,0:0:0:0:
327,66,61594,1,4,0:0:0:0:
238,79,61805,2,0,L|115:74,3,89.9999929618838,8|8|8|8,0:0|0:0|0:0|0:0,0:0:0:0:
89,144,62650,2,0,P|78:195|150:297,1,179.999985923768,8|8,0:0|0:0,0:0:0:0:
228,259,63284,6,0,B|301:248|301:248|397:258,3,134.999989442826,8|8|8|8,0:0|0:0|0:0|0:0,0:0:0:0:
440,213,64446,2,0,P|442:143|417:75,1,134.999989442826,8|8,0:0|0:0,0:0:0:0:
334,108,64974,6,0,B|270:115|270:115|192:106,3,134.999989442826,8|8|8|8,0:0|0:0|0:0|0:0,0:0:0:0:
120,63,66136,1,4,0:0:0:0:
17,150,66453,6,0,L|17:283,3,89.9999929618838,8|8|8|8,0:0|0:0|0:0|0:0,0:0:0:0:
89,294,67298,2,0,B|174:306|174:306|280:282,1,179.999985923768,8|8,0:0|0:0,0:0:0:0:
104,205,68143,5,12,0:0:0:0:
170,144,68354,2,0,L|282:139,3,89.9999929618838,8|8|8|8,0:0|0:0|0:0|0:0,0:0:0:0:
341,169,69199,2,0,P|355:249|343:367,1,179.999985923768,8|8,0:0|0:0,0:0:0:0:
262,376,69833,1,4,0:0:0:0:
182,333,70044,6,0,B|166:268|166:268|170:176,3,134.999989442826,8|8|8|8,0:0|0:0|0:0|0:0,0:0:0:0:
232,80,71312,5,4,0:0:0:0:
310,35,71523,2,0,P|394:24|492:76,1,179.999985923768,8|8,0:0|0:0,0:0:0:0:
377,214,72368,2,0,B|368:282|368:282|382:351,2,134.999989442826,8|8|8,0:0|0:0|0:0,0:0:0:0:
458,174,73213,2,0,B|483:81|483:81|467:-18|467:-18,2,179.999985923768,8|8|8,0:0|0:0|0:0,0:0:0:0:
377,132,74270,1,12,0:0:0:0:
118,60,74904,5,12,0:0:0:0:
96,147,75116,1,4,0:0:0:0:
91,236,75327,2,0,L|96:337,3,89.9999929618838,8|8|8|8,0:0|0:0|0:0|0:0,0:0:0:0:
175,367,76172,2,0,B|238:380|238:380|310:370,1,134.999989442826,8|8,0:0|0:0,0:0:0:0:
399,270,76806,6,0,B|410:206|410:206|385:97,3,134.999989442826,8|8|8|8,0:0|0:0|0:0|0:0,0:0:0:0:
317,90,77968,2,0,P|247:85|171:109,1,134.999989442826,8|8,0:0|0:0,0:0:0:0:
128,172,78496,6,0,B|116:235|116:235|132:318,3,134.999989442826,8|8|8|8,0:0|0:0|0:0|0:0,0:0:0:0:
214,335,79658,1,4,0:0:0:0:
344,299,79975,6,0,L|449:284,3,89.9999929618838,8|8|8|8,0:0|0:0|0:0|0:0,0:0:0:0:
501,227,80820,2,0,B|510:164|510:164|477:48,1,179.999985923768,8|8,0:0|0:0,0:0:0:0:
412,219,81665,5,12,0:0:0:0:
325,195,81876,2,0,L|213:190,3,89.9999929618838,8|8|8|8,0:0|0:0|0:0|0:0,0:0:0:0:
146,172,82721,2,0,P|112:106|142:8,1,179.999985923768,8|8,0:0|0:0,0:0:0:0:
231,4,83355,1,4,0:0:0:0:
292,69,83566,6,0,B|294:136|294:136|278:201,3,134.999989442826,8|8|8|8,0:0|0:0|0:0|0:0,0:0:0:0:
144,241,84834,5,4,0:0:0:0:
81,176,85045,2,0,P|66:85|99:-2,1,179.999985923768,8|8,0:0|0:0,0:0:0:0:
269,49,85890,2,0,B|336:58|336:58|422:41,2,134.999989442826,8|8|8,0:0|0:0|0:0,0:0:0:0:
187,87,86735,2,0,B|163:177|163:177|178:279|178:279,2,179.999985923768,8|8|8,0:0|0:0|0:0,0:0:0:0:
271,120,87792,5,12,0:0:0:0:
435,333,88425,6,0,B|187:349|187:349|254:311,1,314.999975366593,4|4,0:0|0:0,0:0:0:0:
500,62,90009,6,0,B|252:46|252:46|319:84,1,314.999975366593,4|4,0:0|0:0,0:0:0:0:
387,189,91066,2,0,P|402:249|396:307,1,89.9999929618838,4|4,0:0|0:0,0:0:0:0:
192,359,91805,6,0,P|156:266|195:31,1,314.999975366593,4|4,0:0|0:0,0:0:0:0:
316,61,92861,2,0,L|438:76,1,89.9999929618838,4|4,0:0|0:0,0:0:0:0:
468,240,93495,6,0,P|473:279|465:323,5,59.9999953079226,8|8|8|8|8|8,0:0|0:0|0:0|0:0|0:0|0:0,0:0:0:0:
