osu file format v14

[General]
AudioFilename: audio.mp3
AudioLeadIn: 0
PreviewTime: 61594
Countdown: 0
SampleSet: None
StackLeniency: 0.5
Mode: 0
LetterboxInBreaks: 0
WidescreenStoryboard: 0

[Editor]
Bookmarks: 2228,3918,10678,17439,24199,30960,44481,58002,61382,68354,73213,74904,81875,86735,88425,93495,94340
DistanceSpacing: 1
BeatDivisor: 4
GridSize: 8
TimelineZoom: 1.5

[Metadata]
Title:Deal with the devil
TitleUnicode:Deal with the devil
Artist:Tia
ArtistUnicode:Tia
Creator:DeviousPanda
Version:Insane
Source:賭ケグルイ
Tags:Kakegurui Anime OP
BeatmapID:1355648
BeatmapSetID:638443

[Difficulty]
HPDrainRate:5
CircleSize:4
OverallDifficulty:6.5
ApproachRate:9
SliderMultiplier:3.49999990463257
SliderTickRate:1

[Events]
//Background and Video events
0,0,"Kakegurui BG.png",0,0
//Break Periods
//Storyboard Layer 0 (Background)
//Storyboard Layer 1 (Fail)
//Storyboard Layer 2 (Pass)
//Storyboard Layer 3 (Foreground)
//Storyboard Sound Samples

[TimingPoints]
2228,422.535211267606,4,3,0,70,1,0
2228,-133.333333333333,4,3,0,70,0,0
3918,-100,4,3,0,70,0,0
7298,-111.111111111111,4,3,0,70,0,0
10678,-100,4,3,0,70,0,0
17439,-200,4,3,0,70,0,0
30115,-133.333333333333,4,3,0,70,0,0
30960,-100,4,3,0,70,0,0
35608,-200,4,3,0,70,0,0
36875,-133.333333333333,4,3,0,70,0,0
37720,-100,4,3,0,70,0,0
41101,-133.333333333333,4,3,0,70,0,0
42368,-100,4,3,0,70,0,0
44481,-133.333333333333,4,3,0,70,0,0
51242,-100,4,3,0,70,0,0
51664,-133.333333333333,4,3,0,70,0,0
56946,-100,4,3,0,70,0,0
61382,-100,4,3,0,85,0,1
61594,-80,4,3,0,85,0,1
73213,-100,4,3,0,85,0,0
74904,-80,4,3,0,85,0,1
86735,-100,4,3,0,85,0,0
88425,-100,4,3,0,70,0,0
89164,-80,4,3,0,70,0,0
89481,-100,4,3,0,70,0,0
90009,-80,4,3,0,70,0,0
90220,-100,4,3,0,70,0,0
92544,-80,4,3,0,70,0,0
92756,-100,4,3,0,70,0,0
93495,-80,4,3,0,85,0,1
94340,-100,4,3,0,70,0,0

[Colours]
Combo1 : 242,57,75
Combo2 : 77,77,77
Combo3 : 255,149,202
Combo4 : 128,0,128

[HitObjects]
202,116,2228,6,0,L|74:111,2,87.5000009536744,8|8|8,0:0|0:0|0:0,0:0:0:0:
302,154,2650,2,0,L|430:149,2,87.5000009536744,8|8|8,0:0|0:0|0:0,0:0:0:0:
215,187,3073,5,8,0:0:0:0:
264,82,3213,1,8,0:0:0:0:
307,230,3354,1,8,0:0:0:0:
187,103,3495,6,0,P|99:120|34:199,1,175.000001907349,12|0,0:0|0:0,0:0:0:0:
124,286,3918,6,0,L|251:276,1,87.4999976158143,4|0,0:0|0:0,0:0:0:0:
283,299,4129,2,0,L|404:307,1,87.4999976158143,4|0,0:0|0:0,0:0:0:0:
444,282,4340,1,4,0:0:0:0:
275,57,4551,6,0,P|263:111|264:163,1,87.4999976158143,4|0,0:0|0:0,0:0:0:0:
422,171,4763,2,0,P|381:133|335:108,1,87.4999976158143,4|0,0:0|0:0,0:0:0:0:
247,231,4974,6,0,P|299:214|344:187,1,87.4999976158143,4|0,0:0|0:0,0:0:0:0:
171,176,5185,1,4,0:0:0:0:
171,176,5291,2,0,P|128:165|85:162,1,87.4999976158143,4|0,0:0|0:0,0:0:0:0:
166,89,5608,6,0,L|172:187,1,87.4999976158143,4|0,0:0|0:0,0:0:0:0:
242,318,5819,2,0,L|247:230,1,87.4999976158143,4|0,0:0|0:0,0:0:0:0:
119,275,6030,1,4,0:0:0:0:
330,153,6242,6,0,P|246:145|215:153,1,87.4999976158143,4|0,0:0|0:0,0:0:0:0:
198,302,6453,2,0,P|246:233|255:202,1,87.4999976158143,4|0,0:0|0:0,0:0:0:0:
171,176,6664,1,4,0:0:0:0:
385,222,6875,5,4,0:0:0:0:
385,222,6981,2,0,P|416:177|330:65,1,174.999995231629,4|0,0:0|0:0,0:0:0:0:
243,145,7298,5,8,0:0:0:0:
247,180,7439,1,8,0:0:0:0:
51,51,7650,6,8,B|170:37|170:37|240:45,2,157.499990901947
132,327,8284,2,0,P|161:252|139:151,1,157.499990901947,8|8,0:0|0:0,0:0:0:0:
81,124,8566,6,0,L|-28:131,1,78.7499954509737,8|0,0:0|0:0,0:0:0:0:
147,160,8777,2,0,L|244:161,1,78.7499954509737,8|0,0:0|0:0,0:0:0:0:
135,43,8988,1,8,0:0:0:0:
409,56,10678,6,0,B|363:69|317:59|317:59|278:47|224:60,1,174.999995231629,8|0,2:0|0:0,0:0:0:0:
325,335,11101,6,0,P|346:245|330:161,1,174.999995231629,4|0,0:0|0:0,0:0:0:0:
270,124,11418,2,0,L|154:133,1,87.4999976158143,4|0,0:0|0:0,0:0:0:0:
268,240,11629,2,0,P|352:258|458:233,1,174.999995231629,4|0,0:0|0:0,0:0:0:0:
463,165,11946,2,0,L|475:49,1,87.4999976158143,4|0,0:0|0:0,0:0:0:0:
394,89,12157,2,0,L|382:-27,1,87.4999976158143,4|0,0:0|0:0,0:0:0:0:
270,124,12368,5,8,2:0:0:0:
270,124,12580,1,4,0:0:0:0:
95,131,12791,6,0,L|296:122,1,174.999995231629,4|0,0:0|0:0,0:0:0:0:
331,164,13108,2,0,P|343:207|336:275,1,87.4999976158143,4|0,0:0|0:0,0:0:0:0:
183,289,13319,1,4,0:0:0:0:
191,270,13425,2,0,P|222:238|350:257,1,174.999995231629,4|0,0:0|0:0,0:0:0:0:
425,304,13742,2,0,P|319:348|263:307,1,174.999995231629,4|4,0:0|0:0,0:0:0:0:
300,131,14058,2,0,B|316:197|342:249|342:249|317:226|294:224,1,174.999995231629,8|0,2:0|0:0,0:0:0:0:
466,115,14481,6,0,P|377:101|290:138,1,174.999995231629,4|0,0:0|0:0,0:0:0:0:
375,279,14798,2,0,P|384:239|381:181,1,87.4999976158143,4|0,0:0|0:0,0:0:0:0:
217,74,15009,2,0,P|211:183|301:227,1,174.999995231629,4|0,0:0|0:0,0:0:0:0:
349,217,15326,6,0,L|449:226,1,87.4999976158143,4|0,0:0|0:0,0:0:0:0:
399,295,15537,2,0,L|495:321,1,87.4999976158143,4|0,0:0|0:0,0:0:0:0:
432,384,15749,5,8,2:0:0:0:
454,152,15960,1,8,0:0:0:0:
282,315,16171,5,8,0:0:0:0:
323,321,16277,1,8,0:0:0:0:
363,315,16382,1,8,0:0:0:0:
399,295,16488,1,8,0:0:0:0:
273,135,16699,1,8,0:0:0:0:
174,337,16911,1,8,0:0:0:0:
174,337,17016,2,0,B|146:245|179:147|179:147|203:185|216:245,1,262.499992847443,8|0,0:0|0:0,0:0:0:0:
255,291,17439,5,8,2:0:0:0:
255,291,17861,1,4,0:0:0:0:
354,170,18284,5,4,0:0:0:0:
354,170,18706,1,4,0:0:0:0:
190,172,19129,5,4,0:0:0:0:
190,172,19551,1,4,0:0:0:0:
265,64,19974,6,0,L|393:66,1,87.4999976158143,4|0,0:0|0:0,0:0:0:0:
169,93,20397,2,0,L|41:95,1,87.4999976158143,4|0,0:0|0:0,0:0:0:0:
218,290,20819,6,0,P|261:226|216:121,1,174.999995231629,4|0,0:0|0:0,0:0:0:0:
44,200,21453,2,0,B|171:209|171:209|115:189,1,174.999995231629,4|0,0:0|0:0,0:0:0:0:
318,131,22087,2,0,B|191:122|191:122|247:142,1,174.999995231629,4|0,0:0|0:0,0:0:0:0:
143,40,22720,2,0,P|100:104|145:209,1,174.999995231629,4|0,0:0|0:0,0:0:0:0:
318,131,23354,5,4,0:0:0:0:
318,131,23460,1,4,0:0:0:0:
318,262,23777,6,0,L|317:108,1,131.249996423721,4|0,0:0|0:0,0:0:0:0:
254,95,24199,5,8,2:0:0:0:
254,95,24411,2,0,L|176:102,1,43.7499988079071,4|0,0:0|0:0,0:0:0:0:
141,186,24622,5,4,0:0:0:0:
141,186,24833,2,0,L|195:194,1,43.7499988079071,4|0,0:0|0:0,0:0:0:0:
307,224,25044,5,4,0:0:0:0:
307,224,25256,2,0,L|302:160,1,43.7499988079071,4|0,0:0|0:0,0:0:0:0:
207,70,25467,5,4,0:0:0:0:
207,70,25678,2,0,L|203:130,1,43.7499988079071,4|0,0:0|0:0,0:0:0:0:
190,276,25889,5,4,0:0:0:0:
190,276,26101,2,0,L|252:271,1,43.7499988079071,4|0,0:0|0:0,0:0:0:0:
366,130,26312,5,4,0:0:0:0:
366,130,26523,2,0,L|315:126,1,43.7499988079071,4|0,0:0|0:0,0:0:0:0:
91,166,26735,6,0,P|93:214|126:272,1,87.4999976158143,4|0,0:0|0:0,0:0:0:0:
322,126,27157,2,0,P|279:105|212:104,1,87.4999976158143,4|0,0:0|0:0,0:0:0:0:
219,309,27580,6,0,B|343:317|343:317|290:294,1,174.999995231629,4|0,0:0|0:0,0:0:0:0:
156,259,28213,2,0,B|32:251|32:251|78:271,1,174.999995231629,4|0,0:0|0:0,0:0:0:0:
296,296,28847,2,0,P|303:218|279:152,1,131.249996423721,4|0,0:0|0:0,0:0:0:0:
260,145,29270,6,0,B|178:155|68:149|68:149|115:159|153:195,1,262.499992847443
300,222,30115,1,4,0:0:0:0:
300,222,30220,6,0,P|369:226|439:213,1,131.250001430512,4|0,0:0|0:0,0:0:0:0:
341,145,30537,2,0,P|312:86|271:36,1,131.250001430512,4|0,0:0|0:0,0:0:0:0:
178,129,30854,5,4,0:0:0:0:
178,129,30960,2,0,B|166:217|166:217|176:309,1,174.999995231629,8|4,2:0|0:0,0:0:0:0:
265,80,31382,6,0,P|184:32|76:86,1,174.999995231629,4|4,0:0|0:0,0:0:0:0:
283,168,31699,1,4,0:0:0:0:
283,168,31805,2,0,P|330:150|355:114,1,87.4999976158143,4|0,0:0|0:0,0:0:0:0:
103,116,32016,5,4,0:0:0:0:
103,116,32122,1,4,0:0:0:0:
103,116,32228,2,0,L|201:102,1,87.4999976158143,4|0,0:0|0:0,0:0:0:0:
371,165,32439,2,0,L|273:151,1,87.4999976158143,4|0,0:0|0:0,0:0:0:0:
207,193,32650,6,0,B|196:321|196:321|237:255,1,174.999995231629,4|4,0:0|0:0,0:0:0:0:
284,152,33073,6,0,P|221:107|128:157,1,174.999995231629,4|4,0:0|0:0,0:0:0:0:
335,225,33389,1,4,0:0:0:0:
335,225,33495,2,0,P|360:193|358:127,1,87.4999976158143,4|0,0:0|0:0,0:0:0:0:
133,59,33706,5,4,0:0:0:0:
133,59,33812,1,4,0:0:0:0:
133,59,33918,2,0,P|128:111|140:161,1,87.4999976158143,4|0,0:0|0:0,0:0:0:0:
284,142,34129,2,0,P|241:111|192:97,1,87.4999976158143,4|0,0:0|0:0,0:0:0:0:
58,252,34340,6,0,B|296:233|296:233|180:209,1,349.999990463257,8|0,2:0|0:0,0:0:0:0:
355,97,34974,6,0,B|117:116|117:116|233:140,1,349.999990463257,4|0,0:0|0:0,0:0:0:0:
381,342,35608,6,0,B|354:232|355:96|355:96|343:157|308:214,1,349.999990463257,12|0,0:0|0:0,0:0:0:0:
176,27,36664,5,4,0:0:0:0:
176,27,36770,1,4,0:0:0:0:
176,27,36875,2,0,B|204:140|199:293|199:293|214:212|249:155,1,393.750004291535,8|0,0:0|0:0,0:0:0:0:
472,72,37720,6,0,P|376:56|296:88,1,174.999995231629,8|0,2:0|0:0,0:0:0:0:
318,297,38143,6,0,B|374:229|374:229|392:136,1,174.999995231629,4|0,0:0|0:0,0:0:0:0:
219,118,38460,1,4,0:0:0:0:
219,118,38566,2,0,P|248:159|324:166,1,87.4999976158143,4|0,0:0|0:0,0:0:0:0:
458,27,38777,5,4,0:0:0:0:
458,27,38882,1,4,0:0:0:0:
458,27,38988,2,0,L|350:39,1,87.4999976158143,4|0,0:0|0:0,0:0:0:0:
180,3,39199,2,0,L|288:15,1,87.4999976158143,4|0,0:0|0:0,0:0:0:0:
307,241,39411,6,0,P|287:147|322:48,1,174.999995231629,4|0,0:0|0:0,0:0:0:0:
399,300,39833,6,0,P|336:348|208:288,1,174.999995231629,4|0,0:0|0:0,0:0:0:0:
394,197,40150,1,4,0:0:0:0:
394,197,40256,2,0,P|432:210|481:255,1,87.4999976158143,4|0,0:0|0:0,0:0:0:0:
314,219,40467,2,0,P|306:179|320:114,1,87.4999976158143,4|0,0:0|0:0,0:0:0:0:
373,280,40678,2,0,P|342:306|279:326,1,87.4999976158143,4|0,0:0|0:0,0:0:0:0:
128,243,40889,2,0,L|231:253,1,87.4999976158143,4|0,0:0|0:0,0:0:0:0:
312,133,41101,6,0,B|331:112|346:79|346:79|337:197|353:292,1,262.500002861023,8|0,2:0|0:0,0:0:0:0:
215,251,41735,6,0,B|194:274|181:305|181:305|190:187|174:92,1,262.500002861023,4|0,0:0|0:0,0:0:0:0:
271,49,42368,6,0,L|407:43,1,87.4999976158143,4|0,0:0|0:0,0:0:0:0:
98,96,42580,2,0,L|-16:94,1,87.4999976158143,4|0,0:0|0:0,0:0:0:0:
184,15,42791,5,8,0:0:0:0:
161,252,43002,1,8,0:0:0:0:
334,84,43213,5,8,0:0:0:0:
293,78,43319,1,8,0:0:0:0:
253,84,43424,1,8,0:0:0:0:
218,102,43530,1,8,0:0:0:0:
279,322,43742,6,0,P|309:239|280:147,1,174.999995231629,8|0,0:0|0:0,0:0:0:0:
35,223,44058,2,0,B|215:233|215:233|139:191,1,262.499992847443,8|0,0:0|0:0,0:0:0:0:
218,102,44481,5,4,0:0:0:0:
218,102,44904,6,0,B|157:114|157:114|51:117,1,131.250001430512,4|0,0:0|0:0,0:0:0:0:
282,321,45326,2,0,P|316:219|263:104,2,196.875002145767,4|4|4,0:0|0:0|0:0,0:0:0:0:
97,209,46171,1,4,0:0:0:0:
97,209,46382,2,0,L|247:216,1,131.250001430512,4|0,0:0|0:0,0:0:0:0:
117,323,46805,1,4,0:0:0:0:
21,202,47016,2,0,P|23:107|97:8,2,196.875002145767,4|4|4,0:0|0:0|0:0,0:0:0:0:
286,163,47861,5,12,0:0:0:0:
164,322,48073,1,4,0:0:0:0:
164,322,48284,2,0,L|168:170,1,131.250001430512,4|0,0:0|0:0,0:0:0:0:
374,104,48706,2,0,P|296:77|174:133,2,196.875002145767,4|4|4,0:0|0:0|0:0,0:0:0:0:
334,305,49551,5,4,0:0:0:0:
286,163,49763,1,4,0:0:0:0:
418,223,49974,1,4,0:0:0:0:
234,257,50185,1,4,0:0:0:0:
234,257,50291,1,4,0:0:0:0:
234,257,50397,2,0,P|179:187|210:65,2,196.875002145767,4|4|4,0:0|0:0|0:0,0:0:0:0:
477,162,51242,6,0,B|273:152|273:152|339:190,1,262.499992847443,12|0,0:0|0:0,0:0:0:0:
370,244,51664,6,0,L|361:380,1,131.250001430512,4|0,0:0|0:0,0:0:0:0:
200,186,52087,1,4,0:0:0:0:
200,186,52192,1,4,0:0:0:0:
390,141,52404,2,0,P|329:110|240:121,1,131.250001430512,4|0,0:0|0:0,0:0:0:0:
287,317,52720,2,0,P|314:252|308:178,1,131.250001430512,4|0,0:0|0:0,0:0:0:0:
144,246,53143,5,8,0:0:0:0:
269,76,53460,5,8,0:0:0:0:
377,255,53777,5,12,0:0:0:0:
338,155,53988,1,4,0:0:0:0:
266,277,54199,1,4,0:0:0:0:
459,191,54411,1,4,0:0:0:0:
284,85,54622,2,0,B|189:70|189:70|-26:91,2,262.500002861023,4|4|4,0:0|0:0|0:0,0:0:0:0:
219,364,55889,6,0,P|191:257|210:152,1,196.875002145767,4|0,0:0|0:0,0:0:0:0:
227,153,56312,1,4,0:0:0:0:
398,274,56523,1,4,0:0:0:0:
398,274,56629,1,4,0:0:0:0:
398,274,56735,2,0,L|297:273,1,65.6250007152558,4|0,0:0|0:0,0:0:0:0:
227,153,56946,6,0,L|222:29,1,87.4999976158143,4|0,0:0|0:0,0:0:0:0:
309,186,57157,1,4,0:0:0:0:
309,186,57263,2,0,P|238:239|155:208,1,174.999995231629,4|0,0:0|0:0,0:0:0:0:
223,65,57580,2,0,B|356:78|480:71|480:71|421:84|374:114,1,349.999990463257,4|0,0:0|0:0,0:0:0:0:
308,95,59692,5,8,0:0:0:0:
162,110,59798,1,8,0:0:0:0:
136,89,60326,5,8,0:0:0:0:
335,122,60432,1,8,0:0:0:0:
203,113,60960,6,0,B|225:78|237:17|237:17|236:153|263:263,1,349.999990463257,12|12,0:0|0:0,0:0:0:0:
115,312,61594,6,0,L|124:198,1,109.374997019768,12|0,0:0|0:0,0:0:0:0:
141,60,61805,1,4,0:0:0:0:
141,60,61911,1,4,0:0:0:0:
371,106,62122,6,0,P|263:156|148:118,1,218.749994039536,8|0,0:0|0:0,0:0:0:0:
65,26,62439,5,4,0:0:0:0:
65,26,62544,1,4,0:0:0:0:
65,26,62650,2,0,B|48:136|48:136|61:260,1,218.749994039536,8|0,0:0|0:0,0:0:0:0:
275,137,62967,1,4,0:0:0:0:
275,137,63073,2,0,P|202:124|118:172,1,109.374997019768,8|0,0:0|0:0,0:0:0:0:
290,227,63284,5,4,0:0:0:0:
290,227,63389,1,4,0:0:0:0:
290,227,63495,2,0,P|345:186|305:52,1,218.749994039536,8|0,0:0|0:0,0:0:0:0:
111,141,63812,5,4,0:0:0:0:
111,141,63918,2,0,L|243:137,1,109.374997019768,8|0,0:0|0:0,0:0:0:0:
422,59,64129,5,4,0:0:0:0:
422,59,64235,2,0,L|312:55,1,109.374997019768,8|0,0:0|0:0,0:0:0:0:
304,240,64446,6,0,P|318:200|302:130,1,109.374997019768,8|0,0:0|0:0,0:0:0:0:
223,266,64657,2,0,P|311:325|388:249,1,218.749994039536,8|0,0:0|0:0,0:0:0:0:
305,135,64974,6,0,L|166:152,1,109.374997019768,8|0,0:0|0:0,0:0:0:0:
8,168,65185,1,4,0:0:0:0:
8,168,65291,2,0,L|147:185,1,109.374997019768,8|0,0:0|0:0,0:0:0:0:
128,3,65502,5,4,0:0:0:0:
128,3,65608,2,0,P|121:56|135:112,1,109.374997019768,8|0,0:0|0:0,0:0:0:0:
192,331,65819,5,4,0:0:0:0:
192,331,65925,2,0,P|199:278|185:222,1,109.374997019768,8|0,0:0|0:0,0:0:0:0:
3,275,66136,6,0,P|64:282|123:266,1,109.374997019768,8|0,0:0|0:0,0:0:0:0:
83,38,66347,1,4,0:0:0:0:
83,38,66453,2,0,B|58:-16|58:-16|44:153,1,218.749994039536,8|0,0:0|0:0,0:0:0:0:
366,153,66875,5,4,0:0:0:0:
366,153,66981,2,0,P|256:198|159:175,1,218.749994039536,8|0,0:0|0:0,0:0:0:0:
256,10,67298,2,0,B|260:63|260:63|247:129,1,109.374997019768,8|0,0:0|0:0,0:0:0:0:
68,290,67509,6,0,B|101:153|100:-15|100:-15|115:60|158:131,1,437.499988079071,12|0,0:0|0:0,0:0:0:0:
211,230,68143,6,0,P|345:238|428:193,1,218.749994039536,8|12,0:0|0:0,0:0:0:0:
296,80,68566,1,4,0:0:0:0:
296,80,68671,1,4,0:0:0:0:
211,230,68882,6,0,P|209:174|244:86,1,109.374997019768,8|0,0:0|0:0,0:0:0:0:
308,298,69094,5,4,0:0:0:0:
308,298,69199,2,0,L|189:306,1,109.374997019768,8|0,0:0|0:0,0:0:0:0:
14,238,69411,5,4,0:0:0:0:
14,238,69516,2,0,L|133:246,1,109.374997019768,8|0,0:0|0:0,0:0:0:0:
245,26,69728,6,0,P|261:111|175:258,1,218.749994039536,8|0,0:0|0:0,0:0:0:0:
52,92,70044,5,4,0:0:0:0:
52,92,70150,1,4,0:0:0:0:
52,92,70256,2,0,P|103:78|169:87,1,109.374997019768,8|0,0:0|0:0,0:0:0:0:
320,265,70467,5,4,0:0:0:0:
320,265,70573,2,0,B|314:151|335:29|335:29|317:76|276:118,1,328.124991059303,12|0,0:0|0:0,0:0:0:0:
28,206,71101,5,4,0:0:0:0:
28,206,71206,2,0,P|138:224|243:175,1,218.749994039536,8|0,0:0|0:0,0:0:0:0:
106,48,71523,6,8,B|270:50|270:50|213:70,1,218.749994039536,8|0,0:0|0:0,0:0:0:0:
346,202,71946,5,4,0:0:0:0:
346,202,72051,2,0,B|182:200|182:200|239:180,1,218.749994039536,8|0,0:0|0:0,0:0:0:0:
413,127,72368,2,0,P|446:241|354:305,1,218.749994039536,8|0,0:0|0:0,0:0:0:0:
328,121,72685,2,0,P|398:43|491:92,1,218.749994039536,8|0,0:0|0:0,0:0:0:0:
346,202,73002,1,0,0:0:0:0:
240,32,73213,6,0,B|227:96|227:96|231:175,2,116.666663487752,8|8|8,0:0|0:0|0:0,0:0:0:0:
328,121,73636,2,0,B|389:100|389:100|456:58,2,116.666663487752,8|8|8,0:0|0:0|0:0,0:0:0:0:
329,0,74058,5,8,0:0:0:0:
337,22,74270,2,0,B|314:187|324:382|324:382|307:294|255:208,1,524.999985694885,8|12,0:0|0:0,0:0:0:0:
68,39,75115,6,0,L|193:32,1,109.374997019768,8|0,0:0|0:0,0:0:0:0:
337,22,75326,1,4,0:0:0:0:
337,22,75432,1,4,0:0:0:0:
216,265,75643,6,0,B|223:101|223:101|267:183,1,218.749994039536,8|0,0:0|0:0,0:0:0:0:
317,325,75960,5,4,0:0:0:0:
317,325,76066,1,4,0:0:0:0:
317,325,76171,2,0,P|203:341|172:325,1,109.374997019768,8|0,0:0|0:0,0:0:0:0:
207,157,76382,1,4,0:0:0:0:
207,157,76488,2,0,P|220:209|209:285,1,109.374997019768,8|0,0:0|0:0,0:0:0:0:
45,59,76805,6,0,L|183:65,1,109.374997019768,8|0,0:0|0:0,0:0:0:0:
386,94,77016,5,4,0:0:0:0:
386,94,77122,2,0,L|248:100,1,109.374997019768,8|0,0:0|0:0,0:0:0:0:
215,264,77333,5,4,0:0:0:0:
215,264,77439,2,0,P|202:205|220:141,1,109.374997019768,8|0,0:0|0:0,0:0:0:0:
386,94,77650,5,4,0:0:0:0:
386,94,77756,2,0,P|341:134|276:151,1,109.374997019768,8|0,0:0|0:0,0:0:0:0:
36,123,77967,6,0,L|162:111,1,109.374997019768,8|0,0:0|0:0,0:0:0:0:
306,291,78178,2,0,P|187:345|109:239,1,218.749994039536,8|0,0:0|0:0,0:0:0:0:
211,157,78495,5,4,0:0:0:0:
211,157,78601,1,4,0:0:0:0:
211,157,78706,2,0,P|262:105|390:178,1,218.749994039536,8|0,0:0|0:0,0:0:0:0:
295,292,79023,1,4,0:0:0:0:
295,292,79129,2,0,L|298:165,1,109.374997019768,8|0,0:0|0:0,0:0:0:0:
456,199,79340,5,4,0:0:0:0:
456,199,79446,2,0,P|405:247|315:223,1,109.374997019768,8|0,0:0|0:0,0:0:0:0:
308,82,79657,2,0,P|355:104|376:203,1,109.374997019768,8|0,0:0|0:0,0:0:0:0:
54,171,79868,6,0,B|297:182|297:182|183:137,1,328.124991059303,8|0,0:0|0:0,0:0:0:0:
45,62,80397,5,4,0:0:0:0:
45,62,80503,2,0,P|142:23|265:44,1,218.749994039536,8|0,0:0|0:0,0:0:0:0:
225,258,80820,2,0,B|214:202|214:202|218:149,1,109.374997019768,8|0,0:0|0:0,0:0:0:0:
503,67,81031,6,0,B|362:83|196:61|196:61|268:85|334:136,1,437.499988079071,12|0,0:0|0:0,0:0:0:0:
389,368,81664,6,0,P|409:295|369:146,1,218.749994039536,8|12,0:0|0:0,0:0:0:0:
174,211,82087,1,4,0:0:0:0:
174,211,82192,1,4,0:0:0:0:
293,348,82404,6,0,L|158:341,1,109.374997019768,8|0,0:0|0:0,0:0:0:0:
50,163,82615,5,4,0:0:0:0:
50,163,82720,2,0,P|47:212|72:286,1,109.374997019768,8|0,0:0|0:0,0:0:0:0:
219,95,82932,5,4,0:0:0:0:
219,95,83037,2,0,P|155:84|80:102,1,109.374997019768,8|0,0:0|0:0,0:0:0:0:
226,214,83249,6,0,B|389:214|389:214|318:175,1,218.749994039536,8|0,0:0|0:0,0:0:0:0:
98,168,83566,6,0,B|86:117|86:117|91:60,1,109.374997019768,8|0,0:0|0:0,0:0:0:0:
296,92,83777,5,4,0:0:0:0:
296,92,83882,2,0,P|234:114|180:105,1,109.374997019768,8|0,0:0|0:0,0:0:0:0:
399,54,84094,6,0,B|390:213|390:213|368:155,1,218.749994039536,8|0,0:0|0:0,0:0:0:0:
191,109,84411,2,0,L|325:112,1,109.374997019768,8|0,0:0|0:0,0:0:0:0:
127,212,84622,5,4,0:0:0:0:
127,212,84728,2,0,P|69:107|117:2,1,218.749994039536,8|0,0:0|0:0,0:0:0:0:
350,102,85044,2,0,B|191:109|191:109|262:81,1,218.749994039536,8|0,0:0|0:0,0:0:0:0:
461,62,85467,5,4,0:0:0:0:
461,62,85573,2,0,B|455:219|455:219|428:157,1,218.749994039536,8|0,0:0|0:0,0:0:0:0:
178,108,85889,2,0,P|245:50|355:116,1,218.749994039536,8|0,0:0|0:0,0:0:0:0:
258,343,86206,2,0,P|226:254|276:130,1,218.749994039536,8|0,0:0|0:0,0:0:0:0:
430,162,86523,1,4,0:0:0:0:
327,260,86735,6,0,B|267:257|267:257|183:236,2,116.666663487752,8|8|8,0:0|0:0|0:0,0:0:0:0:
286,58,87157,2,0,B|276:118|276:118|280:183,2,116.666663487752,8|8|8,0:0|0:0|0:0,0:0:0:0:
400,181,87580,5,8,0:0:0:0:
400,181,87792,2,0,B|234:163|39:180|39:180|127:160|211:105,1,524.999985694885,8|12,0:0|0:0,0:0:0:0:
368,18,88636,6,0,L|362:147,1,87.4999976158143,8|0,0:0|0:0,0:0:0:0:
283,260,88847,2,0,L|277:131,1,87.4999976158143,8|0,0:0|0:0,0:0:0:0:
113,86,89164,6,0,B|270:75|270:75|188:116,1,218.749994039536,8|0,0:0|0:0,0:0:0:0:
134,172,89481,6,0,L|23:163,1,87.4999976158143,8|0,0:0|0:0,0:0:0:0:
231,232,89692,2,0,L|342:223,1,87.4999976158143,8|0,0:0|0:0,0:0:0:0:
243,9,90009,6,0,B|235:163|235:163|212:93,1,218.749994039536,8|0,0:0|0:0,0:0:0:0:
25,83,90326,5,4,0:0:0:0:
25,83,90432,1,4,0:0:0:0:
25,83,90537,2,0,P|89:96|153:86,1,87.4999976158143,8|0,0:0|0:0,0:0:0:0:
243,9,90749,1,4,0:0:0:0:
243,9,90854,2,0,P|187:-1|128:14,1,87.4999976158143,8|0,0:0|0:0,0:0:0:0:
243,139,91066,5,4,0:0:0:0:
366,114,91277,2,0,B|435:131|435:131|243:139,1,262.499992847443,8|0,0:0|0:0,0:0:0:0:
155,49,91805,6,0,L|147:156,1,87.4999976158143,8|0,0:0|0:0,0:0:0:0:
243,213,92016,6,0,L|375:208,1,87.4999976158143,8|0,0:0|0:0,0:0:0:0:
509,248,92228,2,0,L|377:243,1,87.4999976158143,8|0,0:0|0:0,0:0:0:0:
381,57,92544,6,0,B|415:11|415:11|397:199,1,218.749994039536,8|0,0:0|0:0,0:0:0:0:
311,208,92861,6,0,L|175:215,1,87.4999976158143,8|0,0:0|0:0,0:0:0:0:
33,172,93073,2,0,L|169:179,1,87.4999976158143,8|0,0:0|0:0,0:0:0:0:
322,64,93495,6,0,B|329:138|329:138|302:241,2,145.83332935969,8|8|8,0:0|0:0|0:0,0:0:0:0:
107,111,93918,2,0,P|177:136|264:102,1,145.83332935969,8|8,0:0|0:0,0:0:0:0:
180,11,94199,1,8,0:0:0:0:
