osu file format v14

[General]
AudioFilename: audio.mp3
AudioLeadIn: 0
PreviewTime: 61596
Countdown: 0
SampleSet: None
StackLeniency: 0.5
Mode: 0
LetterboxInBreaks: 0
WidescreenStoryboard: 1

[Editor]
Bookmarks: 2230,3920,10680,17441,24201,30962,44483,58004,61384,68356,68568,73215,74906,81877,86737,88427,93497,94342
DistanceSpacing: 1.5
BeatDivisor: 4
GridSize: 8
TimelineZoom: 1.9

[Metadata]
Title:Deal with the devil
TitleUnicode:Deal with the devil
Artist:Tia
ArtistUnicode:Tia
Creator:DeviousPanda
Version:Hayu's Hard
Source:賭ケグルイ
Tags:Kakegurui Anime OP
BeatmapID:1392051
BeatmapSetID:638443

[Difficulty]
HPDrainRate:4
CircleSize:3.5
OverallDifficulty:4.5
ApproachRate:7
SliderMultiplier:1.99999990463257
SliderTickRate:1

[Events]
//Background and Video events
0,0,"Kakegurui BG.png",0,0
//Break Periods
//Storyboard Layer 0 (Background)
//Storyboard Layer 1 (Fail)
//Storyboard Layer 2 (Pass)
//Storyboard Layer 3 (Foreground)
//Storyboard Sound Samples

[TimingPoints]
2228,422.535211267606,4,3,0,76,1,0
2228,-149.253731343284,4,3,0,76,0,0
3918,-133.333333333333,4,3,0,64,0,0
10678,-100,4,3,0,70,0,0
17439,-200,4,3,0,40,0,0
23495,-149.253731343284,4,3,0,70,0,0
24199,-200,4,3,0,40,0,0
30115,-149.253731343284,4,3,0,52,0,0
34340,-133.333333333333,4,3,0,64,0,0
34763,-149.253731343284,4,3,0,52,0,0
37298,-133.333333333333,4,3,0,64,0,0
41101,-120.481927710843,4,3,0,52,0,0
42791,-120.481927710843,4,3,0,76,0,0
44904,-133.333333333333,4,3,0,52,0,0
45256,-133.333333333333,4,3,0,10,0,0
45326,-149.253731343284,4,3,0,52,0,0
46594,-133.333333333333,4,3,0,52,0,0
46946,-133.333333333333,4,3,0,10,0,0
47016,-149.253731343284,4,3,0,52,0,0
48284,-133.333333333333,4,3,0,52,0,0
48636,-133.333333333333,4,3,0,10,0,0
48706,-149.253731343284,4,3,0,52,0,0
49551,-149.253731343284,4,3,0,64,0,0
50819,-120.481927710843,4,3,0,64,0,0
54622,-149.253731343284,4,3,0,40,0,0
55044,-133.333333333333,4,3,0,52,0,0
55467,-120.481927710843,4,3,0,64,0,0
55889,-100,4,3,0,76,0,0
61594,-100,4,3,0,76,0,1
68143,-100,4,3,0,76,0,0
68354,-100,4,3,0,76,0,1
74904,-100,4,3,0,76,0,0
75115,-100,4,3,0,76,0,1
81664,-100,4,3,0,76,0,0
81875,-100,4,3,0,76,0,1
88425,-133.333333333333,4,3,0,52,0,0
91101,-133.333333333333,4,3,0,64,0,0
91805,-133.333333333333,4,3,0,52,0,0
93495,-133.333333333333,4,3,0,76,0,0

[Colours]
Combo1 : 242,57,75
Combo2 : 77,77,77
Combo3 : 255,149,202
Combo4 : 128,0,128

[HitObjects]
309,48,2228,6,0,P|328:60|343:78,2,44.6666624239606,8|0|0,0:0|0:0|0:0,0:0:0:0:
280,120,2650,2,0,P|289:140|292:162,2,44.6666624239606,8|0|0,0:0|0:0|0:0,0:0:0:0:
216,163,3073,2,0,P|213:185|203:205,2,44.6666624239606,8|0|0,0:0|0:0|0:0,0:0:0:0:
138,164,3495,1,8,0:0:0:0:
284,260,3918,6,0,B|301:268|301:268|329:271,4,37.4999996423721
194,302,4551,2,0,B|177:294|177:294|158:292,4,37.4999996423721
276,359,5185,2,2,B|321:370,2,37.4999996423721
156,367,5608,6,0,B|140:377|140:377|113:384,4,37.4999996423721
228,297,6242,2,0,B|243:286|243:286|261:281,4,37.4999996423721
132,270,6875,1,0,0:0:0:0:
128,281,6981,2,0,P|79:234|73:192,1,112.499998927116,8|0,0:0|0:0,0:0:0:0:
76,181,7404,5,0,0:0:0:0:
173,193,7668,2,0,L|252:204,1,74.9999992847443
293,277,8090,2,0,L|372:287,1,74.9999992847443
445,231,8460,2,0,L|417:227,1,28.1249997317791
376,144,8777,2,0,L|450:153,1,74.9999992847443,0|2,0:0|0:0,0:0:0:0:
451,154,10678,6,0,P|392:125|328:139,1,133.333326975505,8|0,0:0|0:0,0:0:0:0:
60,154,13794,5,0,0:0:0:0:
60,154,14058,2,0,P|119:125|183:139,1,133.333326975505,8|0,0:0|0:0,0:0:0:0:
256,243,15749,6,0,P|242:195|255:148,1,99.9999952316285,8|8,0:0|0:0,0:0:0:0:
337,109,16171,2,0,P|345:133|345:158,2,49.9999976158143,8|8|8,0:0|0:0|0:0,0:0:0:0:
304,73,16488,2,0,P|256:59|209:72,1,99.9999952316285,8|8,0:0|0:0,0:0:0:0:
167,151,16946,2,0,L|161:183,1,33.3333317438762,8|8,0:0|0:0,0:0:0:0:
137,311,17439,6,0,P|167:315|204:307,1,49.9999976158143,8|0,0:0|0:0,0:0:0:0:
272,222,17861,2,0,P|244:233|215:258,1,49.9999976158143
324,289,18284,2,0,P|342:265|354:228,1,49.9999976158143
334,118,18706,2,0,P|330:148|338:184,1,49.9999976158143
443,192,19129,6,0,P|431:164|406:135,1,49.9999976158143
384,244,19551,2,0,P|407:262|444:274,1,49.9999976158143
332,167,19974,2,0,P|302:163|265:170,1,49.9999976158143
259,266,20397,2,0,P|286:254|315:229,1,49.9999976158143
182,195,20819,6,0,P|157:197|132:193,1,49.9999976158143
118,89,21242,2,0,P|140:99|160:115,1,49.9999976158143
58,146,21664,2,0,P|43:125|34:102,1,49.9999976158143
119,39,22087,2,0,P|121:63|117:88,1,49.9999976158143
31,188,22509,2,0,P|41:165|57:145,1,49.9999976158143
153,184,22932,2,0,P|132:198|109:207,2,49.9999976158143
167,168,23495,6,0,L|264:157,1,89.3333248479212,2|2,0:0|0:0,0:0:0:0:
405,129,24199,6,0,P|389:148|378:171,1,49.9999976158143,8|0,0:0|0:0,0:0:0:0:
432,278,24622,2,0,P|435:253|433:228,1,49.9999976158143
300,190,25044,2,0,P|308:213|323:233,1,49.9999976158143
364,139,25467,2,0,P|344:123|321:112,1,49.9999976158143
196,130,25889,6,0,P|220:133|245:131,1,49.9999976158143
181,50,26312,2,0,P|157:58|137:73,1,49.9999976158143
92,194,26735,2,0,P|107:174|118:151,1,49.9999976158143
41,83,27157,2,0,P|37:107|39:132,1,49.9999976158143
181,50,27580,6,0,P|205:47|230:51,1,49.9999976158143
291,169,28002,2,0,P|268:158|248:142,1,49.9999976158143
392,70,28425,2,0,P|406:90|415:113,1,49.9999976158143
312,89,28847,2,0,P|309:64|313:39,1,49.9999976158143
321,19,29164,1,0,0:0:0:0:
331,0,29270,2,0,P|226:9|128:1,1,199.999990463257,8|0,0:0|0:0,0:0:0:0:
119,0,30256,6,0,L|137:95,1,89.3333248479212,2|2,0:0|0:0,0:0:0:0:
191,233,30960,6,0,P|203:180|215:165,1,66.9999936359409,8|0,0:0|0:0,0:0:0:0:
320,178,31382,2,0,P|283:217|265:224,1,66.9999936359409
272,111,31805,2,0,P|323:94|342:97,1,66.9999936359409
460,168,32228,2,0,P|407:156|392:144,1,66.9999936359409
404,39,32650,6,0,P|443:75|450:93,1,66.9999936359409
340,88,33073,2,0,P|323:36|326:17,1,66.9999936359409
397,149,33495,2,0,P|385:202|373:217,2,66.9999936359409
396,137,34076,1,0,0:0:0:0:
448,76,34340,6,0,L|445:176,1,99.9999990463257
465,198,34763,6,0,P|473:250|468:268,1,66.9999936359409
368,293,35185,2,0,P|386:243|400:230,1,66.9999936359409
438,336,35608,2,0,P|396:369|378:374,1,66.9999936359409
221,311,36030,2,0,P|273:303|291:308,1,66.9999936359409
167,374,36453,2,0,P|117:354|104:341,1,66.9999936359409
98,173,36875,2,0,P|122:197|135:228,1,66.9999936359409
57,244,37298,6,0,P|136:228|178:243,1,112.499998927116
174,246,37720,6,0,L|232:150,1,99.9999990463257
247,151,38143,6,0,P|260:200|286:227,1,74.9999992847443
389,200,38566,2,0,P|353:164|317:153,1,74.9999992847443
346,274,38988,2,0,P|394:287|431:278,1,74.9999992847443
456,171,39411,2,0,P|407:183|380:210,1,74.9999992847443
451,359,39833,2,0,P|486:323|496:287,1,74.9999992847443
346,274,40256,2,0,P|332:321|341:359,2,74.9999992847443
354,264,40837,1,0,0:0:0:0:
410,192,41101,6,0,L|278:182,1,110.666662993876,2|0,0:0|0:0,0:0:0:0:
148,41,41946,2,0,P|237:50|284:115,1,165.999994490814,2|2,0:0|0:0,0:0:0:0:
166,215,42791,5,8,0:0:0:0:
224,161,43002,1,8,0:0:0:0:
241,237,43213,2,0,B|240:259|240:259|256:286,3,41.4999986227036,8|8|8|8,0:0|0:0|0:0|0:0,0:0:0:0:
321,240,43742,2,0,L|430:204,1,82.9999972454071,8|8,0:0|0:0,0:0:0:0:
412,210,44058,6,0,P|443:251|372:346,1,165.999994490814,8|2,0:0|0:0,0:0:0:0:
134,181,44904,6,0,P|231:167|261:190,1,124.999998807907
259,186,45326,2,0,P|278:276|370:272,1,200.999980907823
318,123,46594,6,0,P|221:109|191:132,1,124.999998807907
192,128,47016,2,0,P|173:218|58:150,1,267.999974543764
132,67,48284,6,0,P|229:53|259:76,1,124.999998807907
257,72,48706,2,0,P|275:162|368:157,1,200.999980907823
395,69,49551,5,8,0:0:0:0:
458,136,49763,1,8,0:0:0:0:
431,224,49974,1,8,0:0:0:0:
494,291,50185,1,8,0:0:0:0:
500,299,50291,2,0,P|426:324|386:314,1,100.499990453911,8|8,0:0|0:0,0:0:0:0:
342,253,50819,2,0,P|314:220|259:211,1,82.9999972454071,8|0,0:0|0:0,0:0:0:0:
271,287,51242,6,0,L|330:380,1,110.666662993876,2|0,0:0|0:0,0:0:0:0:
432,374,51664,6,0,P|449:310|373:247,1,165.999994490814
342,253,52228,2,0,L|361:135,1,110.666662993876,8|8,0:0|0:0,0:0:0:0:
452,36,52932,5,0,0:0:0:0:
310,47,53354,2,0,P|290:110|192:123,1,165.999994490814
173,98,53918,2,0,L|125:210,1,110.666662993876,8|8,0:0|0:0,0:0:0:0:
172,321,54622,6,0,B|220:308|220:308|237:256,1,100.499990453911
246,229,55044,2,0,B|289:190|289:190|340:204,1,112.499998927116
373,215,55467,2,0,B|430:200|430:200|450:138,1,124.499995868111
458,105,55889,2,0,B|407:54|407:54|331:70,1,149.999992847443
301,79,56312,5,8,0:0:0:0:
183,39,56523,1,8,0:0:0:0:
143,157,56735,2,0,L|163:209,2,49.9999976158143,8|8|8,0:0|0:0|0:0,0:0:0:0:
108,126,57051,2,0,P|61:94|6:101,2,99.9999952316285,8|8|8,0:0|0:0|0:0,0:0:0:0:
100,172,57580,1,8,0:0:0:0:
256,192,58002,12,2,60960,0:0:0:0:
256,192,61382,5,2,0:0:0:0:
247,93,61594,6,0,P|163:157|177:252,1,199.999990463257,8|0,0:0|0:0,0:0:0:0:
260,283,62228,1,0,0:0:0:0:
345,232,62439,2,0,P|353:183|331:130,1,99.9999952316285,8|0,0:0|0:0,0:0:0:0:
319,118,62791,2,0,B|343:57|343:57|412:54,1,133.333326975505
443,159,63284,6,0,B|416:239|416:239|470:305,1,166.666658719381,8|0,0:0|0:0,0:0:0:0:
365,348,63918,2,0,P|301:350|262:326,1,99.9999952316285
247,312,64287,1,0,0:0:0:0:
337,227,64551,1,8,0:0:0:0:
125,280,64974,6,0,B|166:208|166:208|100:147,1,166.666658719381,8|0,0:0|0:0,0:0:0:0:
119,54,65608,2,0,L|274:194,1,199.999990463257,8|0,0:0|0:0,0:0:0:0:
290,291,66242,2,0,B|264:313|264:313|225:322,1,66.6666634877523
214,323,66453,6,0,P|165:228|73:235,1,199.999990463257
55,251,67016,2,0,L|110:292,2,66.6666634877523
144,144,67509,6,0,P|103:36|67:146,1,299.999985694885,2|0,0:0|0:0,0:0:0:0:
196,281,68354,6,0,L|384:190,1,199.999990463257,8|0,0:0|0:0,0:0:0:0:
342,91,68988,2,0,B|283:60|283:60|211:91,1,133.333326975505,8|0,0:0|0:0,0:0:0:0:
199,99,69411,1,0,0:0:0:0:
104,147,69622,1,8,0:0:0:0:
193,204,69833,1,0,0:0:0:0:
98,252,70044,6,0,B|108:336|108:336|187:355,1,166.666658719381,8|0,0:0|0:0,0:0:0:0:
293,320,70678,2,0,L|368:242,1,99.9999952316285,8|0,0:0|0:0,0:0:0:0:
383,237,70995,1,0,0:0:0:0:
400,227,71101,2,0,P|404:164|385:129,1,99.9999952316285,8|2,0:0|0:0,0:0:0:0:
308,185,71523,5,0,0:0:0:0:
226,251,71735,2,0,B|194:174|194:174|224:96,1,166.666658719381,8|0,0:0|0:0,0:0:0:0:
321,86,72368,2,0,B|398:116|398:116|441:86|491:97,1,166.666658719381,8|0,0:0|0:0,0:0:0:0:
464,199,73002,1,0,0:0:0:0:
402,280,73213,6,0,B|383:310|383:310|353:335,5,66.6666634877523,8|8|8|8|8|8,0:0|0:0|0:0|0:0|0:0|0:0,0:0:0:0:
239,221,74270,6,0,P|307:127|314:243,1,299.999985694885,2|0,0:0|0:0,0:0:0:0:
190,310,75115,6,0,L|398:366,1,199.999990463257,8|0,0:0|0:0,0:0:0:0:
480,323,75749,1,0,0:0:0:0:
480,323,75854,1,0,0:0:0:0:
480,323,75960,2,0,L|499:209,1,99.9999952316285,8|0,0:0|0:0,0:0:0:0:
435,141,76382,1,8,0:0:0:0:
305,49,76805,6,0,B|295:132|295:132|223:173,1,166.666658719381,8|0,0:0|0:0,0:0:0:0:
85,134,77439,2,0,L|184:307,1,199.999990463257,8|0,0:0|0:0,0:0:0:0:
296,312,78073,1,8,0:0:0:0:
355,218,78284,1,0,0:0:0:0:
243,213,78495,6,0,B|202:141|202:141|248:68,1,166.666658719381,8|0,0:0|0:0,0:0:0:0:
396,94,79129,2,0,L|202:141,1,199.999990463257,8|0,0:0|0:0,0:0:0:0:
104,164,79763,2,0,P|107:219|118:239,1,66.6666634877523
121,245,79974,2,0,L|254:242,1,133.333326975505
428,214,80537,6,0,L|401:287,2,66.6666634877523
364,73,81030,2,0,P|263:129|377:150,1,299.999985694885,2|0,0:0|0:0,0:0:0:0:
193,180,81875,6,0,L|312:355,1,199.999990463257,8|0,0:0|0:0,0:0:0:0:
429,338,82509,1,0,0:0:0:0:
361,235,82720,2,0,P|344:188|352:139,1,99.9999952316285,8|0,0:0|0:0,0:0:0:0:
373,110,83073,2,0,B|349:49|349:49|280:46,1,133.333326975505
186,96,83566,6,0,B|251:151|251:151|233:242,1,166.666658719381,8|0,0:0|0:0,0:0:0:0:
70,337,84199,2,0,P|66:241|146:188,1,199.999990463257,8|0,0:0|0:0,0:0:0:0:
153,286,84833,1,8,0:0:0:0:
242,328,85044,1,0,0:0:0:0:
322,272,85256,2,0,B|337:189|337:189|277:131,1,166.666658719381,8|0,0:0|0:0,0:0:0:0:
233,230,85889,2,0,P|173:163|200:57,1,199.999990463257,8|0,0:0|0:0,0:0:0:0:
278,132,86523,1,0,0:0:0:0:
379,94,86735,6,0,B|377:62|377:62|364:29,5,66.6666634877523,8|8|8|8|8|8,0:0|0:0|0:0|0:0|0:0|0:0,0:0:0:0:
278,132,87791,6,0,P|196:214|188:108,1,266.666653951009,2|0,0:0|0:0,0:0:0:0:
191,100,88425,6,0,P|179:58|79:54,1,149.999998569489,2|0,0:0|0:0,0:0:0:0:
67,158,89235,2,0,L|140:289,1,149.999998569489,2|0,0:0|0:0,0:0:0:0:
283,259,90044,2,0,P|206:197|210:147,1,149.999998569489,2|0,0:0|0:0,0:0:0:0:
325,97,91101,6,0,P|321:134|304:167,1,74.9999992847443,8|8,0:0|0:0,0:0:0:0:
289,177,91382,1,8,0:0:0:0:
202,102,91805,6,0,P|160:114|137:211,1,149.999998569489,2|0,0:0|0:0,0:0:0:0:
287,261,92615,2,0,L|141:313,1,149.999998569489,2|0,0:0|0:0,0:0:0:0:
202,102,93495,6,0,B|226:105|226:105|257:121,5,49.9999995231629,8|8|8|8|8|8,0:0|0:0|0:0|0:0|0:0|0:0,0:0:0:0:
