osu file format v14

[General]
AudioFilename: audio.mp3
AudioLeadIn: 0
PreviewTime: 61594
Countdown: 0
SampleSet: None
StackLeniency: 0.5
Mode: 0
LetterboxInBreaks: 0
WidescreenStoryboard: 0

[Editor]
Bookmarks: 2228,3918,10678,17439,24199,30960,44481,58002,61382,68354,73213,74904,81875,86735,88425,93495,94340
DistanceSpacing: 0.8
BeatDivisor: 4
GridSize: 8
TimelineZoom: 2

[Metadata]
Title:Deal with the devil
TitleUnicode:Deal with the devil
Artist:Tia
ArtistUnicode:Tia
Creator:DeviousPanda
Version:Easy
Source:賭ケグルイ
Tags:Kakegurui Anime OP
BeatmapID:1361440
BeatmapSetID:638443

[Difficulty]
HPDrainRate:2
CircleSize:2.7
OverallDifficulty:3
ApproachRate:3.5
SliderMultiplier:1.49999990463257
SliderTickRate:1

[Events]
//Background and Video events
0,0,"Kakegurui BG.png",0,0
//Break Periods
//Storyboard Layer 0 (Background)
//Storyboard Layer 1 (Fail)
//Storyboard Layer 2 (Pass)
//Storyboard Layer 3 (Foreground)
//Storyboard Sound Samples

[TimingPoints]
2228,422.535211267606,4,3,0,70,1,0
2228,-133.333333333333,4,3,0,70,0,0
3918,-133.333333333333,4,3,0,70,0,0
61382,-133.333333333333,4,3,0,85,0,1
73213,-133.333333333333,4,3,0,85,0,0
74904,-133.333333333333,4,3,0,85,0,1
86735,-133.333333333333,4,3,0,85,0,0
88425,-133.333333333333,4,3,0,70,0,0
93495,-133.333333333333,4,3,0,85,0,1
94340,-133.333333333333,4,3,0,70,0,0

[Colours]
Combo1 : 242,57,75
Combo2 : 77,77,77
Combo3 : 255,149,202
Combo4 : 128,0,128

[HitObjects]
255,284,3918,6,0,P|175:300|64:287,2,168.749995708466,4|4|8,0:0|0:0|0:0,0:0:0:0:
325,227,5608,2,0,B|328:44,2,168.749995708466,4|4|8,0:0|0:0|0:0,0:0:0:0:
340,315,7298,1,8,0:0:0:0:
99,73,8988,5,8,0:0:0:0:
99,73,10678,6,0,P|199:58|280:66,2,168.749995708466,4|4|8,0:0|0:0|0:0,0:0:0:0:
40,141,12368,1,4,0:0:0:0:
41,231,12791,1,4,0:0:0:0:
98,299,13213,2,0,B|152:292|152:292|208:307|208:307|259:271|259:271|325:259,1,224.999994277954,4|8,0:0|0:0,0:0:0:0:
392,224,14481,6,0,B|407:178|397:142|397:142|383:98|398:33,2,168.749995708466,4|4|8,0:0|0:0|0:0,0:0:0:0:
333,292,16171,1,8,0:0:0:0:
301,207,16593,1,8,0:0:0:0:
392,224,17016,1,12,0:0:0:0:
376,135,17439,6,0,B|306:124|306:124|217:135|217:135|136:121,1,224.999994277954,4|8,0:0|0:0,0:0:0:0:
54,274,19129,2,0,P|159:312|275:269,1,224.999994277954,4|8,0:0|0:0,0:0:0:0:
177,120,20819,2,0,L|-7:122,4,168.749995708466,4|4|4|4|8,0:0|0:0|0:0|0:0|0:0,0:0:0:0:
350,71,24199,6,0,B|393:172|393:172|398:310,1,224.999994277954,4|8,0:0|0:0,0:0:0:0:
223,336,25889,2,0,P|118:351|6:275,1,224.999994277954,4|8,0:0|0:0,0:0:0:0:
150,171,27580,6,0,B|234:162|234:162|327:173,2,168.749995708466,4|4|8,0:0|0:0|0:0,0:0:0:0:
108,251,29270,2,0,P|187:285|331:265,1,224.999994277954
412,113,30960,6,0,B|415:234|415:234|385:345,3,224.999994277954,4|4|4|8,0:0|0:0|0:0|0:0,0:0:0:0:
303,365,33918,1,4,0:0:0:0:
247,294,34340,2,0,P|305:276|389:339,2,168.749995708466,4|4|8,0:0|0:0|0:0,0:0:0:0:
301,365,36030,2,0,B|254:401|196:369|196:369|155:352|77:380,2,224.999994277954,4|4|8,0:0|0:0|0:0,0:0:0:0:
182,232,38566,6,0,B|301:212|301:212|415:226,1,224.999994277954,4|4,0:0|0:0,0:0:0:0:
475,280,39833,1,4,0:0:0:0:
411,344,40256,2,0,P|334:370|177:320,1,224.999994277954,4|8,0:0|0:0,0:0:0:0:
233,206,41735,2,0,B|322:187|322:187|421:199,1,168.749995708466,4|8,0:0|0:0,0:0:0:0:
256,192,42791,12,4,44481,0:0:0:0:
392,68,45326,6,0,L|158:78,1,224.999994277954,4|4,0:0|0:0,0:0:0:0:
114,150,46594,2,0,P|205:190|340:151,1,224.999994277954,4|4,0:0|0:0,0:0:0:0:
348,76,47861,1,4,0:0:0:0:
261,100,48284,1,4,0:0:0:0:
322,161,48706,2,0,L|451:167,2,112.499997138977,4|4|4,0:0|0:0|0:0,0:0:0:0:
233,172,49974,1,4,0:0:0:0:
157,126,50397,2,0,P|231:81|323:163,1,224.999994277954,4|4,0:0|0:0,0:0:0:0:
181,273,52087,6,0,B|299:299|299:299|412:272,1,224.999994277954,4|4,0:0|0:0,0:0:0:0:
354,100,53777,2,0,P|293:177|303:305,1,224.999994277954,4|4,0:0|0:0,0:0:0:0:
442,188,55467,2,0,P|466:95|399:-17,1,224.999994277954,4|4,0:0|0:0,0:0:0:0:
243,65,57157,5,4,0:0:0:0:
256,192,58002,12,4,59692,0:0:0:0:
70,82,61382,6,0,L|307:91,1,224.999994277954,4|4,0:0|0:0,0:0:0:0:
357,155,62650,2,0,P|375:237|279:350,1,224.999994277954,4|4,0:0|0:0,0:0:0:0:
208,323,63918,2,0,B|125:308|125:308|26:306,2,168.749995708466,4|4|4,0:0|0:0|0:0,0:0:0:0:
263,252,65608,1,4,0:0:0:0:
238,165,66030,1,4,0:0:0:0:
152,135,66453,2,0,L|25:140,1,112.499997138977,4|4,0:0|0:0,0:0:0:0:
4,222,67298,2,0,P|59:290|190:271,1,224.999994277954,4|8,0:0|0:0,0:0:0:0:
236,201,68566,6,4,P|299:188|386:200,1,112.499997138977
425,234,69411,2,4,L|425:356,1,112.499997138977
338,370,70256,2,4,P|264:383|143:357,2,168.749995708466
329,280,71946,1,4,0:0:0:0:
413,248,72368,1,4,0:0:0:0:
461,172,72791,1,4,0:0:0:0:
381,130,73213,6,0,B|301:112|301:112|242:109|242:109|134:84,1,224.999994277954,4|4,0:0|0:0,0:0:0:0:
67,100,74481,1,4,0:0:0:0:
9,169,74904,6,0,P|16:292|80:388,1,224.999994277954,4|4,0:0|0:0,0:0:0:0:
154,350,76172,2,0,B|264:333|264:333|387:349,1,224.999994277954,4|4,0:0|0:0,0:0:0:0:
448,293,77440,2,0,B|455:216|455:216|445:125,2,168.749995708466,4|4|4,0:0|0:0|0:0,0:0:0:0:
359,276,79130,1,4,0:0:0:0:
321,194,79552,1,4,0:0:0:0:
340,105,79975,2,0,P|399:93|467:110,1,112.499997138977,4|4,0:0|0:0,0:0:0:0:
507,171,80820,2,0,P|442:211|292:176,1,224.999994277954,4|8,0:0|0:0,0:0:0:0:
219,142,82088,6,4,L|68:157,1,112.499997138977
76,237,82933,2,4,L|203:258,1,112.499997138977
270,220,83778,2,4,B|282:137|282:137|258:23,2,168.749995708466
190,176,85468,1,4,0:0:0:0:
267,130,85890,1,4,0:0:0:0:
270,220,86313,1,4,0:0:0:0:
200,277,86735,6,0,B|28:260|28:260|85:224,1,224.999994277954,4|4,0:0|0:0,0:0:0:0:
130,163,88003,1,4,0:0:0:0:
41,148,88425,1,4,0:0:0:0:
72,232,88847,6,0,P|147:252|291:194,2,224.999994277954,4|4|4,0:0|0:0|0:0,0:0:0:0:
40,147,90960,2,0,L|59:28,2,112.499997138977,4|4|4,0:0|0:0|0:0,0:0:0:0:
219,140,92650,6,0,B|291:132|291:132|372:142|372:142|456:135,1,224.999994277954,4|12,0:0|0:0,0:0:0:0:
363,263,94199,1,8,0:0:0:0:
