osu file format v14

[General]
AudioFilename: audio.mp3
AudioLeadIn: 0
PreviewTime: 61594
Countdown: 0
SampleSet: None
StackLeniency: 0.5
Mode: 0
LetterboxInBreaks: 0
WidescreenStoryboard: 0

[Editor]
Bookmarks: 2228,3918,10678,17439,24199,30960,44481,58002,61382,68354,68566,73213,74904,81875,86735,88425,93495,94340
DistanceSpacing: 1.5
BeatDivisor: 4
GridSize: 8
TimelineZoom: 2.5

[Metadata]
Title:Deal with the devil
TitleUnicode:Deal with the devil
Artist:Tia
ArtistUnicode:Tia
Creator:DeviousPanda
Version:Addiction
Source:賭ケグルイ
Tags:Kakegurui Anime OP TV Size Compulsive Gambler diuS MaridiuS Hayu Hayuza
BeatmapID:1354363
BeatmapSetID:638443

[Difficulty]
HPDrainRate:5
CircleSize:4
OverallDifficulty:8
ApproachRate:9.4
SliderMultiplier:3.49999990463257
SliderTickRate:1

[Events]
//Background and Video events
0,0,"Kakegurui BG.png",0,0
//Break Periods
//Storyboard Layer 0 (Background)
//Storyboard Layer 1 (Fail)
//Storyboard Layer 2 (Pass)
//Storyboard Layer 3 (Foreground)
//Storyboard Sound Samples

[TimingPoints]
2228,422.535211267606,4,3,0,70,1,0
2228,-133.333333333333,4,3,0,70,0,0
3918,-100,4,3,0,70,0,0
15749,-83.3333333333333,4,3,0,70,0,0
16171,-111.111111111111,4,3,0,70,0,0
17439,-200,4,3,0,70,0,0
17756,-200,4,3,0,5,0,0
17861,-200,4,3,0,70,0,0
18178,-200,4,3,0,5,0,0
18284,-200,4,3,0,70,0,0
18601,-200,4,3,0,5,0,0
18706,-200,4,3,0,70,0,0
19023,-200,4,3,0,5,0,0
19129,-200,4,3,0,70,0,0
19446,-200,4,3,0,5,0,0
19551,-200,4,3,0,70,0,0
19868,-200,4,3,0,5,0,0
19974,-200,4,3,0,70,0,0
22404,-200,4,3,0,5,0,0
22509,-200,4,3,0,70,0,0
23037,-200,4,3,0,5,0,0
23143,-200,4,3,0,70,0,0
24094,-200,4,3,0,5,0,0
24199,-200,4,3,0,70,0,0
30115,-133.333333333333,4,3,0,70,0,0
30326,-100,4,3,0,70,0,0
30537,-80,4,3,0,70,0,0
30749,-100,4,3,0,70,0,0
34763,-125,4,3,0,70,0,0
34974,-100,4,3,0,70,0,0
35397,-125,4,3,0,70,0,0
35608,-100,4,3,0,70,0,0
36030,-125,4,3,0,70,0,0
36242,-100,4,3,0,70,0,0
42791,-80,4,3,0,70,0,0
44481,-133.333333333333,4,3,0,70,0,0
49551,-100,4,3,0,70,0,0
50397,-133.333333333333,4,3,0,70,0,0
51242,-100,4,3,0,70,0,0
51664,-133.333333333333,4,3,0,70,0,0
55044,-114.285714285714,4,3,0,70,0,0
55467,-100,4,3,0,70,0,0
61382,-100,4,3,0,85,0,1
61594,-80,4,3,0,100,0,1
61699,-80,4,3,0,85,0,1
68354,-80,4,3,0,100,0,1
68460,-80,4,3,0,85,0,1
73213,-100,4,3,0,85,0,0
74904,-80,4,3,0,85,0,1
75115,-80,4,3,0,100,0,1
75220,-80,4,3,0,85,0,1
81875,-80,4,3,0,100,0,1
81981,-80,4,3,0,85,0,1
86735,-100,4,3,0,85,0,0
88425,-100,4,3,0,70,0,0
93495,-80,4,3,0,100,0,1
94340,-100,4,3,0,70,0,0

[Colours]
Combo1 : 242,57,75
Combo2 : 77,77,77
Combo3 : 255,149,202
Combo4 : 128,0,128

[HitObjects]
97,83,2228,6,0,L|206:84,1,87.5000009536744,8|8,0:0|0:0,0:0:0:0:
358,75,2509,1,8,0:0:0:0:
240,293,2650,6,0,L|244:187,1,87.5000009536744,8|8,0:0|0:0,0:0:0:0:
252,15,2931,1,8,0:0:0:0:
447,199,3073,6,0,P|402:215|358:213,1,87.5000009536744,8|8,0:0|0:0,0:0:0:0:
128,164,3354,1,8,0:0:0:0:
358,75,3495,6,0,B|363:213|363:213|331:153,1,196.875002145767,14|0,0:0|0:0,0:0:0:0:
128,164,3918,5,4,0:0:0:0:
65,202,4023,1,4,0:0:0:0:
64,276,4129,1,4,0:0:0:0:
126,318,4235,1,4,0:0:0:0:
199,290,4340,6,0,L|312:297,1,87.4999976158143,8|0,0:0|0:0,0:0:0:0:
192,49,4551,5,4,0:0:0:0:
238,114,4657,1,4,0:0:0:0:
227,191,4763,1,4,0:0:0:0:
170,243,4868,1,4,0:0:0:0:
92,255,4974,6,0,B|48:251|48:251|4:257,1,87.4999976158143,8|0,0:0|0:0,0:0:0:0:
317,125,5185,2,0,B|363:130|363:130|404:127,1,87.4999976158143,8|0,0:0|0:0,0:0:0:0:
117,57,5397,5,8,0:0:0:0:
281,309,5608,5,4,0:0:0:0:
231,249,5713,1,4,0:0:0:0:
229,169,5819,1,4,0:0:0:0:
265,98,5925,1,4,0:0:0:0:
333,47,6030,6,0,L|440:60,1,87.4999976158143,8|0,0:0|0:0,0:0:0:0:
274,187,6242,5,4,0:0:0:0:
317,254,6347,1,4,0:0:0:0:
389,223,6453,1,4,0:0:0:0:
387,145,6558,1,4,0:0:0:0:
312,112,6664,6,0,L|225:104,1,87.4999976158143,8|0,0:0|0:0,0:0:0:0:
68,314,6875,5,4,0:0:0:0:
57,234,6981,2,0,B|65:79|65:79|94:157,1,218.749994039536,8|0,0:0|0:0,0:0:0:0:
151,216,7298,6,0,P|264:231|291:223,1,116.666663487752,4|4,0:0|0:0,0:0:0:0:
419,21,7650,5,8,0:0:0:0:
419,282,7861,5,8,0:0:0:0:
265,71,8072,5,8,0:0:0:0:
512,151,8284,5,8,0:0:0:0:
265,231,8495,5,8,0:0:0:0:
189,226,8566,2,4,P|93:198|61:160,1,116.666663487752,4|0,0:0|0:0,0:0:0:0:
265,231,8777,2,4,P|288:326|272:373,1,116.666663487752,4|0,0:0|0:0,0:0:0:0:
229,157,8988,1,14,0:0:0:0:
184,87,10678,6,0,P|272:60|356:70,1,174.999995231629,8|0,2:0|0:0,0:0:0:0:
434,137,10995,1,4,0:0:0:0:
445,159,11101,2,0,P|450:197|445:249,1,87.4999976158143,4|0,0:0|0:0,0:0:0:0:
196,233,11312,5,4,0:0:0:0:
214,250,11418,2,0,B|259:257|259:257|309:253,1,87.4999976158143,4|0,0:0|0:0,0:0:0:0:
122,188,11629,2,0,P|91:289|114:378,1,174.999995231629,4|0,0:0|0:0,0:0:0:0:
185,109,11946,6,0,P|139:95|96:99,1,87.4999976158143,4|0,0:0|0:0,0:0:0:0:
300,253,12157,2,0,P|318:207|317:157,1,87.4999976158143,4|0,0:0|0:0,0:0:0:0:
122,188,12368,2,0,B|79:203|79:203|294:213,1,174.999995231629,8|0,2:0|0:0,0:0:0:0:
264,0,12685,5,4,0:0:0:0:
275,22,12791,2,0,P|279:64|277:114,1,87.4999976158143,4|0,0:0|0:0,0:0:0:0:
222,324,13002,5,4,0:0:0:0:
211,297,13108,2,0,P|207:249|209:205,1,87.4999976158143,4|0,0:0|0:0,0:0:0:0:
497,123,13319,5,4,0:0:0:0:
447,185,13425,1,4,0:0:0:0:
371,211,13530,1,4,0:0:0:0:
295,219,13636,2,0,P|248:219|200:206,1,87.4999976158143,4|0,0:0|0:0,0:0:0:0:
289,66,13847,2,0,P|312:106|325:154,1,87.4999976158143,4|0,0:0|0:0,0:0:0:0:
116,199,14058,6,0,B|133:72|133:72|152:122,1,174.999995231629,8|0,2:0|0:0,0:0:0:0:
165,341,14375,1,4,0:0:0:0:
141,348,14481,2,0,B|103:348|103:348|45:335,1,87.4999976158143,4|0,0:0|0:0,0:0:0:0:
259,120,14692,5,4,0:0:0:0:
268,143,14798,2,0,B|272:189|272:189|264:247,1,87.4999976158143,4|0,0:0|0:0,0:0:0:0:
169,90,15009,2,0,P|262:24|350:83,1,174.999995231629,4|0,0:0|0:0,0:0:0:0:
387,192,15326,6,0,L|375:279,1,87.4999976158143,4|0,0:0|0:0,0:0:0:0:
324,125,15537,2,0,L|311:33,1,87.4999976158143,4|0,0:0|0:0,0:0:0:0:
426,19,15749,6,0,L|536:32,1,104.999993934632,8|0,2:0|0:0,0:0:0:0:
169,90,15960,2,0,L|64:104,1,104.999993934632,4|0,0:0|0:0,0:0:0:0:
324,125,16171,5,8,0:0:0:0:
277,209,16277,1,8,0:0:0:0:
243,55,16382,1,8,0:0:0:0:
440,109,16488,1,8,0:0:0:0:
116,184,16699,5,8,0:0:0:0:
415,215,16911,5,8,0:0:0:0:
376,280,17016,2,0,B|335:331|335:331|344:112,1,236.249986352921,8|0,0:0|0:0,0:0:0:0:
266,93,17439,6,0,L|130:98,1,131.249996423721,8|0,2:0|0:0,0:0:0:0:
64,165,17861,2,0,P|56:235|88:314,1,131.249996423721,2|0,0:0|0:0,0:0:0:0:
166,332,18284,2,0,L|324:324,1,131.249996423721,2|0,0:0|0:0,0:0:0:0:
509,313,18706,2,0,L|351:305,1,131.249996423721,2|0,0:0|0:0,0:0:0:0:
299,243,19129,6,0,P|276:185|296:88,1,131.249996423721,8|0,2:0|0:0,0:0:0:0:
351,2,19551,2,0,P|374:60|354:157,1,131.249996423721,2|0,0:0|0:0,0:0:0:0:
265,33,19974,6,0,B|210:58|200:120|200:120|202:157|176:189|176:189|177:149|148:114,1,262.499992847443,2|0,0:0|0:0,0:0:0:0:
83,217,20819,6,0,P|116:265|238:270,1,174.999995231629,10|0,2:0|0:0,0:0:0:0:
301,105,21453,2,0,P|242:102|182:218,1,174.999995231629,2|0,0:0|0:0,0:0:0:0:
319,205,22087,6,0,B|388:206|388:206|473:188,1,131.249996423721,2|0,0:0|0:0,0:0:0:0:
467,179,22509,1,10,2:0:0:0:
228,127,22720,2,0,P|209:191|220:257,1,131.249996423721,2|0,0:0|0:0,0:0:0:0:
238,276,23143,6,0,L|300:280,1,43.7499988079071,4|0,0:0|0:0,0:0:0:0:
371,261,23354,1,8,0:0:0:0:
384,244,23460,2,0,P|388:194|374:136,1,87.4999976158143,4|0,0:0|0:0,0:0:0:0:
181,154,23777,2,0,P|247:193|310:193,1,131.249996423721,8|0,0:0|0:0,0:0:0:0:
418,145,24199,6,0,L|420:39,1,87.4999976158143,10|0,2:0|0:0,0:0:0:0:
301,195,24622,2,0,L|303:301,1,87.4999976158143,2|0,0:0|0:0,0:0:0:0:
180,115,25044,6,0,L|279:109,1,87.4999976158143,2|0,0:0|0:0,0:0:0:0:
512,229,25467,2,0,L|413:223,1,87.4999976158143,2|0,0:0|0:0,0:0:0:0:
384,27,25889,6,0,P|404:81|404:127,1,87.4999976158143,10|0,2:0|0:0,0:0:0:0:
273,289,26312,2,0,P|253:235|253:189,1,87.4999976158143,2|0,0:0|0:0,0:0:0:0:
504,131,26735,6,0,P|460:195|304:111,1,262.499992847443,2|0,0:0|0:0,0:0:0:0:
62,51,27580,6,0,B|123:38|123:38|197:38,1,131.249996423721,10|0,2:0|0:0,0:0:0:0:
213,47,28002,1,2,0:0:0:0:
395,143,28213,6,0,P|328:148|277:126,1,87.4999976158143,2|0,0:0|0:0,0:0:0:0:
267,153,28530,1,0,0:0:0:0:
267,153,28636,2,0,P|288:146|318:143,1,43.7499988079071
276,239,28847,6,0,P|208:218|192:128,1,131.249996423721,8|0,0:0|0:0,0:0:0:0:
191,140,29270,1,8,2:0:0:0:
400,64,29481,6,0,B|271:51|271:51|320:77,1,174.999995231629,4|0,0:0|0:0,0:0:0:0:
449,137,30009,1,4,0:0:0:0:
455,162,30115,2,0,P|450:191|421:224,1,65.6250007152558,4|0,0:0|0:0,0:0:0:0:
276,153,30326,6,0,P|318:140|368:158,1,87.4999976158143,4|0,0:0|0:0,0:0:0:0:
348,330,30537,6,0,P|320:291|320:225,1,109.374997019768,4|0,0:0|0:0,0:0:0:0:
454,73,30749,6,0,L|310:81,1,87.4999976158143,4|0,0:0|0:0,0:0:0:0:
197,191,30960,6,0,B|202:61|202:61|228:99,1,174.999995231629,10|0,2:0|0:0,0:0:0:0:
231,284,31277,1,4,0:0:0:0:
213,290,31382,2,0,P|168:291|121:282,1,87.4999976158143,4|0,0:0|0:0,0:0:0:0:
103,75,31594,5,4,0:0:0:0:
121,82,31699,1,4,0:0:0:0:
133,97,31805,2,0,P|138:147|123:197,1,87.4999976158143,8|0,2:0|0:0,0:0:0:0:
76,353,32016,2,0,P|71:303|86:253,1,87.4999976158143,4|0,0:0|0:0,0:0:0:0:
302,302,32228,5,4,0:0:0:0:
286,313,32333,1,4,0:0:0:0:
267,318,32439,2,0,P|227:322|168:306,1,87.4999976158143,4|0,0:0|0:0,0:0:0:0:
226,192,32650,6,0,L|218:78,1,87.4999976158143,10|0,2:0|0:0,0:0:0:0:
308,214,32861,2,0,L|302:302,1,87.4999976158143,4|0,0:0|0:0,0:0:0:0:
139,196,33073,6,0,P|185:187|251:201,1,87.4999976158143,4|0,0:0|0:0,0:0:0:0:
388,297,33284,2,0,P|342:306|276:292,1,87.4999976158143,4|0,0:0|0:0,0:0:0:0:
369,74,33495,5,8,2:0:0:0:
373,93,33601,1,4,0:0:0:0:
372,112,33706,2,0,P|363:148|330:191,1,87.4999976158143,4|0,0:0|0:0,0:0:0:0:
182,95,33918,2,0,P|217:84|271:91,1,87.4999976158143,4|0,0:0|0:0,0:0:0:0:
202,168,34129,6,0,B|189:252|189:252|168:202,1,116.666663487752,4|0,0:0|0:0,0:0:0:0:
152,198,34340,6,0,P|50:196|85:328,1,262.499992847443,10|0,2:0|0:0,0:0:0:0:
145,332,34763,2,0,L|230:336,1,69.9999980926514,2|0,0:0|0:0,0:0:0:0:
276,96,34974,6,0,P|378:94|343:226,1,262.499992847443,2|0,2:0|0:0,0:0:0:0:
283,230,35397,2,0,L|194:233,1,69.9999980926514,2|0,0:0|0:0,0:0:0:0:
114,53,35608,6,0,B|147:119|110:189|110:189|85:244|126:319,1,262.499992847443,2|0,2:0|0:0,0:0:0:0:
194,323,36030,2,0,L|302:326,1,69.9999980926514,10|0,2:0|0:0,0:0:0:0:
362,163,36242,5,4,0:0:0:0:
374,178,36347,1,4,0:0:0:0:
380,196,36453,2,0,P|377:230|338:291,1,87.4999976158143,4|0,0:0|0:0,0:0:0:0:
193,175,36664,2,0,P|223:160|296:163,1,87.4999976158143,4|0,0:0|0:0,0:0:0:0:
439,283,36875,2,0,L|317:274,1,87.4999976158143,8|0,2:0|0:0,0:0:0:0:
193,175,37087,6,0,P|171:244|171:305,1,87.4999976158143,4|0,0:0|0:0,0:0:0:0:
203,323,37298,2,0,B|369:344|369:344|258:288,1,262.499992847443,4|0,0:0|0:0,0:0:0:0:
275,221,37720,6,0,B|268:101|268:101|286:40,1,174.999995231629,10|0,2:0|0:0,0:0:0:0:
453,121,38037,1,4,0:0:0:0:
436,130,38143,2,0,P|387:129|337:114,1,87.4999976158143,4|0,0:0|0:0,0:0:0:0:
171,147,38354,5,4,0:0:0:0:
171,128,38460,1,4,0:0:0:0:
177,110,38566,2,0,P|188:73|231:23,1,87.4999976158143,8|0,2:0|0:0,0:0:0:0:
240,229,38777,2,0,P|226:270|200:304,1,87.4999976158143,4|0,0:0|0:0,0:0:0:0:
38,127,38988,5,4,0:0:0:0:
55,118,39094,1,4,0:0:0:0:
74,116,39199,2,0,P|116:115|168:130,1,87.4999976158143,4|0,0:0|0:0,0:0:0:0:
80,336,39411,6,0,P|71:286|105:210,1,116.666663487752,10|0,2:0|0:0,0:0:0:0:
113,207,39622,2,0,P|155:197|197:207,1,87.4999976158143,4|0,0:0|0:0,0:0:0:0:
338,158,39833,6,0,P|347:208|313:284,1,116.666663487752,4|0,0:0|0:0,0:0:0:0:
305,287,40044,2,0,P|262:296|220:286,1,87.4999976158143,4|0,0:0|0:0,0:0:0:0:
34,136,40256,6,0,L|135:130,1,87.4999976158143,8|0,2:0|0:0,0:0:0:0:
329,91,40467,2,0,L|228:85,1,87.4999976158143,4|0,0:0|0:0,0:0:0:0:
221,287,40678,5,4,0:0:0:0:
214,269,40784,1,4,0:0:0:0:
210,250,40889,2,0,P|205:211|214:160,1,87.4999976158143,4|0,0:0|0:0,0:0:0:0:
435,165,41101,6,0,B|474:189|530:203|530:203|390:186|272:213,1,349.999990463257,10|0,2:0|0:0,0:0:0:0:
84,86,41735,6,0,B|45:110|-11:124|-11:124|129:107|236:133,1,349.999990463257,2|0,2:0|0:0,0:0:0:0:
326,109,42368,6,0,L|337:15,1,87.4999976158143,4|0,0:0|0:0,0:0:0:0:
210,250,42580,2,0,L|220:336,1,87.4999976158143,4|0,0:0|0:0,0:0:0:0:
182,116,42791,6,0,L|45:122,1,109.374997019768,10|0,2:0|0:0,0:0:0:0:
333,210,43002,2,0,L|442:214,1,109.374997019768,4|0,0:0|0:0,0:0:0:0:
269,136,43213,5,8,0:0:0:0:
244,216,43319,1,8,0:0:0:0:
376,112,43424,1,8,0:0:0:0:
168,56,43530,1,8,0:0:0:0:
184,318,43742,5,8,0:0:0:0:
429,190,43953,5,8,0:0:0:0:
357,156,44058,2,0,B|272:129|193:165|193:165|115:192|34:160,1,328.124991059303,8|0,0:0|0:0,0:0:0:0:
63,93,44481,6,0,P|123:105|207:75,1,131.250001430512,10|0,2:0|0:0,0:0:0:0:
0,17,44904,6,0,B|-13:87|-13:87|5:232,1,196.875002145767,4|0,0:0|0:0,0:0:0:0:
29,229,45326,2,0,P|123:246|236:202,1,196.875002145767,4|0,0:0|0:0,0:0:0:0:
230,198,45749,1,4,0:0:0:0:
111,30,45960,2,0,B|109:81|109:81|119:109|119:109|119:160,1,131.250001430512,4|0,0:0|0:0,0:0:0:0:
205,302,46382,6,0,L|377:291,1,131.250001430512,4|0,0:0|0:0,0:0:0:0:
224,110,46805,1,4,0:0:0:0:
150,190,47016,2,0,P|225:216|331:135,2,196.875002145767,4|4|4,0:0|0:0|0:0,0:0:0:0:
91,16,47861,1,4,0:0:0:0:
91,16,48073,6,0,L|84:164,1,131.250001430512,4|0,0:0|0:0,0:0:0:0:
205,64,48495,1,4,0:0:0:0:
299,273,48706,6,0,P|213:270|148:232,1,131.250001430512,4|0,0:0|0:0,0:0:0:0:
205,64,49023,2,0,P|245:139|244:215,1,131.250001430512,4|0,0:0|0:0,0:0:0:0:
84,147,49340,5,4,0:0:0:0:
307,83,49551,6,0,L|432:87,1,87.4999976158143,10|0,2:0|0:0,0:0:0:0:
205,64,49763,2,0,L|80:68,1,87.4999976158143,4|0,0:0|0:0,0:0:0:0:
241,305,49974,2,0,B|251:240|251:240|239:199|239:199|249:114,1,174.999995231629,4|0,0:0|0:0,0:0:0:0:
317,322,50291,1,4,0:0:0:0:
304,344,50397,2,0,P|232:380|167:296,2,196.875002145767,4|4|4,0:0|0:0|0:0,0:0:0:0:
359,259,51242,6,0,B|351:173|368:61|368:61|354:101|312:130,1,262.499992847443,10|0,2:0|0:0,0:0:0:0:
269,156,51664,6,0,P|202:163|118:150,1,131.250001430512,4|0,0:0|0:0,0:0:0:0:
68,24,52087,1,4,0:0:0:0:
58,47,52192,2,0,P|47:116|56:183,1,131.250001430512,4|0,0:0|0:0,0:0:0:0:
110,223,52509,2,0,B|179:218|179:218|251:223,1,131.250001430512,4|0,0:0|0:0,0:0:0:0:
176,98,52932,5,4,0:0:0:0:
309,287,53143,2,0,P|330:230|301:149,1,131.250001430512,4|0,0:0|0:0,0:0:0:0:
110,223,53460,2,0,P|150:268|233:285,1,131.250001430512,4|0,0:0|0:0,0:0:0:0:
176,98,53777,5,4,0:0:0:0:
0,288,53988,1,4,0:0:0:0:
48,96,54199,1,4,0:0:0:0:
110,223,54411,1,4,0:0:0:0:
246,185,54622,6,0,P|334:192|387:166,1,131.250001430512,10|0,2:0|0:0,0:0:0:0:
240,0,55044,6,0,P|199:68|183:142,1,153.124997287989,8|0,2:0|0:0,0:0:0:0:
447,126,55467,6,0,P|405:48|325:-4,1,174.999995231629,8|0,2:0|0:0,0:0:0:0:
303,165,55889,6,0,B|292:226|292:226|303:278|303:278|288:357,1,174.999995231629,8|0,2:0|0:0,0:0:0:0:
193,331,56312,6,0,B|103:318|103:318|26:267,1,174.999995231629,10|0,2:0|0:0,0:0:0:0:
133,123,56629,1,4,0:0:0:0:
146,139,56735,2,0,P|153:170|139:249,1,87.4999976158143,4|0,0:0|0:0,0:0:0:0:
50,47,56946,1,4,0:0:0:0:
64,38,57051,1,4,0:0:0:0:
83,33,57157,2,0,P|124:32|173:43,1,87.4999976158143,4|0,0:0|0:0,0:0:0:0:
273,177,57474,5,8,0:0:0:0:
319,116,57580,2,0,B|359:64|359:64|346:274,1,262.499992847443,10|0,2:0|0:0,0:0:0:0:
279,298,58002,6,0,P|178:298|98:258,1,174.999995231629,4|0,0:0|0:0,0:0:0:0:
186,74,58319,1,4,0:0:0:0:
204,86,58425,2,0,P|210:133|201:173,1,87.4999976158143,4|0,0:0|0:0,0:0:0:0:
24,155,58636,6,0,L|129:140,1,87.4999976158143,4|0,0:0|0:0,0:0:0:0:
353,66,58847,1,4,0:0:0:0:
326,49,58953,1,4,0:0:0:0:
293,44,59058,2,0,P|249:41|205:50,1,87.4999976158143,4|0,0:0|0:0,0:0:0:0:
201,171,59270,6,0,L|195:261,1,87.4999976158143,4|0,0:0|0:0,0:0:0:0:
358,153,59481,2,0,L|353:66,1,87.4999976158143,4|0,0:0|0:0,0:0:0:0:
179,32,59692,5,10,2:0:0:0:
117,70,59798,2,0,P|113:107|126:162,1,87.4999976158143,10|0,2:0|0:0,0:0:0:0:
282,90,60009,5,4,0:0:0:0:
204,103,60115,1,4,0:0:0:0:
251,163,60220,1,4,0:0:0:0:
290,87,60326,5,14,2:0:0:0:
188,105,60432,2,4,B|181:241|181:241|220:185,1,174.999995231629,14|4,2:0|0:0,0:0:0:0:
290,87,60749,2,0,P|335:82|389:93,1,87.4999976158143,4|0,0:0|0:0,0:0:0:0:
131,301,60960,6,4,P|252:323|311:216,1,262.499992847443,14|4,2:0|0:0,0:0:0:0:
116,217,61382,2,0,L|203:208,1,87.4999976158143,8|0,0:0|0:0,0:0:0:0:
400,122,61594,6,0,L|253:105,1,109.374997019768,10|0,0:0|0:0,0:0:0:0:
397,315,61805,1,4,0:0:0:0:
458,266,61911,2,0,P|470:216|475:140,1,109.374997019768,12|0,0:0|0:0,0:0:0:0:
203,208,62122,2,0,P|265:219|330:210,1,109.374997019768,8|0,0:0|0:0,0:0:0:0:
301,52,62333,5,4,0:0:0:0:
236,112,62439,1,4,0:0:0:0:
321,134,62544,1,4,0:0:0:0:
286,41,62650,6,0,P|233:30|160:49,1,109.374997019768,8|0,0:0|0:0,0:0:0:0:
196,323,62861,1,4,0:0:0:0:
240,262,62967,2,0,B|236:112|236:112|192:193,1,218.749994039536,8|0,0:0|0:0,0:0:0:0:
85,86,63284,5,4,0:0:0:0:
120,167,63389,1,4,0:0:0:0:
31,164,63495,1,4,0:0:0:0:
98,80,63601,6,0,B|157:77|157:77|265:95,1,109.374997019768,8|0,0:0|0:0,0:0:0:0:
229,274,63812,5,4,0:0:0:0:
286,221,63918,2,0,L|292:105,1,109.374997019768,8|0,0:0|0:0,0:0:0:0:
502,57,64129,5,4,0:0:0:0:
430,27,64235,2,0,P|375:24|322:38,1,109.374997019768,8|0,0:0|0:0,0:0:0:0:
398,291,64446,6,0,P|464:192|385:82,1,218.749994039536,12|0,0:0|0:0,0:0:0:0:
249,114,64763,2,0,L|359:122,1,109.374997019768,8|0,0:0|0:0,0:0:0:0:
246,219,64974,5,4,0:0:0:0:
183,291,65080,1,4,0:0:0:0:
153,201,65185,1,4,0:0:0:0:
258,213,65291,6,0,B|312:219|312:219|372:243,1,109.374997019768,8|0,0:0|0:0,0:0:0:0:
134,341,65502,5,4,0:0:0:0:
92,275,65608,2,0,B|88:221|88:221|92:140,1,109.374997019768,8|0,0:0|0:0,0:0:0:0:
370,111,65819,5,4,0:0:0:0:
307,157,65925,2,0,B|248:159|248:159|172:148,1,109.374997019768,8|0,0:0|0:0,0:0:0:0:
373,4,66136,2,0,P|380:38|363:127,1,109.374997019768,8|0,0:0|0:0,0:0:0:0:
214,270,66347,5,4,0:0:0:0:
144,237,66453,2,0,P|99:142|162:56,1,218.749994039536,12|0,0:0|0:0,0:0:0:0:
370,111,66770,5,12,0:0:0:0:
307,157,66875,2,0,L|191:151,1,109.374997019768,8|0,0:0|0:0,0:0:0:0:
57,77,67087,5,4,0:0:0:0:
1,136,67192,1,4,0:0:0:0:
0,29,67298,2,0,P|54:2|122:43,1,109.374997019768,8|0,0:0|0:0,0:0:0:0:
97,234,67509,6,0,B|74:257|55:314|55:314|67:166|56:62,1,328.124991059303,12|0,0:0|0:0,0:0:0:0:
244,85,67932,5,4,0:0:0:0:
167,112,68037,1,4,0:0:0:0:
218,178,68143,2,0,B|271:181|271:181|331:174,1,109.374997019768,8|0,0:0|0:0,0:0:0:0:
52,20,68354,6,0,L|38:142,1,109.374997019768,10|0,0:0|0:0,0:0:0:0:
177,284,68566,5,4,0:0:0:0:
138,217,68671,2,0,B|84:207|84:207|11:208,1,109.374997019768,8|0,0:0|0:0,0:0:0:0:
248,377,68882,6,0,P|267:323|260:258,1,109.374997019768,8|0,0:0|0:0,0:0:0:0:
171,109,69094,5,4,0:0:0:0:
135,186,69199,1,4,0:0:0:0:
223,184,69305,1,4,0:0:0:0:
158,111,69411,5,4,0:0:0:0:
140,198,69516,1,4,0:0:0:0:
230,172,69622,1,4,0:0:0:0:
145,119,69728,6,0,B|97:130|97:130|38:168,1,109.374997019768,8|0,0:0|0:0,0:0:0:0:
248,39,69939,5,4,0:0:0:0:
299,97,70044,2,0,P|312:163|283:237,1,109.374997019768,8|0,0:0|0:0,0:0:0:0:
54,219,70256,5,4,0:0:0:0:
120,179,70361,2,0,L|257:170,1,109.374997019768,8|0,0:0|0:0,0:0:0:0:
403,246,70573,6,0,P|291:299|189:225,1,218.749994039536,8|0,0:0|0:0,0:0:0:0:
299,97,70889,5,4,0:0:0:0:
302,189,70995,1,4,0:0:0:0:
220,148,71101,1,4,0:0:0:0:
308,103,71206,5,4,0:0:0:0:
306,199,71312,2,0,B|299:258|299:258|270:319,1,109.374997019768,8|0,0:0|0:0,0:0:0:0:
72,287,71523,6,0,B|46:266|-12:255|-12:255|135:248|237:225,1,328.124991059303,12|0,0:0|0:0,0:0:0:0:
303,305,71946,5,4,0:0:0:0:
350,244,72051,2,0,P|371:138|316:22,1,218.749994039536,8|0,0:0|0:0,0:0:0:0:
127,140,72368,6,0,B|287:154|287:154|230:120,1,218.749994039536,8|0,0:0|0:0,0:0:0:0:
6,50,72685,2,0,B|166:36|166:36|116:65,1,218.749994039536,8|0,0:0|0:0,0:0:0:0:
42,147,73002,2,0,L|46:312,1,145.83332935969,8|0,0:0|0:0,0:0:0:0:
114,318,73213,6,8,B|173:328|173:328|281:328,2,116.666663487752,8|8|8,0:0|0:0|0:0,2:0:0:0:
191,233,73636,2,8,B|190:176|190:176|172:114,2,116.666663487752
62,166,74058,6,0,P|57:106|68:40,1,116.666663487752,8|0,0:0|0:0,0:0:0:0:
87,28,74270,2,0,B|165:3|254:40|254:40|340:79|443:19,1,349.999990463257,14|0,0:0|0:0,0:0:0:0:
357,311,74904,6,0,L|351:185,1,109.374997019768,8|0,0:0|0:0,0:0:0:0:
173,118,75115,6,0,L|167:244,1,109.374997019768,10|0,0:0|0:0,0:0:0:0:
443,115,75326,1,4,0:0:0:0:
379,71,75432,2,0,P|320:69|231:90,1,109.374997019768,8|0,0:0|0:0,0:0:0:0:
357,311,75643,2,0,P|364:258|346:175,1,109.374997019768,8|0,0:0|0:0,0:0:0:0:
155,262,75854,5,4,0:0:0:0:
224,201,75960,1,4,0:0:0:0:
246,294,76066,1,4,0:0:0:0:
145,270,76171,6,0,B|92:262|92:262|31:235,1,109.374997019768,8|0,0:0|0:0,0:0:0:0:
105,10,76382,1,4,0:0:0:0:
139,80,76488,2,0,B|144:135|144:135|129:203,1,109.374997019768,8|0,0:0|0:0,0:0:0:0:
16,129,76699,5,4,0:0:0:0:
88,93,76805,1,4,0:0:0:0:
166,88,76910,1,4,0:0:0:0:
240,109,77016,1,4,0:0:0:0:
292,170,77122,2,0,L|284:316,1,109.374997019768,8|0,0:0|0:0,0:0:0:0:
15,241,77333,5,4,0:0:0:0:
67,183,77439,2,0,P|117:172|187:186,1,109.374997019768,8|0,0:0|0:0,0:0:0:0:
406,329,77650,5,4,0:0:0:0:
332,355,77756,2,0,L|194:341,1,109.374997019768,8|0,0:0|0:0,0:0:0:0:
245,84,77967,6,0,P|299:177|238:293,1,218.749994039536,12|0,0:0|0:0,0:0:0:0:
110,182,78284,2,0,L|118:58,1,109.374997019768,8|0,0:0|0:0,0:0:0:0:
291,82,78495,5,4,0:0:0:0:
252,166,78601,1,4,0:0:0:0:
192,96,78706,1,4,0:0:0:0:
304,73,78812,6,0,B|356:72|356:72|439:86,1,109.374997019768,8|0,0:0|0:0,0:0:0:0:
286,337,79023,5,4,0:0:0:0:
242,273,79129,2,0,P|238:226|255:157,1,109.374997019768,8|0,0:0|0:0,0:0:0:0:
506,200,79340,5,4,0:0:0:0:
436,233,79446,2,0,P|371:235|314:217,1,109.374997019768,8|0,0:0|0:0,0:0:0:0:
361,36,79657,2,0,P|395:91|408:149,1,109.374997019768,8|0,0:0|0:0,0:0:0:0:
147,315,79868,5,4,0:0:0:0:
141,236,79974,2,0,B|160:147|163:0|163:0|176:58|195:83,1,328.124991059303,12|0,0:0|0:0,0:0:0:0:
273,321,80397,5,4,0:0:0:0:
250,238,80502,1,4,0:0:0:0:
336,259,80608,1,4,0:0:0:0:
254,328,80713,6,0,P|202:331|133:308,1,109.374997019768,8|0,0:0|0:0,0:0:0:0:
153,151,80925,5,4,0:0:0:0:
196,84,81030,2,0,B|215:58|228:1|228:1|231:148|253:250,1,328.124991059303,12|0,0:0|0:0,0:0:0:0:
63,276,81453,5,4,0:0:0:0:
71,189,81558,1,4,0:0:0:0:
141,240,81664,2,0,B|196:244|196:244|280:235,1,109.374997019768,8|0,0:0|0:0,0:0:0:0:
343,12,81875,6,0,L|338:134,1,109.374997019768,10|0,0:0|0:0,0:0:0:0:
77,105,82087,5,4,0:0:0:0:
139,59,82192,2,0,P|185:59|252:89,1,109.374997019768,8|0,0:0|0:0,0:0:0:0:
173,341,82404,6,0,P|150:301|142:228,1,109.374997019768,8|0,0:0|0:0,0:0:0:0:
335,41,82615,5,4,0:0:0:0:
324,119,82720,1,4,0:0:0:0:
267,172,82826,1,4,0:0:0:0:
184,174,82932,5,4,0:0:0:0:
113,204,83037,1,4,0:0:0:0:
92,277,83143,1,4,0:0:0:0:
147,338,83249,6,0,L|270:335,1,109.374997019768,8|0,0:0|0:0,0:0:0:0:
239,86,83460,5,4,0:0:0:0:
195,150,83566,2,0,P|186:211|205:265,1,109.374997019768,8|0,0:0|0:0,0:0:0:0:
452,223,83777,5,4,0:0:0:0:
398,168,83882,2,0,P|337:164|286:180,1,109.374997019768,8|0,0:0|0:0,0:0:0:0:
463,324,84094,5,4,0:0:0:0:
493,253,84199,2,0,B|492:90|492:90|465:145,1,218.749994039536,8|0,0:0|0:0,0:0:0:0:
306,231,84516,5,4,0:0:0:0:
388,267,84622,1,4,0:0:0:0:
384,178,84728,1,4,0:0:0:0:
288,234,84833,6,0,B|238:234|238:234|166:214,1,109.374997019768,8|0,0:0|0:0,0:0:0:0:
113,108,85044,6,0,B|89:84|72:27|72:27|80:174|68:278,1,328.124991059303,12|0,0:0|0:0,0:0:0:0:
319,135,85467,5,4,0:0:0:0:
384,178,85573,2,0,B|431:198|431:198|223:216,1,218.749994039536,8|0,0:0|0:0,0:0:0:0:
190,176,85889,6,0,P|174:111|257:-4,1,218.749994039536,8|0,0:0|0:0,0:0:0:0:
299,229,86206,2,0,P|250:275|109:260,1,218.749994039536,8|0,0:0|0:0,0:0:0:0:
319,135,86523,6,0,B|395:133|395:133|486:151,1,145.83332935969,8|0,0:0|0:0,0:0:0:0:
489,175,86735,21,8,0:0:0:0:
455,322,86875,1,8,0:0:0:0:
349,226,87016,1,8,0:0:0:0:
506,196,87157,21,8,0:0:0:0:
428,325,87297,1,8,0:0:0:0:
357,201,87438,1,8,0:0:0:0:
512,230,87580,6,0,P|517:290|506:356,1,116.666663487752,8|0,0:0|0:0,0:0:0:0:
487,368,87792,2,0,B|409:393|320:356|320:356|234:317|131:377,1,349.999990463257,14|0,0:0|0:0,0:0:0:0:
350,199,88425,6,0,L|351:100,1,87.4999976158143,12|0,0:0|0:0,0:0:0:0:
165,103,88636,5,4,0:0:0:0:
136,173,88742,1,4,0:0:0:0:
162,244,88847,2,0,P|204:260|279:250,1,87.4999976158143,8|8,0:0|0:0,0:0:0:0:
340,27,89164,6,0,P|359:105|343:216,1,174.999995231629,12|0,0:0|0:0,0:0:0:0:
165,103,89481,2,0,P|212:88|266:91,1,87.4999976158143,8|0,0:0|0:0,0:0:0:0:
246,260,89692,2,0,P|268:221|266:156,1,87.4999976158143,8|0,0:0|0:0,0:0:0:0:
0,181,90009,6,0,L|201:189,1,174.999995231629,12|0,0:0|0:0,0:0:0:0:
419,41,90326,5,4,0:0:0:0:
405,113,90432,1,4,0:0:0:0:
347,158,90537,2,0,P|257:169|163:122,1,174.999995231629,8|0,0:0|0:0,0:0:0:0:
132,52,90854,6,0,P|176:40|254:69,1,87.4999976158143,8|0,0:0|0:0,0:0:0:0:
75,107,91066,2,0,B|64:174|64:174|75:250,1,131.249996423721,12|0,0:0|0:0,0:0:0:0:
101,258,91277,2,0,P|178:268|289:249,1,174.999995231629,12|0,0:0|0:0,0:0:0:0:
191,99,91594,2,0,P|182:140|186:187,1,87.4999976158143,8|0,0:0|0:0,0:0:0:0:
366,143,91805,6,0,P|305:133|275:137,1,87.4999976158143,12|0,0:0|0:0,0:0:0:0:
430,299,92016,1,4,0:0:0:0:
458,229,92122,1,4,0:0:0:0:
462,154,92228,2,0,B|458:30|458:30|418:82,1,174.999995231629,8|8,0:0|0:0,0:0:0:0:
193,139,92544,6,0,P|285:153|390:135,1,174.999995231629,12|0,0:0|0:0,0:0:0:0:
139,16,92861,1,4,0:0:0:0:
103,86,92967,1,4,0:0:0:0:
105,164,93073,2,0,B|111:319|111:319|156:211,1,233.333326975505,8|0,0:0|0:0,0:0:0:0:
362,198,93495,5,6,0:0:0:0:
248,71,93636,1,6,0:0:0:0:
234,275,93777,1,6,0:0:0:0:
361,109,93918,5,6,0:0:0:0:
135,174,94058,1,6,0:0:0:0:
380,288,94199,1,6,0:0:0:0:
