osu file format v14

[General]
AudioFilename: audio.mp3
AudioLeadIn: 0
PreviewTime: -1
Countdown: 1
SampleSet: Soft
StackLeniency: 0.7
Mode: 0
LetterboxInBreaks: 0
WidescreenStoryboard: 0

[Editor]
Bookmarks: 10405,31121,44631,61553,75308,95317,108869,122801,139298,152806,172239,185771,199281,212790,226774,243236,256746,270279
DistanceSpacing: 1
BeatDivisor: 8
GridSize: 8
TimelineZoom: 2.1

[Metadata]
Title:Deal With the Devil
TitleUnicode:Deal With the Devil
Artist:Tia
ArtistUnicode:Tia
Creator:JiruPiru
Version:Satan
Source:Kakegurui
Tags:kakegurui jazz japanese
BeatmapID:1816086
BeatmapSetID:868923

[Difficulty]
HPDrainRate:5
CircleSize:3
OverallDifficulty:9
ApproachRate:10
SliderMultiplier:2.5
SliderTickRate:1

[Events]
//Background and Video events
0,0,"kakeguruigoodanime.png",0,0
//Break Periods
2,17815,30671
//Storyboard Layer 0 (Background)
//Storyboard Layer 1 (Fail)
//Storyboard Layer 2 (Pass)
//Storyboard Layer 3 (Foreground)
//Storyboard Sound Samples

[TimingPoints]
696,413.793103448276,4,2,1,30,1,0
2351,428.571428571429,4,2,1,70,1,0
2378,422.535211267606,4,2,1,70,1,0
4078,425.531914893617,4,2,1,80,1,0
5346,425.531914893617,4,2,1,80,1,0
5780,425.531914893617,4,2,1,80,1,0
7034,425.531914893617,4,2,1,80,1,0
7483,413.793103448276,4,2,1,80,1,0
9138,422.535211267606,4,2,1,80,1,0
10826,422.535211267606,4,2,1,80,1,0
10826,-83.3333333333333,4,2,1,80,0,0
14206,-66.6666666666667,4,2,1,80,0,0
14417,-83.3333333333334,4,2,1,80,0,0
15896,431.654676258993,4,2,1,80,1,0
17190,425.531914893617,4,2,1,80,1,0
17603,421.052631578947,4,2,1,60,1,0
20971,422.535211267606,4,2,1,60,1,0
29210,390.879478827362,4,2,1,60,1,0
29405,431.654676258993,4,2,1,60,1,0
30699,422.535211267606,4,2,1,80,1,0
31121,419.58041958042,4,2,1,60,1,0
34485,421.792618629174,4,2,1,60,1,0
34485,-71.4285714285714,4,2,1,60,0,0
34695,-100,4,2,1,60,0,0
37015,428.571428571429,4,2,1,60,1,0
37443,-66.6666666666667,4,2,1,60,0,0
37872,424.028268551237,4,2,1,60,1,0
37872,-100,4,2,1,60,0,0
41263,419.58041958042,4,2,1,60,1,0
41264,-71.4285714285714,4,2,1,60,0,0
42941,422.535211267606,4,2,1,60,1,0
61553,422.535211267606,4,2,1,80,1,1
70214,416.666666666667,4,2,1,80,1,1
71693,422.535211267606,4,2,1,80,1,1
75098,422.535211267606,4,2,1,80,1,1
75308,416.666666666667,4,2,1,80,1,1
78641,422.535211267606,4,2,1,80,1,1
86880,431.654676258993,4,2,1,80,1,1
87959,425.531914893617,4,2,1,80,1,1
88597,441.176470588235,4,2,1,70,1,0
89038,410.677618069815,4,2,1,70,1,0
89347,408.163265306122,4,2,1,70,1,0
89857,397.350993377483,4,2,1,70,1,0
90156,419.58041958042,4,2,1,70,1,0
90995,465.116279069767,4,2,1,70,1,0
91692,434.782608695652,4,2,1,70,1,0
91983,415.944540727903,4,2,1,70,1,0
93232,413.793103448276,4,2,1,70,1,0
93645,422.535211267606,4,2,1,100,1,0
95317,428.571428571429,4,2,1,60,1,0
98317,400,4,2,1,60,1,0
98717,428.571428571429,4,2,1,60,1,0
100431,419.58041958042,4,2,1,60,1,0
102109,419.58041958042,4,2,1,60,1,0
105046,428.571428571429,4,2,1,60,1,0
105479,422.535211267606,4,2,1,60,1,0
107169,425.531914893617,4,2,1,60,1,0
108869,422.535211267606,4,2,1,60,1,0
112249,419.58041958042,4,2,1,60,1,0
115189,424.028268551237,4,2,1,60,1,0
115612,425.531914893617,4,2,1,60,1,0
119016,422.535211267606,4,2,1,60,1,0
120706,431.654676258993,4,2,1,60,1,0
122396,405.405405405405,4,2,1,60,1,0
122801,421.052631578947,4,2,1,60,1,0
126166,425.531914893617,4,2,1,60,1,0
131057,422.535211267606,4,2,1,60,1,0
132536,418.118466898955,4,2,1,60,1,0
134208,422.535211267606,4,2,1,60,1,0
135906,424.028268551237,4,2,1,60,1,0
139298,419.58041958042,4,2,1,80,1,1
143913,444.444444444444,4,2,1,80,1,1
144248,422.535211267606,4,2,1,80,1,1
144564,425.531914893617,4,2,1,80,1,1
145415,420.31523642732,4,2,1,80,1,1
146255,422.535211267606,4,2,1,80,1,1
152806,413.793103448276,4,2,1,70,1,0
153220,422.535211267606,4,2,1,70,1,0
153536,447.761194029851,4,2,1,70,1,0
153983,397.350993377483,4,2,1,70,1,0
154381,389.61038961039,4,2,1,70,1,0
154771,487.80487804878,4,2,1,70,1,0
155261,402.684563758389,4,2,1,70,1,0
155663,397.350993377483,4,2,1,70,1,0
155912,372.670807453416,4,2,1,70,1,0
156193,394.736842105263,4,2,1,70,1,0
156538,410.958904109589,4,2,1,70,1,0
156948,397.350993377483,4,2,1,70,1,0
157295,363.636363636364,4,2,1,70,1,0
157567,419.58041958042,4,2,1,70,1,0
157881,422.535211267606,4,2,1,70,1,0
158716,422.535211267606,4,2,1,70,1,0
158726,422.535211267606,4,2,1,70,1,0
165064,416.666666666667,4,2,1,60,1,0
167147,428.571428571429,4,2,1,60,1,0
168861,422.535211267606,4,2,1,60,1,0
172239,422.535211267606,4,2,1,60,1,0
184069,425.531914893617,4,2,1,80,1,0
185771,428.571428571429,4,2,1,80,1,0
186521,437.956204379562,4,2,1,80,1,0
187161,431.654676258993,4,2,1,80,1,0
187592,425.531914893617,4,2,1,80,1,0
188003,425.531914893617,4,2,1,80,1,0
188641,382.165605095541,4,2,1,80,1,0
189132,444.444444444444,4,2,1,80,1,0
189576,422.535211267606,4,2,1,80,1,0
191847,428.571428571429,4,2,1,80,1,0
192543,419.58041958042,4,2,1,80,1,0
195480,444.444444444444,4,2,1,80,1,0
195924,392.156862745098,4,2,1,80,1,0
197623,419.58041958042,4,2,1,80,1,0
198881,400,4,2,1,80,1,0
199281,419.58041958042,4,2,1,60,1,0
202645,419.58041958042,4,2,1,60,1,0
204341,422.535211267606,4,2,1,60,1,0
210045,431.654676258993,4,2,1,60,1,0
211124,416.666666666667,4,2,1,60,1,0
212790,422.535211267606,4,2,1,60,1,0
225946,465.116279069767,4,2,1,50,1,0
226352,422.535211267606,4,2,1,60,1,0
226774,416.666666666667,4,2,1,60,1,0
231357,444.444444444444,4,2,1,60,1,0
232245,425.531914893617,4,2,1,60,1,0
233096,422.535211267606,4,2,1,60,1,0
245973,422.535211267606,4,2,1,85,1,1
246606,422.535211267606,4,2,1,85,1,1
261817,472.44094488189,4,2,1,85,1,1
263706,422.535211267606,4,2,1,85,1,1
266663,437.956204379562,4,2,1,85,1,1
267100,422.535211267606,4,2,1,85,1,1
268367,433.212996389892,4,2,1,85,1,1
269448,415.944540727903,4,2,1,85,1,1
270279,428.571428571429,4,2,1,70,1,0
270814,416.666666666667,4,2,1,70,1,0
271647,389.61038961039,4,2,1,70,1,0
271841,428.571428571429,4,2,1,70,1,0
272698,410.958904109589,4,2,1,70,1,0
273108,389.61038961039,4,2,1,70,1,0
273627,451.127819548872,4,2,1,70,1,0
274190,384.615384615385,4,2,1,70,1,0
275023,397.350993377483,4,2,1,70,1,0
275321,428.571428571429,4,2,1,100,1,0
277035,442.80442804428,4,2,1,70,1,0

[HitObjects]
256,56,2351,5,0,0:0:0:0:
360,280,2493,1,0,0:0:0:0:
114,258,2636,1,0,0:0:0:0:
314,74,2779,5,0,0:0:0:0:
314,321,2921,1,0,0:0:0:0:
100,197,3064,1,0,0:0:0:0:
360,116,3208,5,0,0:0:0:0:
255,340,3350,1,0,0:0:0:0:
114,137,3493,1,0,0:0:0:0:
255,340,3636,5,0,0:0:0:0:
114,137,4078,5,0,0:0:0:0:
34,111,4184,1,0,0:0:0:0:
34,27,4290,1,0,0:0:0:0:
114,2,4397,1,0,0:0:0:0:
162,69,4503,1,0,0:0:0:0:
162,69,4716,5,0,0:0:0:0:
114,2,4822,1,0,0:0:0:0:
34,27,4929,1,0,0:0:0:0:
34,111,5035,1,0,0:0:0:0:
122,199,5141,6,0,L|162:240,6,41.6666666666667
398,137,5780,5,0,0:0:0:0:
478,111,5886,1,0,0:0:0:0:
478,27,5992,1,0,0:0:0:0:
398,2,6099,1,0,0:0:0:0:
350,69,6205,1,0,0:0:0:0:
350,69,6418,5,0,0:0:0:0:
398,2,6524,1,0,0:0:0:0:
478,27,6631,1,0,0:0:0:0:
478,111,6737,1,0,0:0:0:0:
398,137,6843,1,0,0:0:0:0:
398,137,7034,5,0,0:0:0:0:
265,269,7140,2,0,P|311:336|424:333,1,187.5
256,192,7534,12,0,9138,0:0:0:0:
111,72,10405,6,0,L|69:102,2,41.6666666666667
149,122,10616,2,0,L|107:152,2,41.6666666666667
219,92,10826,6,0,P|253:73|297:80,1,74.9999977111817
362,139,11037,1,0,0:0:0:0:
398,228,11142,1,0,0:0:0:0:
328,297,11248,2,0,B|307:324|307:324|249:337,1,74.9999977111817
261,233,11459,5,0,0:0:0:0:
261,233,11565,2,0,L|182:273,1,74.9999977111817
112,213,11776,2,0,L|191:173,1,74.9999977111817
268,140,11987,1,0,0:0:0:0:
359,174,12093,6,0,L|398:247,1,74.9999977111817
450,160,12304,2,0,L|411:87,1,74.9999977111817
271,43,12516,6,0,P|230:34|165:59,1,74.9999977111817
128,108,12727,1,0,0:0:0:0:
128,205,12833,1,0,0:0:0:0:
172,291,12938,2,0,B|203:324|203:324|256:346,1,74.9999977111817
279,278,13149,5,0,0:0:0:0:
279,278,13255,2,0,L|429:335,2,149.999995422363
227,199,13783,1,0,0:0:0:0:
481,38,13924,5,0,0:0:0:0:
481,138,13995,1,0,0:0:0:0:
481,346,14135,5,0,0:0:0:0:
481,246,14206,2,0,B|436:217|436:217|287:234,1,187.500007152558
220,270,14523,1,0,0:0:0:0:
135,241,14628,2,0,B|97:224|97:224|74:188,1,74.9999977111817
115,108,14840,5,0,0:0:0:0:
115,108,14945,2,0,L|171:157,1,74.9999977111817
255,191,15156,2,0,P|291:211|344:212,1,74.9999977111817
386,148,15368,5,0,0:0:0:0:
386,148,15473,2,0,L|434:218,1,74.9999977111817
378,286,15685,2,0,L|330:216,1,74.9999977111817
244,64,15896,5,0,0:0:0:0:
244,64,16111,1,0,0:0:0:0:
70,243,16327,1,0,0:0:0:0:
174,311,16435,1,0,0:0:0:0:
174,185,16543,1,0,0:0:0:0:
85,96,16651,6,0,L|0:0,2,125
131,138,17190,2,0,P|173:86|351:75,1,250
303,54,31121,6,0,B|340:71|340:71|385:152,1,125
383,223,31470,1,0,0:0:0:0:
383,223,31540,2,0,P|357:282|280:323,1,125
224,316,31890,5,0,0:0:0:0:
224,316,31960,2,0,L|157:209,1,125
138,110,32309,5,0,0:0:0:0:
138,110,32379,1,0,0:0:0:0:
292,48,32519,1,0,0:0:0:0:
292,48,32589,1,0,0:0:0:0:
268,212,32729,1,0,0:0:0:0:
268,212,32799,6,0,B|310:243|310:243|405:236,1,125
428,158,33148,1,0,0:0:0:0:
428,158,33218,2,0,P|390:107|318:72,1,125
254,62,33568,1,0,0:0:0:0:
254,62,33638,2,0,L|175:169,1,125
185,246,33988,5,0,0:0:0:0:
185,287,34058,1,0,0:0:0:0:
350,287,34197,5,0,0:0:0:0:
350,370,34267,1,0,0:0:0:0:
467,252,34407,5,0,0:0:0:0:
467,252,34485,6,0,B|465:156|465:156|402:90,1,174.999994659424
336,73,34836,1,0,0:0:0:0:
336,73,34906,1,0,0:0:0:0:
276,132,35047,1,0,0:0:0:0:
276,132,35117,1,0,0:0:0:0:
216,72,35258,5,0,0:0:0:0:
216,72,35328,2,0,P|114:55|80:58,1,125
37,119,35680,1,0,0:0:0:0:
37,119,35750,2,0,L|92:247,1,125
159,273,36101,5,0,0:0:0:0:
159,273,36172,2,0,L|284:215,1,125
310,146,36523,1,0,0:0:0:0:
310,146,36593,2,0,L|246:30,1,125
165,28,36945,5,0,0:0:0:0:
165,28,37015,1,0,0:0:0:0:
57,154,37157,1,0,0:0:0:0:
27,183,37229,1,0,0:0:0:0:
144,300,37372,5,0,0:0:0:0:
144,300,37443,2,0,B|151:217|151:217|219:154,1,125.000004768372
307,185,37657,6,0,B|337:156|337:156|344:73,1,125.000004768372
165,28,37872,6,0,B|119:72|119:72|84:157,1,125
100,211,38225,1,0,0:0:0:0:
100,211,38296,2,0,P|158:233|240:231,1,125
296,200,38649,5,0,0:0:0:0:
296,200,38720,2,0,L|377:94,1,125
313,41,39073,5,0,0:0:0:0:
313,41,39144,1,0,0:0:0:0:
149,10,39285,1,0,0:0:0:0:
149,10,39356,1,0,0:0:0:0:
204,167,39497,1,0,0:0:0:0:
204,167,39568,6,0,B|230:212|230:212|200:303,1,125
133,320,39921,1,0,0:0:0:0:
133,320,39992,2,0,P|63:281|37:237,1,125
39,161,40345,5,0,0:0:0:0:
39,161,40416,2,0,L|136:74,1,125
296,101,40769,1,0,0:0:0:0:
337,101,40840,1,0,0:0:0:0:
337,225,40981,5,0,0:0:0:0:
420,225,41052,1,0,0:0:0:0:
509,314,41193,1,0,0:0:0:0:
509,314,41263,2,0,B|460:334|460:334|364:336,1,125
124,335,41612,5,0,0:0:0:0:
124,335,41682,2,0,B|52:334|52:334|11:227,1,174.999994659424
124,48,42102,2,0,B|52:50|52:50|11:157,3,174.999994659424
423,54,42941,5,0,0:0:0:0:
423,54,43152,1,0,0:0:0:0:
423,178,43363,1,0,0:0:0:0:
377,247,43469,1,0,0:0:0:0:
340,172,43574,1,0,0:0:0:0:
222,54,43680,5,0,0:0:0:0:
222,54,43891,1,0,0:0:0:0:
52,237,44102,1,0,0:0:0:0:
52,237,44208,2,0,B|106:299|217:237|298:322,1,250
