osu file format v14

[General]
AudioFilename: bgm.mp3
AudioLeadIn: 0
PreviewTime: 53760
Countdown: 0
SampleSet: Soft
StackLeniency: 0.4
Mode: 3
LetterboxInBreaks: 0
SpecialStyle: 0
WidescreenStoryboard: 0
SamplesMatchPlaybackRate: 1

[Editor]
DistanceSpacing: 1
BeatDivisor: 4
GridSize: 8
TimelineZoom: 1

[Metadata]
Title:Love Maker
TitleUnicode:Love Maker
Artist:Ti7
ArtistUnicode:Ti7
Creator:DJPop
Version:7K HD
Source:PopStage
Tags:Christmas Xmas Mgame 팝스테이지
BeatmapID:836182
BeatmapSetID:382365

[Difficulty]
HPDrainRate:8
CircleSize:7
OverallDifficulty:8
ApproachRate:8
SliderMultiplier:0.64
SliderTickRate:1

[Events]
//Background and Video events
0,0,"Love Maker.jpg",0,0
//Break Periods
//Storyboard Layer 0 (Background)
//Storyboard Layer 1 (Fail)
//Storyboard Layer 2 (Pass)
//Storyboard Layer 3 (Foreground)
//Storyboard Sound Samples
Sample,1920,0,"f9209fa.wav",100
Sample,2400,0,"304cb0c1.wav",100
Sample,2760,0,"29bf0dd3.wav",100
Sample,2880,0,"4a3d8cd7.wav",100
Sample,3600,0,"bb8e3fbb.wav",100
Sample,3679,0,"65bbb22f.wav",100
Sample,3760,0,"65bbb22f.wav",100
Sample,3840,0,"28620cc.wav",100
Sample,4320,0,"eb297307.wav",100
Sample,4640,0,"f4c099e3.wav",100
Sample,4720,0,"f4c099e3.wav",100
Sample,4800,0,"8c71658e.wav",100
Sample,5520,0,"7fc5832e.wav",100
Sample,5760,0,"b9bc329c.wav",100
Sample,6480,0,"d305a4fe.wav",100
Sample,6720,0,"8e75d04.wav",100
Sample,7440,0,"f1d8cca5.wav",100
Sample,7680,0,"528ed529.wav",100
Sample,7680,0,"79673b67.wav",100
Sample,10080,0,"ea716e98.wav",100
Sample,11040,0,"9816e6e.wav",100
Sample,11160,0,"3a58c194.wav",100
Sample,12000,0,"ea716e98.wav",100
Sample,12600,0,"3a58c194.wav",100
Sample,12840,0,"d6878a4.wav",100
Sample,12900,0,"d6878a4.wav",100
Sample,12960,0,"9816e6e.wav",100
Sample,13080,0,"9816e6e.wav",100
Sample,13320,0,"3a58c194.wav",100
Sample,16800,0,"712dbe86.wav",100
Sample,16920,0,"712dbe86.wav",100
Sample,17040,0,"712dbe86.wav",100
Sample,17160,0,"712dbe86.wav",100
Sample,17760,0,"ea716e98.wav",100
Sample,18480,0,"b2ce3f17.wav",100
Sample,18720,0,"9bbb665a.wav",100
Sample,18720,0,"ea716e98.wav",100
Sample,18960,0,"37abae11.wav",100
Sample,19080,0,"3a58c194.wav",100
Sample,19680,0,"ea716e98.wav",100
Sample,20280,0,"3a58c194.wav",100
Sample,20640,0,"ea716e98.wav",100
Sample,21000,0,"3a58c194.wav",100
Sample,21600,0,"ea716e98.wav",100
Sample,22320,0,"b38688b7.wav",100
Sample,22560,0,"cb0a87a8.wav",100
Sample,22560,0,"ea716e98.wav",100
Sample,22800,0,"814731f0.wav",100
Sample,22920,0,"3a58c194.wav",100
Sample,23040,0,"9abce8ce.wav",100
Sample,23280,0,"49e39b56.wav",100
Sample,23400,0,"c6fd4704.wav",100
Sample,23520,0,"b0abc76b.wav",100
Sample,23520,0,"ea716e98.wav",100
Sample,23760,0,"b7841b25.wav",100
Sample,23880,0,"84b3be9f.wav",100
Sample,24120,0,"3a58c194.wav",100
Sample,24480,0,"ea716e98.wav",100
Sample,25440,0,"ea716e98.wav",100
Sample,26160,0,"89415767.wav",100
Sample,26400,0,"a7faa5ce.wav",100
Sample,26400,0,"ea716e98.wav",100
Sample,26640,0,"d7a6942b.wav",100
Sample,26760,0,"3a58c194.wav",100
Sample,27360,0,"ea716e98.wav",100
Sample,27960,0,"3a58c194.wav",100
Sample,28320,0,"ea716e98.wav",100
Sample,28680,0,"3a58c194.wav",100
Sample,29280,0,"ea716e98.wav",100
Sample,30000,0,"c7ae16b5.wav",100
Sample,30240,0,"9ab3d026.wav",100
Sample,30240,0,"ea716e98.wav",100
Sample,30480,0,"b2a99014.wav",100
Sample,30600,0,"3a58c194.wav",100
Sample,30720,0,"ccef0fef.wav",100
Sample,30960,0,"f0b29ba.wav",100
Sample,31080,0,"5bfe98c.wav",100
Sample,31200,0,"ea716e98.wav",100
Sample,31440,0,"fea9478.wav",100
Sample,31800,0,"3a58c194.wav",100
Sample,31920,0,"e6dba8a0.wav",100
Sample,32160,0,"3e7a03ab.wav",100
Sample,32160,0,"ea716e98.wav",100
Sample,32400,0,"453a2c76.wav",100
Sample,33120,0,"ea716e98.wav",100
Sample,34080,0,"712dbe86.wav",100
Sample,34080,0,"ea716e98.wav",100
Sample,34440,0,"3a58c194.wav",100
Sample,35040,0,"ea716e98.wav",100
Sample,35640,0,"3a58c194.wav",100
Sample,36000,0,"712dbe86.wav",100
Sample,36000,0,"ea716e98.wav",100
Sample,36360,0,"3a58c194.wav",100
Sample,36960,0,"ea716e98.wav",100
Sample,37920,0,"712dbe86.wav",100
Sample,37920,0,"ea716e98.wav",100
Sample,38280,0,"3a58c194.wav",100
Sample,38640,0,"bed986a4.wav",100
Sample,39600,0,"bed986a4.wav",100
Sample,40080,0,"bed986a4.wav",100
Sample,41640,0,"618e9888.wav",100
Sample,42000,0,"712dbe86.wav",100
Sample,42000,0,"ea716e98.wav",100
Sample,42720,0,"ea716e98.wav",100
Sample,43320,0,"3a58c194.wav",100
Sample,43680,0,"72f09615.wav",100
Sample,43680,0,"ea716e98.wav",100
Sample,44040,0,"3a58c194.wav",100
Sample,44160,0,"712dbe86.wav",100
Sample,44640,0,"712dbe86.wav",100
Sample,44640,0,"ea716e98.wav",100
Sample,45120,0,"712dbe86.wav",100
Sample,45600,0,"712dbe86.wav",100
Sample,45600,0,"ea716e98.wav",100
Sample,45960,0,"3a58c194.wav",100
Sample,46080,0,"712dbe86.wav",100
Sample,46560,0,"712dbe86.wav",100
Sample,46560,0,"ea716e98.wav",100
Sample,47040,0,"712dbe86.wav",100
Sample,47160,0,"3a58c194.wav",100
Sample,47520,0,"712dbe86.wav",100
Sample,47520,0,"ea716e98.wav",100
Sample,48000,0,"712dbe86.wav",100
Sample,48240,0,"bed986a4.wav",100
Sample,48480,0,"712dbe86.wav",100
Sample,48480,0,"ea716e98.wav",100
Sample,48720,0,"bed986a4.wav",100
Sample,48960,0,"712dbe86.wav",100
Sample,49200,0,"bed986a4.wav",100
Sample,49440,0,"712dbe86.wav",100
Sample,49440,0,"ea716e98.wav",100
Sample,49680,0,"bed986a4.wav",100
Sample,49800,0,"3a58c194.wav",100
Sample,50160,0,"bed986a4.wav",100
Sample,50640,0,"bed986a4.wav",100
Sample,51120,0,"bed986a4.wav",100
Sample,51600,0,"bed986a4.wav",100
Sample,52080,0,"ea716e98.wav",100
Sample,52560,0,"ea716e98.wav",100
Sample,53220,0,"712dbe86.wav",100
Sample,53760,0,"759192e2.wav",100
Sample,54120,0,"1a91fc11.wav",100
Sample,54240,0,"dc7b7b1c.wav",100
Sample,54480,0,"bf922388.wav",100
Sample,54960,0,"a7efa223.wav",100
Sample,54960,0,"bed986a4.wav",100
Sample,55200,0,"fea97582.wav",100
Sample,55440,0,"4a6333b3.wav",100
Sample,55440,0,"bed986a4.wav",100
Sample,55680,0,"759192e2.wav",100
Sample,56040,0,"1a91fc11.wav",100
Sample,56160,0,"dc7b7b1c.wav",100
Sample,56400,0,"bf922388.wav",100
Sample,56880,0,"a7efa223.wav",100
Sample,56880,0,"bed986a4.wav",100
Sample,57120,0,"fea97582.wav",100
Sample,57360,0,"4a6333b3.wav",100
Sample,57360,0,"bed986a4.wav",100
Sample,57600,0,"6d72c9f8.wav",100
Sample,57960,0,"cae83a9a.wav",100
Sample,58080,0,"ed089586.wav",100
Sample,58320,0,"7d1a1742.wav",100
Sample,58800,0,"aa5209ef.wav",100
Sample,58800,0,"bed986a4.wav",100
Sample,59040,0,"fbcc8a0c.wav",100
Sample,59280,0,"bed986a4.wav",100
Sample,59520,0,"6d72c9f8.wav",100
Sample,59880,0,"cae83a9a.wav",100
Sample,60000,0,"ed089586.wav",100
Sample,60240,0,"7d1a1742.wav",100
Sample,60600,0,"4cd101d2.wav",100
Sample,60720,0,"aa5209ef.wav",100
Sample,60720,0,"89a8ace8.wav",100
Sample,60840,0,"83aa5713.wav",100
Sample,60960,0,"fbcc8a0c.wav",100
Sample,60960,0,"abc4b957.wav",100
Sample,61080,0,"c2cac3fe.wav",100
Sample,61200,0,"1f6344b1.wav",100
Sample,61320,0,"e6168002.wav",100
Sample,61440,0,"759192e2.wav",100
Sample,61800,0,"1a91fc11.wav",100
Sample,61920,0,"dc7b7b1c.wav",100
Sample,62160,0,"bf922388.wav",100
Sample,62640,0,"a7efa223.wav",100
Sample,62640,0,"bed986a4.wav",100
Sample,62880,0,"fea97582.wav",100
Sample,63120,0,"4a6333b3.wav",100
Sample,63120,0,"bed986a4.wav",100
Sample,63360,0,"759192e2.wav",100
Sample,63720,0,"1a91fc11.wav",100
Sample,63840,0,"dc7b7b1c.wav",100
Sample,64080,0,"bf922388.wav",100
Sample,64560,0,"a7efa223.wav",100
Sample,64560,0,"bed986a4.wav",100
Sample,64800,0,"fea97582.wav",100
Sample,65040,0,"4a6333b3.wav",100
Sample,65040,0,"bed986a4.wav",100
Sample,65280,0,"6d72c9f8.wav",100
Sample,65640,0,"cae83a9a.wav",100
Sample,65760,0,"ed089586.wav",100
Sample,66000,0,"7d1a1742.wav",100
Sample,66480,0,"aa5209ef.wav",100
Sample,66480,0,"bed986a4.wav",100
Sample,66720,0,"fbcc8a0c.wav",100
Sample,66960,0,"bed986a4.wav",100
Sample,67200,0,"901f6d2a.wav",100
Sample,67560,0,"5c34c089.wav",100
Sample,67620,0,"d6878a4.wav",100
Sample,67920,0,"45d6ffc1.wav",100
Sample,68400,0,"18252d82.wav",100
Sample,68640,0,"602e460b.wav",100
Sample,68880,0,"dc445f62.wav",100
Sample,69120,0,"712dbe86.wav",100
Sample,69600,0,"712dbe86.wav",100
Sample,69600,0,"ea716e98.wav",100
Sample,70080,0,"712dbe86.wav",100
Sample,70560,0,"712dbe86.wav",100
Sample,70560,0,"ea716e98.wav",100
Sample,70920,0,"3a58c194.wav",100
Sample,71040,0,"712dbe86.wav",100
Sample,71520,0,"712dbe86.wav",100
Sample,71520,0,"ea716e98.wav",100
Sample,72000,0,"712dbe86.wav",100
Sample,72120,0,"3a58c194.wav",100
Sample,72480,0,"712dbe86.wav",100
Sample,72480,0,"ea716e98.wav",100
Sample,73440,0,"ea716e98.wav",100
Sample,73800,0,"d6878a4.wav",100
Sample,73860,0,"d6878a4.wav",100
Sample,73920,0,"ea716e98.wav",100
Sample,74280,0,"3a58c194.wav",100
Sample,75360,0,"ea716e98.wav",100
Sample,75960,0,"3a58c194.wav",100
Sample,76320,0,"ea716e98.wav",100
Sample,77280,0,"ea716e98.wav",100
Sample,78240,0,"ea716e98.wav",100
Sample,78600,0,"3a58c194.wav",100
Sample,79200,0,"ea716e98.wav",100
Sample,79800,0,"3a58c194.wav",100
Sample,80160,0,"ea716e98.wav",100
Sample,81120,0,"ea716e98.wav",100
Sample,82080,0,"9816e6e.wav",100
Sample,82200,0,"3a58c194.wav",100
Sample,83040,0,"ea716e98.wav",100
Sample,83640,0,"3a58c194.wav",100
Sample,83880,0,"d6878a4.wav",100
Sample,83940,0,"d6878a4.wav",100
Sample,84000,0,"9816e6e.wav",100
Sample,84120,0,"9816e6e.wav",100
Sample,84240,0,"bed986a4.wav",100
Sample,84360,0,"3a58c194.wav",100
Sample,84360,0,"bed986a4.wav",100
Sample,84480,0,"bed986a4.wav",100
Sample,84720,0,"bed986a4.wav",100
Sample,85200,0,"bed986a4.wav",100
Sample,85680,0,"bed986a4.wav",100
Sample,86160,0,"bed986a4.wav",100
Sample,86640,0,"bed986a4.wav",100
Sample,87120,0,"bed986a4.wav",100
Sample,87600,0,"bed986a4.wav",100
Sample,87840,0,"712dbe86.wav",100
Sample,87960,0,"712dbe86.wav",100
Sample,88080,0,"712dbe86.wav",100
Sample,88080,0,"bed986a4.wav",100
Sample,88200,0,"712dbe86.wav",100
Sample,88320,0,"112302c5.wav",100
Sample,88320,0,"4c09bc12.wav",100
Sample,88560,0,"bd9ddf0a.wav",100
Sample,88680,0,"851f8948.wav",100
Sample,88800,0,"112302c5.wav",100
Sample,88800,0,"dd67fd9e.wav",100
Sample,89040,0,"bd9ddf0a.wav",100
Sample,89160,0,"851f8948.wav",100
Sample,89160,0,"16bc09d.wav",100
Sample,89280,0,"112302c5.wav",100
Sample,89280,0,"1c9eb84a.wav",100
Sample,89520,0,"bd9ddf0a.wav",100
Sample,89640,0,"851f8948.wav",100
Sample,89760,0,"112302c5.wav",100
Sample,89760,0,"fe443406.wav",100
Sample,90000,0,"bd9ddf0a.wav",100
Sample,90120,0,"851f8948.wav",100
Sample,90240,0,"112302c5.wav",100
Sample,90240,0,"7bfa78a3.wav",100
Sample,90480,0,"bd9ddf0a.wav",100
Sample,90600,0,"851f8948.wav",100
Sample,90720,0,"112302c5.wav",100
Sample,90720,0,"5da8e5cf.wav",100
Sample,90960,0,"bd9ddf0a.wav",100
Sample,91080,0,"851f8948.wav",100
Sample,91200,0,"112302c5.wav",100
Sample,91200,0,"84da888e.wav",100
Sample,91440,0,"bd9ddf0a.wav",100
Sample,91560,0,"851f8948.wav",100
Sample,91680,0,"112302c5.wav",100
Sample,91680,0,"16952258.wav",100
Sample,91920,0,"bd9ddf0a.wav",100
Sample,92040,0,"851f8948.wav",100
Sample,92160,0,"112302c5.wav",100
Sample,92160,0,"4c09bc12.wav",100
Sample,92400,0,"bd9ddf0a.wav",100
Sample,92520,0,"851f8948.wav",100
Sample,92640,0,"112302c5.wav",100
Sample,92640,0,"dd67fd9e.wav",100
Sample,92880,0,"bd9ddf0a.wav",100
Sample,93000,0,"851f8948.wav",100
Sample,93000,0,"16bc09d.wav",100
Sample,93120,0,"112302c5.wav",100
Sample,93120,0,"1c9eb84a.wav",100
Sample,93360,0,"bd9ddf0a.wav",100
Sample,93480,0,"851f8948.wav",100
Sample,93600,0,"112302c5.wav",100
Sample,93600,0,"fe443406.wav",100
Sample,93840,0,"bd9ddf0a.wav",100
Sample,93960,0,"851f8948.wav",100
Sample,94080,0,"112302c5.wav",100
Sample,94080,0,"7bfa78a3.wav",100
Sample,94320,0,"bd9ddf0a.wav",100
Sample,94440,0,"851f8948.wav",100
Sample,94560,0,"112302c5.wav",100
Sample,94560,0,"5da8e5cf.wav",100
Sample,94800,0,"bd9ddf0a.wav",100
Sample,94920,0,"851f8948.wav",100
Sample,95040,0,"112302c5.wav",100
Sample,95040,0,"84da888e.wav",100
Sample,95280,0,"bd9ddf0a.wav",100
Sample,95400,0,"851f8948.wav",100
Sample,95520,0,"112302c5.wav",100
Sample,95520,0,"16952258.wav",100
Sample,95760,0,"bd9ddf0a.wav",100
Sample,95880,0,"851f8948.wav",100
Sample,96000,0,"112302c5.wav",100
Sample,96000,0,"885e9cf7.wav",100
Sample,96240,0,"bd9ddf0a.wav",100
Sample,96360,0,"851f8948.wav",100
Sample,96480,0,"112302c5.wav",100
Sample,96480,0,"a1699570.wav",100
Sample,96720,0,"bd9ddf0a.wav",100
Sample,96840,0,"851f8948.wav",100
Sample,96840,0,"b1afdee4.wav",100
Sample,96960,0,"112302c5.wav",100
Sample,96960,0,"41ff5de.wav",100
Sample,97200,0,"bd9ddf0a.wav",100
Sample,97320,0,"851f8948.wav",100
Sample,97440,0,"112302c5.wav",100
Sample,97440,0,"8d3dcc70.wav",100
Sample,97680,0,"bd9ddf0a.wav",100
Sample,97800,0,"851f8948.wav",100
Sample,97920,0,"112302c5.wav",100
Sample,97920,0,"68e77bd6.wav",100
Sample,98160,0,"bd9ddf0a.wav",100
Sample,98280,0,"851f8948.wav",100
Sample,98400,0,"112302c5.wav",100
Sample,98400,0,"36d566e4.wav",100
Sample,98640,0,"bd9ddf0a.wav",100
Sample,98760,0,"851f8948.wav",100
Sample,98880,0,"112302c5.wav",100
Sample,98880,0,"8b721c38.wav",100
Sample,99120,0,"bd9ddf0a.wav",100
Sample,99240,0,"851f8948.wav",100
Sample,99360,0,"112302c5.wav",100
Sample,99360,0,"979449f4.wav",100
Sample,99600,0,"bd9ddf0a.wav",100
Sample,99720,0,"851f8948.wav",100
Sample,99840,0,"112302c5.wav",100
Sample,99840,0,"bc19da4d.wav",100
Sample,100080,0,"bd9ddf0a.wav",100
Sample,100200,0,"851f8948.wav",100
Sample,100320,0,"112302c5.wav",100
Sample,100320,0,"8f0587e2.wav",100
Sample,100560,0,"bd9ddf0a.wav",100
Sample,100680,0,"851f8948.wav",100
Sample,100680,0,"832afa5a.wav",100
Sample,100800,0,"112302c5.wav",100
Sample,100800,0,"cf65bdbe.wav",100
Sample,101040,0,"bd9ddf0a.wav",100
Sample,101160,0,"851f8948.wav",100
Sample,101280,0,"112302c5.wav",100
Sample,101280,0,"e13fb80a.wav",100
Sample,101520,0,"bd9ddf0a.wav",100
Sample,101640,0,"851f8948.wav",100
Sample,101760,0,"112302c5.wav",100
Sample,101760,0,"80b3f397.wav",100
Sample,102000,0,"bd9ddf0a.wav",100
Sample,102120,0,"851f8948.wav",100
Sample,102240,0,"112302c5.wav",100
Sample,102240,0,"90cebc8.wav",100
Sample,102480,0,"bd9ddf0a.wav",100
Sample,102600,0,"851f8948.wav",100
Sample,102720,0,"112302c5.wav",100
Sample,102720,0,"5d8e8f43.wav",100
Sample,102960,0,"bd9ddf0a.wav",100
Sample,103080,0,"851f8948.wav",100
Sample,103200,0,"112302c5.wav",100
Sample,103200,0,"8d9ea193.wav",100
Sample,103440,0,"bd9ddf0a.wav",100
Sample,103560,0,"851f8948.wav",100
Sample,104160,0,"ea716e98.wav",100
Sample,105120,0,"712dbe86.wav",100
Sample,105120,0,"ea716e98.wav",100
Sample,105480,0,"3a58c194.wav",100
Sample,106080,0,"ea716e98.wav",100
Sample,106680,0,"3a58c194.wav",100
Sample,107040,0,"712dbe86.wav",100
Sample,107040,0,"ea716e98.wav",100
Sample,107400,0,"3a58c194.wav",100
Sample,108000,0,"ea716e98.wav",100
Sample,108960,0,"712dbe86.wav",100
Sample,108960,0,"ea716e98.wav",100
Sample,109320,0,"3a58c194.wav",100
Sample,109680,0,"bed986a4.wav",100
Sample,110640,0,"bed986a4.wav",100
Sample,111120,0,"bed986a4.wav",100
Sample,112680,0,"618e9888.wav",100
Sample,113040,0,"712dbe86.wav",100
Sample,113040,0,"ea716e98.wav",100
Sample,113760,0,"ea716e98.wav",100
Sample,114360,0,"3a58c194.wav",100
Sample,114720,0,"72f09615.wav",100
Sample,114720,0,"ea716e98.wav",100
Sample,115080,0,"3a58c194.wav",100
Sample,115200,0,"712dbe86.wav",100
Sample,115680,0,"712dbe86.wav",100
Sample,115680,0,"ea716e98.wav",100
Sample,116160,0,"712dbe86.wav",100
Sample,116640,0,"712dbe86.wav",100
Sample,116640,0,"ea716e98.wav",100
Sample,117000,0,"3a58c194.wav",100
Sample,117120,0,"712dbe86.wav",100
Sample,117600,0,"712dbe86.wav",100
Sample,117600,0,"ea716e98.wav",100
Sample,118080,0,"712dbe86.wav",100
Sample,118200,0,"3a58c194.wav",100
Sample,118560,0,"712dbe86.wav",100
Sample,118560,0,"ea716e98.wav",100
Sample,119040,0,"712dbe86.wav",100
Sample,119280,0,"bed986a4.wav",100
Sample,119520,0,"712dbe86.wav",100
Sample,119520,0,"ea716e98.wav",100
Sample,119760,0,"bed986a4.wav",100
Sample,120000,0,"712dbe86.wav",100
Sample,120240,0,"bed986a4.wav",100
Sample,120480,0,"712dbe86.wav",100
Sample,120480,0,"ea716e98.wav",100
Sample,120720,0,"bed986a4.wav",100
Sample,120840,0,"3a58c194.wav",100
Sample,121200,0,"bed986a4.wav",100
Sample,121680,0,"bed986a4.wav",100
Sample,122160,0,"bed986a4.wav",100
Sample,122640,0,"bed986a4.wav",100
Sample,123120,0,"ea716e98.wav",100
Sample,123600,0,"ea716e98.wav",100
Sample,124260,0,"712dbe86.wav",100
Sample,124800,0,"759192e2.wav",100
Sample,125160,0,"1a91fc11.wav",100
Sample,125280,0,"dc7b7b1c.wav",100
Sample,125520,0,"bf922388.wav",100
Sample,126000,0,"a7efa223.wav",100
Sample,126240,0,"fea97582.wav",100
Sample,126480,0,"4a6333b3.wav",100
Sample,126600,0,"3a58c194.wav",100
Sample,126720,0,"759192e2.wav",100
Sample,127080,0,"1a91fc11.wav",100
Sample,127200,0,"dc7b7b1c.wav",100
Sample,127440,0,"bf922388.wav",100
Sample,127800,0,"3a58c194.wav",100
Sample,127920,0,"a7efa223.wav",100
Sample,128160,0,"fea97582.wav",100
Sample,128400,0,"4a6333b3.wav",100
Sample,128640,0,"6d72c9f8.wav",100
Sample,129000,0,"cae83a9a.wav",100
Sample,129120,0,"ed089586.wav",100
Sample,129360,0,"7d1a1742.wav",100
Sample,129840,0,"aa5209ef.wav",100
Sample,130080,0,"fbcc8a0c.wav",100
Sample,130440,0,"3a58c194.wav",100
Sample,130560,0,"6d72c9f8.wav",100
Sample,130920,0,"cae83a9a.wav",100
Sample,131040,0,"ed089586.wav",100
Sample,131280,0,"7d1a1742.wav",100
Sample,131640,0,"4cd101d2.wav",100
Sample,131760,0,"aa5209ef.wav",100
Sample,131760,0,"89a8ace8.wav",100
Sample,131880,0,"83aa5713.wav",100
Sample,132000,0,"fbcc8a0c.wav",100
Sample,132000,0,"abc4b957.wav",100
Sample,132120,0,"c2cac3fe.wav",100
Sample,132240,0,"1f6344b1.wav",100
Sample,132360,0,"e6168002.wav",100
Sample,132480,0,"759192e2.wav",100
Sample,132840,0,"1a91fc11.wav",100
Sample,132960,0,"dc7b7b1c.wav",100
Sample,133200,0,"bf922388.wav",100
Sample,133680,0,"a7efa223.wav",100
Sample,133920,0,"fea97582.wav",100
Sample,134160,0,"4a6333b3.wav",100
Sample,134280,0,"3a58c194.wav",100
Sample,134400,0,"759192e2.wav",100
Sample,134760,0,"1a91fc11.wav",100
Sample,134880,0,"dc7b7b1c.wav",100
Sample,135120,0,"bf922388.wav",100
Sample,135480,0,"3a58c194.wav",100
Sample,135600,0,"a7efa223.wav",100
Sample,135840,0,"fea97582.wav",100
Sample,136080,0,"4a6333b3.wav",100
Sample,136320,0,"6d72c9f8.wav",100
Sample,136680,0,"cae83a9a.wav",100
Sample,136800,0,"ed089586.wav",100
Sample,137040,0,"7d1a1742.wav",100
Sample,137520,0,"aa5209ef.wav",100
Sample,137760,0,"fbcc8a0c.wav",100
Sample,138120,0,"3a58c194.wav",100
Sample,138240,0,"901f6d2a.wav",100
Sample,138600,0,"5c34c089.wav",100
Sample,138660,0,"d6878a4.wav",100
Sample,138960,0,"45d6ffc1.wav",100
Sample,139440,0,"18252d82.wav",100
Sample,139680,0,"602e460b.wav",100
Sample,139920,0,"dc445f62.wav",100
Sample,140160,0,"712dbe86.wav",100
Sample,140640,0,"712dbe86.wav",100
Sample,141120,0,"712dbe86.wav",100
Sample,141600,0,"712dbe86.wav",100
Sample,141960,0,"3a58c194.wav",100
Sample,142080,0,"712dbe86.wav",100
Sample,142560,0,"712dbe86.wav",100
Sample,143040,0,"712dbe86.wav",100
Sample,143160,0,"3a58c194.wav",100
Sample,143520,0,"712dbe86.wav",100
Sample,144480,0,"ea716e98.wav",100
Sample,144840,0,"d6878a4.wav",100
Sample,144900,0,"d6878a4.wav",100
Sample,144960,0,"ea716e98.wav",100
Sample,145320,0,"3a58c194.wav",100
Sample,146400,0,"ea716e98.wav",100
Sample,147000,0,"3a58c194.wav",100
Sample,147360,0,"ea716e98.wav",100
Sample,148320,0,"ea716e98.wav",100
Sample,149280,0,"ea716e98.wav",100
Sample,149640,0,"3a58c194.wav",100
Sample,150240,0,"ea716e98.wav",100
Sample,150840,0,"3a58c194.wav",100
Sample,151200,0,"ea716e98.wav",100
Sample,151920,0,"bed986a4.wav",100
Sample,152400,0,"bed986a4.wav",100
Sample,152880,0,"bed986a4.wav",100
Sample,153360,0,"bed986a4.wav",100
Sample,153840,0,"bed986a4.wav",100
Sample,154320,0,"bed986a4.wav",100
Sample,154980,0,"d6878a4.wav",100
Sample,155040,0,"9816e6e.wav",100
Sample,155280,0,"95bce59.wav",100
Sample,155400,0,"3a58c194.wav",100

[TimingPoints]
0,480,4,2,2,100,1,0
53760,-100,4,2,2,100,0,1
72960,-200,4,2,2,100,0,1
73200,-66.6666666666667,4,2,2,100,0,1
73440,-200,4,2,2,100,0,1
73680,-66.6666666666667,4,2,2,100,0,1
73920,-200,4,2,2,100,0,1
74100,-66.6666666666667,4,2,2,100,0,1
74280,-200,4,2,2,100,0,1
74460,-66.6666666666667,4,2,2,100,0,1
74640,-100,4,2,2,100,0,1
88320,-100,4,2,2,100,0,0
124800,-100,4,2,2,100,0,1
144000,-200,4,2,2,100,0,1
144240,-66.6666666666667,4,2,2,100,0,1
144480,-200,4,2,2,100,0,1
144720,-66.6666666666667,4,2,2,100,0,1
144960,-200,4,2,2,100,0,1
145140,-66.6666666666667,4,2,2,100,0,1
145320,-200,4,2,2,100,0,1
145500,-66.6666666666667,4,2,2,100,0,1
145680,-100,4,2,2,100,0,1
155280,-100,4,2,2,100,0,0

[HitObjects]
256,192,1920,5,0,0:0:0:100:9be004c4.wav
402,192,2160,1,0,0:0:0:100:c1c27204.wav
36,192,2400,1,0,0:0:0:100:ea716e98.wav
182,192,2400,1,0,0:0:0:100:f3e6a107.wav
475,192,2640,1,0,0:0:0:100:6c282465.wav
109,192,2880,1,0,0:0:0:100:57c00921.wav
256,192,3120,1,0,0:0:0:100:3a58c194.wav
402,192,3120,1,0,0:0:0:100:ba3b8c36.wav
182,192,3360,1,0,0:0:0:100:b1580850.wav
329,192,3600,128,0,3840:0:0:0:100:65bbb22f.wav
36,192,3840,1,0,0:0:0:100:f5ea345d.wav
475,192,4080,1,0,0:0:0:100:b808349b.wav
256,192,4200,1,0,0:0:0:100:2af13a93.wav
109,192,4320,1,0,0:0:0:100:9deab17.wav
329,192,4440,1,0,0:0:0:100:1fc2a369.wav
182,192,4560,128,0,4800:0:0:0:100:3db11b70.wav
402,192,4800,1,0,0:0:0:100:d690cb39.wav
256,192,4920,1,0,0:0:0:100:965236.wav
475,192,5040,1,0,0:0:0:100:ffc5c44a.wav
36,192,5280,1,0,0:0:0:100:76e084c1.wav
329,192,5520,1,0,0:0:0:100:91c61e21.wav
109,192,5640,1,0,0:0:0:100:8c43e246.wav
256,192,5760,1,0,0:0:0:100:2c94f196.wav
402,192,6000,1,0,0:0:0:100:ce7e69bb.wav
36,192,6240,1,0,0:0:0:100:ea716e98.wav
182,192,6240,1,0,0:0:0:100:9dbd5d03.wav
475,192,6480,1,0,0:0:0:100:1b65962f.wav
109,192,6840,1,0,0:0:0:100:cdefc78d.wav
256,192,6960,1,0,0:0:0:100:3a58c194.wav
402,192,6960,1,0,0:0:0:100:efa9f4a4.wav
182,192,7080,1,0,0:0:0:100:472de6dd.wav
329,192,7200,1,0,0:0:0:100:f94ff571.wav
109,192,7320,1,0,0:0:0:100:30b9666f.wav
402,192,7440,1,0,0:0:0:100:cef65e3f.wav
36,192,7560,1,0,0:0:0:100:424bf3b2.wav
475,192,7680,1,0,0:0:0:100:2416d29d.wav
256,192,8640,128,0,9600:0:0:0:100:4f8ced7e.wav
182,192,9600,1,0,0:0:0:100:9d23b55a.wav
329,192,9600,1,0,0:0:0:100:712dbe86.wav
475,192,9600,1,0,0:0:0:100:833350f0.wav
109,192,9840,1,0,0:0:0:100:cfb9ea1.wav
256,192,9840,1,0,0:0:0:100:712dbe86.wav
402,192,9840,1,0,0:0:0:100:5fd1cb9.wav
36,192,10320,1,0,0:0:0:100:55186916.wav
182,192,10320,1,0,0:0:0:100:712dbe86.wav
329,192,10320,1,0,0:0:0:100:65dbf652.wav
109,192,10800,1,0,0:0:0:100:ceca1fc6.wav
256,192,10800,1,0,0:0:0:100:712dbe86.wav
402,192,10800,1,0,0:0:0:100:bb81506d.wav
182,192,11280,128,0,11760:0:0:0:100:669778ce.wav
329,192,11280,128,0,11760:0:0:0:100:712dbe86.wav
475,192,11280,128,0,11760:0:0:0:100:79f605e1.wav
109,192,11760,1,0,0:0:0:100:e836cf7c.wav
256,192,11760,1,0,0:0:0:100:712dbe86.wav
402,192,11760,1,0,0:0:0:100:35866715.wav
36,192,12240,1,0,0:0:0:100:c9ae39f6.wav
182,192,12240,1,0,0:0:0:100:712dbe86.wav
329,192,12240,1,0,0:0:0:100:6ded3de5.wav
182,192,12720,1,0,0:0:0:100:5b29220b.wav
329,192,12720,1,0,0:0:0:100:712dbe86.wav
475,192,12720,1,0,0:0:0:100:b656dae1.wav
182,192,13080,1,0,0:0:0:100:e7ad46fa.wav
329,192,13080,1,0,0:0:0:100:712dbe86.wav
475,192,13080,1,0,0:0:0:100:cd55cf77.wav
109,192,13440,1,0,0:0:0:100:712dbe86.wav
256,192,13440,1,0,0:0:0:100:6af82d7a.wav
402,192,13440,128,0,13920:0:0:0:100:5f5c8cae.wav
36,192,13920,1,0,0:0:0:100:712dbe86.wav
182,192,13920,1,0,0:0:0:100:ea716e98.wav
256,192,14160,1,0,0:0:0:100:977c65db.wav
329,192,14280,1,0,0:0:0:100:857e62c0.wav
109,192,14400,1,0,0:0:0:100:712dbe86.wav
402,192,14400,1,0,0:0:0:100:a4b74d2b.wav
329,192,14640,1,0,0:0:0:100:7abdc562.wav
36,192,14880,1,0,0:0:0:100:712dbe86.wav
182,192,14880,1,0,0:0:0:100:ea716e98.wav
402,192,14880,1,0,0:0:0:100:8b2afa78.wav
475,192,15000,1,0,0:0:0:100:e77caf0b.wav
109,192,15240,1,0,0:0:0:100:3a58c194.wav
256,192,15240,1,0,0:0:0:100:f9eaecc8.wav
36,192,15360,1,0,0:0:0:100:712dbe86.wav
329,192,15360,128,0,16080:0:0:0:100:44bcb28e.wav
182,192,15840,1,0,0:0:0:100:ea716e98.wav
36,192,16080,1,0,0:0:0:100:712dbe86.wav
475,192,16080,128,0,16560:0:0:0:100:2162c049.wav
109,192,16560,1,0,0:0:0:100:712dbe86.wav
402,192,16560,1,0,0:0:0:100:b12a3c74.wav
36,192,16800,128,0,17040:0:0:0:100:67fa8afc.wav
182,192,16800,1,0,0:0:0:100:ea716e98.wav
329,192,17040,1,0,0:0:0:100:f085db8d.wav
109,192,17280,1,0,0:0:0:50:f6733b1b.wav
256,192,17280,1,0,0:0:0:50:f6733b1b.wav
475,192,17280,1,0,0:0:0:100:712dbe86.wav
109,192,17640,1,0,0:0:0:50:2f5821e2.wav
256,192,17640,1,0,0:0:0:50:2f5821e2.wav
475,192,17760,1,0,0:0:0:100:712dbe86.wav
36,192,18000,1,0,0:0:0:100:b6cd1fb1.wav
109,192,18120,1,0,0:0:0:100:6a92e14c.wav
182,192,18240,128,0,18480:0:0:0:50:712dbe86.wav
475,192,18240,1,0,0:0:0:50:712dbe86.wav
256,192,18480,1,0,0:0:0:100:66e8e408.wav
256,192,18720,128,0,18960:0:0:0:100:4de405ce.wav
475,192,18720,1,0,0:0:0:100:712dbe86.wav
182,192,18960,1,0,0:0:0:100:30bb978d.wav
256,192,19080,1,0,0:0:0:100:71581166.wav
109,192,19200,1,0,0:0:0:100:712dbe86.wav
329,192,19200,1,0,0:0:0:50:74f40756.wav
475,192,19200,1,0,0:0:0:50:74f40756.wav
329,192,19560,1,0,0:0:0:50:2e7cdb28.wav
475,192,19560,1,0,0:0:0:50:2e7cdb28.wav
109,192,19680,1,0,0:0:0:100:712dbe86.wav
329,192,19920,1,0,0:0:0:50:54d08a6f.wav
475,192,19920,1,0,0:0:0:50:54d08a6f.wav
109,192,20160,1,0,0:0:0:100:712dbe86.wav
402,192,20400,1,0,0:0:0:100:7fe08bc2.wav
109,192,20640,1,0,0:0:0:100:712dbe86.wav
256,192,20640,1,0,0:0:0:100:717b72a6.wav
329,192,20880,1,0,0:0:0:50:5dfd6a90.wav
475,192,20880,1,0,0:0:0:50:5dfd6a90.wav
36,192,21120,1,0,0:0:0:100:712dbe86.wav
256,192,21120,1,0,0:0:0:50:7b024886.wav
402,192,21120,1,0,0:0:0:50:7b024886.wav
256,192,21480,1,0,0:0:0:50:1170307b.wav
402,192,21480,1,0,0:0:0:50:1170307b.wav
36,192,21600,1,0,0:0:0:100:712dbe86.wav
182,192,21720,1,0,0:0:0:100:9608d141.wav
256,192,21840,1,0,0:0:0:50:b1e4a9ac.wav
402,192,21840,1,0,0:0:0:50:b1e4a9ac.wav
36,192,22080,1,0,0:0:0:100:712dbe86.wav
329,192,22320,1,0,0:0:0:100:fb7d92b5.wav
36,192,22560,1,0,0:0:0:100:712dbe86.wav
402,192,22560,128,0,22800:0:0:0:100:4d0889a4.wav
475,192,22800,1,0,0:0:0:100:9b178576.wav
36,192,23040,1,0,0:0:0:100:712dbe86.wav
329,192,23040,128,0,23280:0:0:0:100:91f4c53a.wav
182,192,23280,1,0,0:0:0:100:69678112.wav
109,192,23520,1,0,0:0:0:100:bb01e423.wav
475,192,23520,1,0,0:0:0:100:712dbe86.wav
182,192,23640,1,0,0:0:0:100:82db386e.wav
182,192,23880,128,0,24120:0:0:0:100:d96c8c0a.wav
475,192,24000,1,0,0:0:0:100:712dbe86.wav
182,192,24240,1,0,0:0:0:100:6c738db.wav
402,192,24240,1,0,0:0:0:100:71324205.wav
256,192,24480,1,0,0:0:0:100:a4445581.wav
475,192,24480,1,0,0:0:0:100:712dbe86.wav
329,192,24720,1,0,0:0:0:100:2c7c6a0e.wav
36,192,24960,1,0,0:0:0:100:712dbe86.wav
256,192,24960,1,0,0:0:0:50:6337c726.wav
402,192,24960,1,0,0:0:0:50:6337c726.wav
256,192,25320,1,0,0:0:0:50:fa62abb5.wav
402,192,25320,1,0,0:0:0:50:fa62abb5.wav
36,192,25440,1,0,0:0:0:100:712dbe86.wav
109,192,25560,1,0,0:0:0:100:254d4df.wav
182,192,25680,1,0,0:0:0:100:4f6aff2.wav
256,192,25800,1,0,0:0:0:100:6a92e14c.wav
36,192,25920,1,0,0:0:0:50:712dbe86.wav
329,192,25920,128,0,26160:0:0:0:50:712dbe86.wav
475,192,26160,1,0,0:0:0:100:66e8e408.wav
36,192,26400,1,0,0:0:0:100:712dbe86.wav
475,192,26400,128,0,26640:0:0:0:100:4de405ce.wav
182,192,26640,1,0,0:0:0:100:30bb978d.wav
475,192,26760,1,0,0:0:0:100:71581166.wav
109,192,26880,1,0,0:0:0:100:712dbe86.wav
256,192,26880,1,0,0:0:0:50:52f07a00.wav
402,192,26880,1,0,0:0:0:50:52f07a00.wav
256,192,27240,1,0,0:0:0:50:824e106b.wav
402,192,27240,1,0,0:0:0:50:824e106b.wav
109,192,27360,1,0,0:0:0:100:712dbe86.wav
256,192,27600,1,0,0:0:0:50:6ecef8d0.wav
402,192,27600,1,0,0:0:0:50:6ecef8d0.wav
109,192,27840,1,0,0:0:0:100:712dbe86.wav
329,192,28080,1,0,0:0:0:50:77463be4.wav
475,192,28080,1,0,0:0:0:50:77463be4.wav
109,192,28320,1,0,0:0:0:100:712dbe86.wav
329,192,28440,1,0,0:0:0:50:f010d78a.wav
475,192,28440,1,0,0:0:0:50:f010d78a.wav
256,192,28560,1,0,0:0:0:100:2ca097f5.wav
36,192,28800,1,0,0:0:0:50:ebb63927.wav
182,192,28800,1,0,0:0:0:50:ebb63927.wav
402,192,28800,1,0,0:0:0:100:712dbe86.wav
109,192,28920,1,0,0:0:0:50:a6582d08.wav
256,192,28920,1,0,0:0:0:50:a6582d08.wav
36,192,29160,1,0,0:0:0:50:4fb819c9.wav
182,192,29160,1,0,0:0:0:50:4fb819c9.wav
402,192,29280,1,0,0:0:0:100:712dbe86.wav
36,192,29520,1,0,0:0:0:50:f87a3c06.wav
182,192,29520,1,0,0:0:0:50:f87a3c06.wav
402,192,29760,1,0,0:0:0:100:712dbe86.wav
256,192,30000,1,0,0:0:0:100:fb7d92b5.wav
109,192,30240,1,0,0:0:0:100:712dbe86.wav
329,192,30240,128,0,30480:0:0:0:100:4d0889a4.wav
475,192,30480,1,0,0:0:0:100:9b178576.wav
182,192,30720,1,0,0:0:0:100:712dbe86.wav
402,192,30720,128,0,30960:0:0:0:100:91f4c53a.wav
256,192,30960,1,0,0:0:0:100:69678112.wav
36,192,31080,1,0,0:0:0:100:d1238ca5.wav
109,192,31200,1,0,0:0:0:100:8fa847a5.wav
475,192,31200,1,0,0:0:0:100:712dbe86.wav
329,192,31320,1,0,0:0:0:100:5aec6d8c.wav
182,192,31440,1,0,0:0:0:100:5db5dd3d.wav
402,192,31560,128,0,31800:0:0:0:100:eeb3e5dd.wav
109,192,31680,1,0,0:0:0:100:712dbe86.wav
402,192,31920,1,0,0:0:0:100:fc114d17.wav
109,192,32160,1,0,0:0:0:100:712dbe86.wav
329,192,32160,128,0,32400:0:0:0:100:a7df391e.wav
256,192,32400,1,0,0:0:0:100:4270494f.wav
256,192,32640,128,0,33120:0:0:0:100:b0f58edd.wav
475,192,32640,1,0,0:0:0:100:712dbe86.wav
36,192,33120,1,0,0:0:0:100:f3a91e47.wav
475,192,33120,1,0,0:0:0:100:712dbe86.wav
36,192,33480,1,0,0:0:0:100:a399b79.wav
475,192,33600,1,0,0:0:0:100:712dbe86.wav
182,192,33720,1,0,0:0:0:100:4e39d1b7.wav
36,192,33840,1,0,0:0:0:100:22cdb34c.wav
329,192,33840,1,0,0:0:0:100:f39b9f0e.wav
182,192,33960,1,0,0:0:0:100:a2485e5.wav
475,192,34080,1,0,0:0:0:100:913ebea5.wav
36,192,34200,1,0,0:0:0:100:4df4c4ef.wav
182,192,34200,1,0,0:0:0:100:654734e1.wav
329,192,34320,1,0,0:0:0:100:187fe26b.wav
182,192,34440,1,0,0:0:0:100:ae0d8550.wav
256,192,34560,1,0,0:0:0:100:712dbe86.wav
109,192,35040,1,0,0:0:0:100:84b36206.wav
256,192,35040,1,0,0:0:0:100:712dbe86.wav
109,192,35400,1,0,0:0:0:100:7f3698f9.wav
256,192,35520,1,0,0:0:0:100:712dbe86.wav
329,192,35640,1,0,0:0:0:100:4cd101d2.wav
109,192,35760,1,0,0:0:0:100:a6806ce0.wav
402,192,35760,1,0,0:0:0:100:89a8ace8.wav
475,192,35880,1,0,0:0:0:100:83aa5713.wav
109,192,36000,1,0,0:0:0:100:4f7f49bd.wav
402,192,36000,1,0,0:0:0:100:abc4b957.wav
329,192,36120,1,0,0:0:0:100:c2cac3fe.wav
36,192,36240,1,0,0:0:0:100:25a1b267.wav
256,192,36240,1,0,0:0:0:100:1f6344b1.wav
182,192,36360,1,0,0:0:0:100:e6168002.wav
475,192,36480,1,0,0:0:0:100:712dbe86.wav
256,192,36960,1,0,0:0:0:100:cabd5796.wav
475,192,36960,1,0,0:0:0:100:712dbe86.wav
256,192,37320,1,0,0:0:0:100:c8dad89a.wav
475,192,37440,1,0,0:0:0:100:712dbe86.wav
109,192,37560,1,0,0:0:0:100:4e39d1b7.wav
256,192,37680,1,0,0:0:0:100:2abbf7c1.wav
402,192,37680,1,0,0:0:0:100:f39b9f0e.wav
109,192,37800,1,0,0:0:0:100:a2485e5.wav
329,192,37920,1,0,0:0:0:100:913ebea5.wav
109,192,38040,1,0,0:0:0:100:654734e1.wav
256,192,38160,1,0,0:0:0:100:f0bed61b.wav
402,192,38160,1,0,0:0:0:100:187fe26b.wav
109,192,38280,1,0,0:0:0:100:ae0d8550.wav
182,192,38400,1,0,0:0:0:100:712dbe86.wav
36,192,38880,1,0,0:0:0:100:ea716e98.wav
182,192,38880,1,0,0:0:0:100:712dbe86.wav
329,192,38880,128,0,40080:0:0:0:100:ef12ecd5.wav
475,192,39120,128,0,40080:0:0:0:100:bed986a4.wav
182,192,39360,1,0,0:0:0:100:712dbe86.wav
36,192,39480,1,0,0:0:0:100:3a58c194.wav
36,192,39840,1,0,0:0:0:100:ea716e98.wav
182,192,39840,1,0,0:0:0:100:712dbe86.wav
109,192,40320,1,0,0:0:0:100:712dbe86.wav
256,192,40320,1,0,0:0:0:100:88b6fb94.wav
109,192,40800,1,0,0:0:0:100:ea716e98.wav
256,192,40800,1,0,0:0:0:100:d9e7303f.wav
182,192,41040,1,0,0:0:0:100:712dbe86.wav
329,192,41040,1,0,0:0:0:100:c911f9da.wav
475,192,41160,1,0,0:0:0:100:3a58c194.wav
475,192,41400,1,0,0:0:0:100:3a58c194.wav
182,192,41520,1,0,0:0:0:100:712dbe86.wav
329,192,41520,1,0,0:0:0:100:a6e44703.wav
36,192,41760,1,0,0:0:0:100:712dbe86.wav
256,192,42000,128,0,43680:0:0:0:100:5000b885.wav
402,192,42000,128,0,43680:0:0:0:100:5835b820.wav
109,192,42240,1,0,0:0:0:100:712dbe86.wav
109,192,42720,1,0,0:0:0:100:712dbe86.wav
109,192,43200,1,0,0:0:0:100:712dbe86.wav
109,192,43680,1,0,0:0:0:100:712dbe86.wav
256,192,44160,1,0,0:0:0:50:6ce8e82a.wav
329,192,44160,1,0,0:0:0:50:6ce8e82a.wav
256,192,44520,1,0,0:0:0:50:8f9ca7df.wav
329,192,44520,1,0,0:0:0:50:8f9ca7df.wav
36,192,44640,1,0,0:0:0:100:5f91d348.wav
256,192,44880,1,0,0:0:0:50:30da387e.wav
329,192,44880,1,0,0:0:0:50:30da387e.wav
36,192,45000,1,0,0:0:0:100:59ca42c0.wav
36,192,45360,1,0,0:0:0:100:f2f55eca.wav
182,192,45360,1,0,0:0:0:100:d4d05535.wav
256,192,45600,1,0,0:0:0:50:3a610d1c.wav
329,192,45600,1,0,0:0:0:50:3a610d1c.wav
36,192,45720,1,0,0:0:0:100:669b3ea3.wav
182,192,45840,1,0,0:0:0:100:236eecf0.wav
329,192,46080,1,0,0:0:0:50:b3c471c9.wav
402,192,46080,1,0,0:0:0:50:b3c471c9.wav
329,192,46440,1,0,0:0:0:50:ef5f026.wav
402,192,46440,1,0,0:0:0:50:ef5f026.wav
109,192,46560,1,0,0:0:0:100:5f91d348.wav
329,192,46800,1,0,0:0:0:50:1c683d74.wav
402,192,46800,1,0,0:0:0:50:1c683d74.wav
109,192,46920,1,0,0:0:0:100:59ca42c0.wav
109,192,47280,1,0,0:0:0:100:f2f55eca.wav
256,192,47280,1,0,0:0:0:100:48683211.wav
329,192,47520,1,0,0:0:0:50:1a15f9d8.wav
402,192,47520,1,0,0:0:0:50:1a15f9d8.wav
109,192,47640,1,0,0:0:0:100:669b3ea3.wav
256,192,47760,1,0,0:0:0:100:becc4da7.wav
402,192,48000,1,0,0:0:0:50:ed0e922b.wav
475,192,48000,1,0,0:0:0:50:ed0e922b.wav
402,192,48360,1,0,0:0:0:50:fc930b94.wav
475,192,48360,1,0,0:0:0:50:fc930b94.wav
182,192,48480,1,0,0:0:0:100:5f91d348.wav
402,192,48720,1,0,0:0:0:50:d8f88499.wav
475,192,48720,1,0,0:0:0:50:d8f88499.wav
182,192,48840,1,0,0:0:0:100:59ca42c0.wav
182,192,49200,1,0,0:0:0:100:f2f55eca.wav
329,192,49200,1,0,0:0:0:100:1128a9be.wav
402,192,49440,1,0,0:0:0:50:c2b6bf3a.wav
475,192,49440,1,0,0:0:0:50:c2b6bf3a.wav
182,192,49560,1,0,0:0:0:100:669b3ea3.wav
329,192,49680,1,0,0:0:0:100:2e656cfe.wav
36,192,49920,1,0,0:0:0:100:712dbe86.wav
475,192,50160,1,0,0:0:0:100:34c1c938.wav
36,192,50400,1,0,0:0:0:100:712dbe86.wav
182,192,50400,1,0,0:0:0:100:ea716e98.wav
475,192,50400,1,0,0:0:0:100:2efb2866.wav
329,192,50640,1,0,0:0:0:100:10f36de3.wav
36,192,50880,1,0,0:0:0:100:712dbe86.wav
475,192,50880,1,0,0:0:0:100:522b726e.wav
329,192,51120,1,0,0:0:0:100:c272b210.wav
475,192,51240,128,0,51480:0:0:0:100:36bb6ef0.wav
36,192,51360,1,0,0:0:0:100:712dbe86.wav
182,192,51360,1,0,0:0:0:100:ea716e98.wav
402,192,51720,1,0,0:0:0:100:3a58c194.wav
109,192,51840,1,0,0:0:0:100:fc5dc8a6.wav
256,192,51840,1,0,0:0:0:100:712dbe86.wav
329,192,52080,1,0,0:0:0:100:712dbe86.wav
475,192,52080,1,0,0:0:0:100:b76529c2.wav
36,192,52320,1,0,0:0:0:100:8a70c0a7.wav
182,192,52320,1,0,0:0:0:100:712dbe86.wav
256,192,52560,1,0,0:0:0:100:a5855ad1.wav
402,192,52560,1,0,0:0:0:100:712dbe86.wav
182,192,52800,1,0,0:0:0:100:ea716e98.wav
329,192,52800,1,0,0:0:0:100:712dbe86.wav
402,192,53160,1,0,0:0:0:100:712dbe86.wav
109,192,53280,1,0,0:0:0:100:712dbe86.wav
402,192,53400,1,0,0:0:0:100:712dbe86.wav
109,192,53520,1,0,0:0:0:100:712dbe86.wav
402,192,53640,1,0,0:0:0:100:712dbe86.wav
36,192,53760,1,0,0:0:0:100:712dbe86.wav
329,192,54000,1,0,0:0:0:100:bed986a4.wav
36,192,54240,1,0,0:0:0:100:712dbe86.wav
182,192,54240,1,0,0:0:0:100:ea716e98.wav
329,192,54480,1,0,0:0:0:100:bed986a4.wav
36,192,54720,1,0,0:0:0:100:712dbe86.wav
256,192,54840,1,0,0:0:0:100:4e39d1b7.wav
402,192,54960,1,0,0:0:0:100:f39b9f0e.wav
256,192,55080,1,0,0:0:0:100:a2485e5.wav
36,192,55200,1,0,0:0:0:100:712dbe86.wav
182,192,55200,1,0,0:0:0:100:ea716e98.wav
475,192,55200,1,0,0:0:0:100:913ebea5.wav
256,192,55320,1,0,0:0:0:100:654734e1.wav
402,192,55440,1,0,0:0:0:100:187fe26b.wav
109,192,55560,1,0,0:0:0:100:3a58c194.wav
256,192,55560,1,0,0:0:0:100:ae0d8550.wav
329,192,55680,1,0,0:0:0:100:712dbe86.wav
182,192,55920,1,0,0:0:0:100:bed986a4.wav
329,192,56160,1,0,0:0:0:100:712dbe86.wav
475,192,56160,1,0,0:0:0:100:ea716e98.wav
182,192,56400,1,0,0:0:0:100:bed986a4.wav
256,192,56640,1,0,0:0:0:100:712dbe86.wav
109,192,56760,1,0,0:0:0:100:3a58c194.wav
329,192,56760,1,0,0:0:0:100:4cd101d2.wav
402,192,56880,1,0,0:0:0:100:89a8ace8.wav
475,192,57000,1,0,0:0:0:100:83aa5713.wav
36,192,57120,1,0,0:0:0:100:ea716e98.wav
182,192,57120,1,0,0:0:0:100:712dbe86.wav
402,192,57120,1,0,0:0:0:100:abc4b957.wav
329,192,57240,1,0,0:0:0:100:c2cac3fe.wav
256,192,57360,1,0,0:0:0:100:1f6344b1.wav
109,192,57480,1,0,0:0:0:100:e6168002.wav
402,192,57600,1,0,0:0:0:100:712dbe86.wav
36,192,57840,1,0,0:0:0:100:bed986a4.wav
256,192,58080,1,0,0:0:0:100:ea716e98.wav
402,192,58080,1,0,0:0:0:100:712dbe86.wav
36,192,58320,1,0,0:0:0:100:bed986a4.wav
329,192,58560,1,0,0:0:0:100:712dbe86.wav
109,192,58680,1,0,0:0:0:100:4e39d1b7.wav
256,192,58800,1,0,0:0:0:100:f39b9f0e.wav
109,192,58920,1,0,0:0:0:100:a2485e5.wav
182,192,59040,1,0,0:0:0:100:ea716e98.wav
329,192,59040,1,0,0:0:0:100:712dbe86.wav
475,192,59040,1,0,0:0:0:100:913ebea5.wav
109,192,59160,1,0,0:0:0:100:654734e1.wav
256,192,59280,1,0,0:0:0:100:187fe26b.wav
109,192,59400,1,0,0:0:0:100:ae0d8550.wav
402,192,59400,1,0,0:0:0:100:3a58c194.wav
36,192,59520,1,0,0:0:0:100:712dbe86.wav
475,192,59760,1,0,0:0:0:100:bed986a4.wav
36,192,60000,1,0,0:0:0:100:712dbe86.wav
182,192,60000,1,0,0:0:0:100:ea716e98.wav
256,192,60240,1,0,0:0:0:100:10a1c294.wav
475,192,60240,1,0,0:0:0:100:bed986a4.wav
329,192,60360,1,0,0:0:0:100:1616289.wav
36,192,60480,1,0,0:0:0:100:712dbe86.wav
402,192,60480,1,0,0:0:0:100:5775b845.wav
109,192,60600,1,0,0:0:0:100:3a58c194.wav
182,192,60720,1,0,0:0:0:100:bed986a4.wav
329,192,60720,1,0,0:0:0:100:6ecd7690.wav
36,192,60960,1,0,0:0:0:100:712dbe86.wav
256,192,60960,1,0,0:0:0:100:ea716e98.wav
402,192,60960,1,0,0:0:0:100:f6753c9.wav
475,192,61080,1,0,0:0:0:100:56c351cb.wav
109,192,61200,1,0,0:0:0:100:bed986a4.wav
256,192,61320,1,0,0:0:0:100:3a58c194.wav
402,192,61320,1,0,0:0:0:100:e84a825c.wav
182,192,61440,1,0,0:0:0:100:712dbe86.wav
475,192,61680,1,0,0:0:0:100:bed986a4.wav
182,192,61920,1,0,0:0:0:100:712dbe86.wav
402,192,61920,1,0,0:0:0:100:ea716e98.wav
475,192,62160,1,0,0:0:0:100:bed986a4.wav
182,192,62400,1,0,0:0:0:100:712dbe86.wav
329,192,62520,1,0,0:0:0:100:4e39d1b7.wav
109,192,62640,1,0,0:0:0:100:f39b9f0e.wav
329,192,62760,1,0,0:0:0:100:a2485e5.wav
36,192,62880,1,0,0:0:0:100:913ebea5.wav
182,192,62880,1,0,0:0:0:100:712dbe86.wav
475,192,62880,1,0,0:0:0:100:ea716e98.wav
329,192,63000,1,0,0:0:0:100:654734e1.wav
109,192,63120,1,0,0:0:0:100:187fe26b.wav
329,192,63240,1,0,0:0:0:100:ae0d8550.wav
475,192,63240,1,0,0:0:0:100:3a58c194.wav
256,192,63360,1,0,0:0:0:100:712dbe86.wav
36,192,63600,1,0,0:0:0:100:bed986a4.wav
256,192,63840,1,0,0:0:0:100:712dbe86.wav
402,192,63840,1,0,0:0:0:100:ea716e98.wav
36,192,64080,1,0,0:0:0:100:bed986a4.wav
256,192,64320,1,0,0:0:0:100:712dbe86.wav
109,192,64440,1,0,0:0:0:100:3a58c194.wav
329,192,64440,1,0,0:0:0:100:4cd101d2.wav
402,192,64560,1,0,0:0:0:100:89a8ace8.wav
475,192,64680,1,0,0:0:0:100:83aa5713.wav
36,192,64800,1,0,0:0:0:100:712dbe86.wav
256,192,64800,1,0,0:0:0:100:abc4b957.wav
402,192,64800,1,0,0:0:0:100:ea716e98.wav
182,192,64920,1,0,0:0:0:100:c2cac3fe.wav
109,192,65040,1,0,0:0:0:100:1f6344b1.wav
36,192,65160,1,0,0:0:0:100:e6168002.wav
329,192,65280,1,0,0:0:0:100:712dbe86.wav
36,192,65520,1,0,0:0:0:100:bed986a4.wav
329,192,65760,1,0,0:0:0:100:712dbe86.wav
475,192,65760,1,0,0:0:0:100:ea716e98.wav
36,192,66000,1,0,0:0:0:100:bed986a4.wav
329,192,66240,1,0,0:0:0:100:712dbe86.wav
402,192,66360,1,0,0:0:0:100:4e39d1b7.wav
109,192,66480,1,0,0:0:0:100:f39b9f0e.wav
402,192,66600,1,0,0:0:0:100:a2485e5.wav
36,192,66720,1,0,0:0:0:100:ea716e98.wav
182,192,66720,1,0,0:0:0:100:913ebea5.wav
329,192,66720,1,0,0:0:0:100:712dbe86.wav
402,192,66840,1,0,0:0:0:100:654734e1.wav
109,192,66960,1,0,0:0:0:100:187fe26b.wav
256,192,67080,1,0,0:0:0:100:3a58c194.wav
402,192,67080,1,0,0:0:0:100:ae0d8550.wav
475,192,67200,1,0,0:0:0:100:712dbe86.wav
329,192,67440,1,0,0:0:0:100:bed986a4.wav
182,192,67560,1,0,0:0:0:100:d6878a4.wav
36,192,67680,1,0,0:0:0:100:3a58c194.wav
475,192,67680,1,0,0:0:0:100:712dbe86.wav
182,192,67920,1,0,0:0:0:100:ea716e98.wav
329,192,67920,1,0,0:0:0:100:bed986a4.wav
475,192,68160,1,0,0:0:0:100:712dbe86.wav
36,192,68280,1,0,0:0:0:100:3a58c194.wav
329,192,68400,1,0,0:0:0:100:bed986a4.wav
182,192,68640,1,0,0:0:0:100:ea716e98.wav
475,192,68640,1,0,0:0:0:100:712dbe86.wav
329,192,68880,1,0,0:0:0:100:bed986a4.wav
36,192,69000,1,0,0:0:0:100:3a58c194.wav
402,192,69120,1,0,0:0:0:100:ee36e226.wav
402,192,69480,1,0,0:0:0:100:eccacf74.wav
36,192,69600,1,0,0:0:0:50:e27f2438.wav
182,192,69600,1,0,0:0:0:50:e27f2438.wav
329,192,69600,1,0,0:0:0:100:1017a3f1.wav
475,192,69840,1,0,0:0:0:100:d9633de8.wav
36,192,69960,1,0,0:0:0:50:539bb826.wav
182,192,69960,1,0,0:0:0:50:539bb826.wav
36,192,70320,128,0,70920:0:0:0:50:3a79635e.wav
182,192,70320,128,0,70920:0:0:0:50:3a79635e.wav
402,192,70320,1,0,0:0:0:100:a55525b2.wav
475,192,70560,1,0,0:0:0:100:1f94dfc3.wav
329,192,70800,1,0,0:0:0:100:748935c6.wav
109,192,71040,1,0,0:0:0:100:c0388a16.wav
36,192,71280,1,0,0:0:0:100:26947e99.wav
182,192,71400,1,0,0:0:0:100:e4a34aae.wav
36,192,71520,1,0,0:0:0:100:96acf745.wav
329,192,71520,1,0,0:0:0:50:28a4a63e.wav
475,192,71520,1,0,0:0:0:50:28a4a63e.wav
109,192,71760,1,0,0:0:0:100:a26e042.wav
329,192,71880,1,0,0:0:0:50:d0d08b4f.wav
475,192,71880,1,0,0:0:0:50:d0d08b4f.wav
36,192,72240,1,0,0:0:0:100:b15bd6c3.wav
329,192,72240,128,0,72960:0:0:0:50:bcb96231.wav
475,192,72240,128,0,72960:0:0:0:50:bcb96231.wav
182,192,72480,1,0,0:0:0:100:31bf120f.wav
109,192,72720,1,0,0:0:0:100:3d5db793.wav
36,192,72960,1,0,0:0:0:100:7e0854d9.wav
402,192,72960,1,0,0:0:0:100:712dbe86.wav
109,192,73440,1,0,0:0:0:100:2cde9ee6.wav
256,192,73440,1,0,0:0:0:100:35aa4bf2.wav
402,192,73440,1,0,0:0:0:100:712dbe86.wav
36,192,73920,1,0,0:0:0:100:56a75c71.wav
182,192,73920,1,0,0:0:0:100:f504ccdd.wav
329,192,73920,1,0,0:0:0:100:712dbe86.wav
109,192,74280,1,0,0:0:0:100:6b91cea6.wav
256,192,74280,1,0,0:0:0:100:6c1b3515.wav
402,192,74280,1,0,0:0:0:100:712dbe86.wav
182,192,74640,128,0,75360:0:0:0:100:7a2495e8.wav
329,192,74640,128,0,75360:0:0:0:100:712dbe86.wav
475,192,74640,128,0,75360:0:0:0:100:ea716e98.wav
36,192,74880,1,0,0:0:0:100:712dbe86.wav
36,192,75360,1,0,0:0:0:100:712dbe86.wav
109,192,75360,1,0,0:0:0:100:77c80ee2.wav
402,192,75720,1,0,0:0:0:100:ba7b5635.wav
36,192,75840,1,0,0:0:0:100:712dbe86.wav
256,192,75840,1,0,0:0:0:100:b65a8679.wav
182,192,76080,1,0,0:0:0:50:9e5a84f4.wav
402,192,76080,1,0,0:0:0:50:9e5a84f4.wav
36,192,76320,1,0,0:0:0:100:712dbe86.wav
329,192,76320,1,0,0:0:0:100:497a2e57.wav
256,192,76440,1,0,0:0:0:50:d68b45ea.wav
475,192,76440,1,0,0:0:0:50:d68b45ea.wav
402,192,76680,1,0,0:0:0:100:3a58c194.wav
182,192,76800,1,0,0:0:0:100:712dbe86.wav
36,192,77280,1,0,0:0:0:100:4cb9bcc9.wav
182,192,77280,1,0,0:0:0:100:712dbe86.wav
36,192,77640,1,0,0:0:0:100:be2ede9c.wav
182,192,77760,1,0,0:0:0:100:712dbe86.wav
329,192,77880,1,0,0:0:0:100:4e39d1b7.wav
36,192,78000,1,0,0:0:0:100:192d4703.wav
402,192,78000,1,0,0:0:0:100:f39b9f0e.wav
329,192,78120,1,0,0:0:0:100:a2485e5.wav
182,192,78240,1,0,0:0:0:100:712dbe86.wav
475,192,78240,1,0,0:0:0:100:913ebea5.wav
36,192,78360,1,0,0:0:0:100:546bd5ac.wav
329,192,78360,1,0,0:0:0:100:654734e1.wav
402,192,78480,1,0,0:0:0:100:187fe26b.wav
329,192,78600,1,0,0:0:0:100:ae0d8550.wav
256,192,78720,1,0,0:0:0:100:712dbe86.wav
256,192,79200,1,0,0:0:0:100:712dbe86.wav
402,192,79200,1,0,0:0:0:100:e55de9d9.wav
402,192,79560,1,0,0:0:0:100:8cb695a.wav
256,192,79680,1,0,0:0:0:100:712dbe86.wav
36,192,79800,1,0,0:0:0:100:4cd101d2.wav
109,192,79920,1,0,0:0:0:100:89a8ace8.wav
475,192,79920,1,0,0:0:0:100:1399e4df.wav
182,192,80040,1,0,0:0:0:100:83aa5713.wav
256,192,80160,1,0,0:0:0:100:abc4b957.wav
329,192,80160,1,0,0:0:0:100:712dbe86.wav
475,192,80160,1,0,0:0:0:100:3e198cf7.wav
182,192,80280,1,0,0:0:0:100:c2cac3fe.wav
109,192,80400,1,0,0:0:0:100:1f6344b1.wav
402,192,80400,1,0,0:0:0:100:14a5d775.wav
36,192,80520,1,0,0:0:0:100:e6168002.wav
182,192,80640,1,0,0:0:0:100:9d23b55a.wav
329,192,80640,1,0,0:0:0:100:712dbe86.wav
475,192,80640,1,0,0:0:0:100:833350f0.wav
109,192,80880,1,0,0:0:0:100:cfb9ea1.wav
256,192,80880,1,0,0:0:0:100:712dbe86.wav
402,192,80880,1,0,0:0:0:100:5fd1cb9.wav
36,192,81360,1,0,0:0:0:100:55186916.wav
182,192,81360,1,0,0:0:0:100:712dbe86.wav
329,192,81360,1,0,0:0:0:100:65dbf652.wav
109,192,81840,1,0,0:0:0:100:ceca1fc6.wav
256,192,81840,1,0,0:0:0:100:712dbe86.wav
402,192,81840,1,0,0:0:0:100:bb81506d.wav
182,192,82320,128,0,82800:0:0:0:100:669778ce.wav
329,192,82320,128,0,82800:0:0:0:100:712dbe86.wav
475,192,82320,128,0,82800:0:0:0:100:79f605e1.wav
109,192,82800,1,0,0:0:0:100:e836cf7c.wav
256,192,82800,1,0,0:0:0:100:712dbe86.wav
402,192,82800,1,0,0:0:0:100:35866715.wav
36,192,83280,1,0,0:0:0:100:c9ae39f6.wav
182,192,83280,1,0,0:0:0:100:712dbe86.wav
329,192,83280,1,0,0:0:0:100:6ded3de5.wav
182,192,83760,1,0,0:0:0:100:5b29220b.wav
329,192,83760,1,0,0:0:0:100:712dbe86.wav
475,192,83760,1,0,0:0:0:100:b656dae1.wav
182,192,84120,1,0,0:0:0:100:e7ad46fa.wav
329,192,84120,1,0,0:0:0:100:712dbe86.wav
475,192,84120,1,0,0:0:0:100:cd55cf77.wav
36,192,84480,1,0,0:0:0:100:712dbe86.wav
256,192,84480,1,0,0:0:0:100:6af82d7a.wav
402,192,84480,128,0,84960:0:0:0:100:5f5c8cae.wav
36,192,84960,1,0,0:0:0:100:712dbe86.wav
182,192,84960,1,0,0:0:0:100:ea716e98.wav
109,192,85200,1,0,0:0:0:100:977c65db.wav
329,192,85320,1,0,0:0:0:100:857e62c0.wav
36,192,85440,1,0,0:0:0:100:712dbe86.wav
402,192,85440,1,0,0:0:0:100:a4b74d2b.wav
329,192,85680,1,0,0:0:0:100:7abdc562.wav
36,192,85920,1,0,0:0:0:100:712dbe86.wav
182,192,85920,1,0,0:0:0:100:ea716e98.wav
402,192,85920,1,0,0:0:0:100:8b2afa78.wav
475,192,86040,1,0,0:0:0:100:e77caf0b.wav
109,192,86280,1,0,0:0:0:100:f9eaecc8.wav
329,192,86280,1,0,0:0:0:100:3a58c194.wav
36,192,86400,1,0,0:0:0:100:712dbe86.wav
256,192,86400,128,0,87120:0:0:0:100:44bcb28e.wav
182,192,86880,1,0,0:0:0:100:ea716e98.wav
36,192,87120,1,0,0:0:0:100:712dbe86.wav
475,192,87120,128,0,87600:0:0:0:100:2162c049.wav
36,192,87600,1,0,0:0:0:100:712dbe86.wav
329,192,87600,1,0,0:0:0:100:b12a3c74.wav
109,192,87840,128,0,88080:0:0:0:100:67fa8afc.wav
402,192,87840,1,0,0:0:0:100:ea716e98.wav
256,192,88080,1,0,0:0:0:100:f085db8d.wav
182,192,88320,1,0,0:0:0:50:a1f976ed.wav
402,192,88320,1,0,0:0:0:50:a1f976ed.wav
182,192,88560,1,0,0:0:0:50:15cb4c2a.wav
402,192,88560,1,0,0:0:0:50:15cb4c2a.wav
182,192,88920,1,0,0:0:0:50:7770dc51.wav
402,192,88920,1,0,0:0:0:50:7770dc51.wav
36,192,89160,1,0,0:0:0:50:e071ffa5.wav
256,192,89160,1,0,0:0:0:50:e071ffa5.wav
36,192,89400,1,0,0:0:0:50:3e01da70.wav
256,192,89400,1,0,0:0:0:50:3e01da70.wav
36,192,89760,1,0,0:0:0:50:3a30c2a9.wav
256,192,89760,1,0,0:0:0:50:3a30c2a9.wav
329,192,90240,1,0,0:0:0:50:5f142170.wav
475,192,90240,1,0,0:0:0:50:5f142170.wav
329,192,90480,1,0,0:0:0:50:ab8d8cba.wav
475,192,90480,1,0,0:0:0:50:ab8d8cba.wav
329,192,90840,1,0,0:0:0:50:4c473531.wav
475,192,90840,1,0,0:0:0:50:4c473531.wav
109,192,91080,1,0,0:0:0:50:d9aac3f4.wav
256,192,91080,1,0,0:0:0:50:d9aac3f4.wav
109,192,91320,1,0,0:0:0:50:64e42bac.wav
256,192,91320,1,0,0:0:0:50:64e42bac.wav
109,192,91680,1,0,0:0:0:50:2e7d9159.wav
256,192,91680,1,0,0:0:0:50:2e7d9159.wav
182,192,91920,1,0,0:0:0:50:c5f2405d.wav
329,192,91920,1,0,0:0:0:50:c5f2405d.wav
109,192,92160,1,0,0:0:0:50:bf67d2d5.wav
402,192,92160,1,0,0:0:0:50:bf67d2d5.wav
109,192,92400,1,0,0:0:0:50:b286e995.wav
402,192,92400,1,0,0:0:0:50:b286e995.wav
109,192,92760,1,0,0:0:0:50:7cb71b4.wav
402,192,92760,1,0,0:0:0:50:7cb71b4.wav
36,192,93000,1,0,0:0:0:50:5d668b1c.wav
329,192,93000,1,0,0:0:0:50:5d668b1c.wav
36,192,93240,1,0,0:0:0:50:fde7d44a.wav
329,192,93240,1,0,0:0:0:50:fde7d44a.wav
36,192,93600,1,0,0:0:0:50:4f24358c.wav
329,192,93600,1,0,0:0:0:50:4f24358c.wav
36,192,93840,1,0,0:0:0:50:f669059d.wav
329,192,93840,1,0,0:0:0:50:f669059d.wav
109,192,94080,1,0,0:0:0:50:855dcc2.wav
256,192,94080,1,0,0:0:0:50:855dcc2.wav
109,192,94320,1,0,0:0:0:50:b0e43a04.wav
256,192,94320,1,0,0:0:0:50:b0e43a04.wav
109,192,94680,1,0,0:0:0:50:24ee0cb8.wav
256,192,94680,1,0,0:0:0:50:24ee0cb8.wav
329,192,94920,1,0,0:0:0:50:7efe8097.wav
475,192,94920,1,0,0:0:0:50:7efe8097.wav
329,192,95160,1,0,0:0:0:50:a5b5909f.wav
475,192,95160,1,0,0:0:0:50:a5b5909f.wav
329,192,95520,1,0,0:0:0:50:b352f153.wav
475,192,95520,1,0,0:0:0:50:b352f153.wav
256,192,95760,1,0,0:0:0:50:9a1599d4.wav
402,192,95760,1,0,0:0:0:50:9a1599d4.wav
182,192,96000,1,0,0:0:0:50:6ea585b9.wav
475,192,96000,1,0,0:0:0:50:6ea585b9.wav
182,192,96240,1,0,0:0:0:50:b0bdeb04.wav
475,192,96240,1,0,0:0:0:50:b0bdeb04.wav
182,192,96600,1,0,0:0:0:50:3b2c119b.wav
475,192,96600,1,0,0:0:0:50:3b2c119b.wav
36,192,96840,1,0,0:0:0:50:99ad89c.wav
329,192,96840,1,0,0:0:0:50:99ad89c.wav
36,192,97080,1,0,0:0:0:50:caf28907.wav
329,192,97080,1,0,0:0:0:50:caf28907.wav
36,192,97440,1,0,0:0:0:50:a6d9557a.wav
329,192,97440,1,0,0:0:0:50:a6d9557a.wav
182,192,97920,1,0,0:0:0:50:54fe2aab.wav
402,192,97920,1,0,0:0:0:50:54fe2aab.wav
182,192,98160,1,0,0:0:0:50:bd725ab3.wav
402,192,98160,1,0,0:0:0:50:bd725ab3.wav
182,192,98520,1,0,0:0:0:50:34a3a2db.wav
402,192,98520,1,0,0:0:0:50:34a3a2db.wav
36,192,98760,1,0,0:0:0:50:9ce1c17.wav
256,192,98760,1,0,0:0:0:50:9ce1c17.wav
36,192,99000,1,0,0:0:0:50:cf9b03c6.wav
256,192,99000,1,0,0:0:0:50:cf9b03c6.wav
36,192,99360,1,0,0:0:0:50:616f6285.wav
256,192,99360,1,0,0:0:0:50:616f6285.wav
109,192,99600,1,0,0:0:0:50:cd6ed8b2.wav
329,192,99600,1,0,0:0:0:50:cd6ed8b2.wav
256,192,99840,128,0,100080:0:0:0:50:76d7acb2.wav
475,192,99840,128,0,100080:0:0:0:50:76d7acb2.wav
182,192,100320,128,0,100560:0:0:0:50:2944bb6.wav
402,192,100320,128,0,100560:0:0:0:50:2944bb6.wav
109,192,100800,128,0,101040:0:0:0:50:3399e7b8.wav
256,192,100800,128,0,101040:0:0:0:50:3399e7b8.wav
36,192,101280,128,0,101520:0:0:0:50:8c8e1b4.wav
182,192,101280,128,0,101520:0:0:0:50:8c8e1b4.wav
109,192,101760,1,0,0:0:0:50:4d357537.wav
329,192,101760,1,0,0:0:0:50:4d357537.wav
109,192,102000,1,0,0:0:0:50:5a243e3f.wav
329,192,102000,1,0,0:0:0:50:5a243e3f.wav
109,192,102360,1,0,0:0:0:50:54a18bdd.wav
329,192,102360,1,0,0:0:0:50:54a18bdd.wav
256,192,102600,1,0,0:0:0:50:5b2a83e8.wav
475,192,102600,1,0,0:0:0:50:5b2a83e8.wav
256,192,102840,1,0,0:0:0:50:b772482b.wav
475,192,102840,1,0,0:0:0:50:b772482b.wav
256,192,103200,1,0,0:0:0:50:c2308277.wav
475,192,103200,1,0,0:0:0:50:c2308277.wav
182,192,103440,1,0,0:0:0:50:89317ba0.wav
402,192,103440,1,0,0:0:0:50:89317ba0.wav
36,192,103680,1,0,0:0:0:100:712dbe86.wav
256,192,103680,128,0,104160:0:0:0:100:b0f58edd.wav
36,192,104160,1,0,0:0:0:100:712dbe86.wav
402,192,104160,1,0,0:0:0:100:f3a91e47.wav
402,192,104520,1,0,0:0:0:100:a399b79.wav
256,192,104640,1,0,0:0:0:100:712dbe86.wav
36,192,104760,1,0,0:0:0:100:4e39d1b7.wav
182,192,104880,1,0,0:0:0:100:f39b9f0e.wav
402,192,104880,1,0,0:0:0:100:22cdb34c.wav
36,192,105000,1,0,0:0:0:100:a2485e5.wav
329,192,105120,1,0,0:0:0:100:913ebea5.wav
36,192,105240,1,0,0:0:0:100:654734e1.wav
402,192,105240,1,0,0:0:0:100:4df4c4ef.wav
182,192,105360,1,0,0:0:0:100:187fe26b.wav
36,192,105480,1,0,0:0:0:100:ae0d8550.wav
256,192,105600,1,0,0:0:0:100:712dbe86.wav
256,192,106080,1,0,0:0:0:100:712dbe86.wav
402,192,106080,1,0,0:0:0:100:84b36206.wav
402,192,106440,1,0,0:0:0:100:7f3698f9.wav
256,192,106560,1,0,0:0:0:100:712dbe86.wav
36,192,106680,1,0,0:0:0:100:4cd101d2.wav
109,192,106800,1,0,0:0:0:100:89a8ace8.wav
475,192,106800,1,0,0:0:0:100:a6806ce0.wav
182,192,106920,1,0,0:0:0:100:83aa5713.wav
256,192,107040,1,0,0:0:0:100:abc4b957.wav
475,192,107040,1,0,0:0:0:100:4f7f49bd.wav
182,192,107160,1,0,0:0:0:100:c2cac3fe.wav
109,192,107280,1,0,0:0:0:100:1f6344b1.wav
402,192,107280,1,0,0:0:0:100:25a1b267.wav
36,192,107400,1,0,0:0:0:100:e6168002.wav
475,192,107520,1,0,0:0:0:100:712dbe86.wav
109,192,108000,1,0,0:0:0:100:cabd5796.wav
475,192,108000,1,0,0:0:0:100:712dbe86.wav
109,192,108360,1,0,0:0:0:100:c8dad89a.wav
475,192,108480,1,0,0:0:0:100:712dbe86.wav
329,192,108600,1,0,0:0:0:100:4e39d1b7.wav
109,192,108720,1,0,0:0:0:100:2abbf7c1.wav
256,192,108720,1,0,0:0:0:100:f39b9f0e.wav
329,192,108840,1,0,0:0:0:100:a2485e5.wav
182,192,108960,1,0,0:0:0:100:913ebea5.wav
329,192,109080,1,0,0:0:0:100:654734e1.wav
109,192,109200,1,0,0:0:0:100:f0bed61b.wav
256,192,109200,1,0,0:0:0:100:187fe26b.wav
329,192,109320,1,0,0:0:0:100:ae0d8550.wav
36,192,109440,1,0,0:0:0:100:712dbe86.wav
36,192,109920,1,0,0:0:0:100:712dbe86.wav
182,192,109920,128,0,111120:0:0:0:100:ef12ecd5.wav
475,192,109920,1,0,0:0:0:100:ea716e98.wav
329,192,110160,128,0,111120:0:0:0:100:bed986a4.wav
36,192,110400,1,0,0:0:0:100:712dbe86.wav
475,192,110520,1,0,0:0:0:100:3a58c194.wav
36,192,110880,1,0,0:0:0:100:712dbe86.wav
475,192,110880,1,0,0:0:0:100:ea716e98.wav
109,192,111360,1,0,0:0:0:100:712dbe86.wav
256,192,111360,1,0,0:0:0:100:88b6fb94.wav
109,192,111840,1,0,0:0:0:100:ea716e98.wav
256,192,111840,1,0,0:0:0:100:d9e7303f.wav
182,192,112080,1,0,0:0:0:100:712dbe86.wav
329,192,112080,1,0,0:0:0:100:c911f9da.wav
36,192,112200,1,0,0:0:0:100:3a58c194.wav
36,192,112440,1,0,0:0:0:100:3a58c194.wav
182,192,112560,1,0,0:0:0:100:712dbe86.wav
329,192,112560,1,0,0:0:0:100:a6e44703.wav
475,192,112800,1,0,0:0:0:100:712dbe86.wav
256,192,113040,128,0,114720:0:0:0:100:5000b885.wav
402,192,113040,128,0,114720:0:0:0:100:5835b820.wav
36,192,113280,1,0,0:0:0:100:712dbe86.wav
36,192,113760,1,0,0:0:0:100:712dbe86.wav
36,192,114240,1,0,0:0:0:100:712dbe86.wav
36,192,114720,1,0,0:0:0:100:712dbe86.wav
109,192,115200,1,0,0:0:0:50:6ce8e82a.wav
182,192,115200,1,0,0:0:0:50:6ce8e82a.wav
109,192,115560,1,0,0:0:0:50:8f9ca7df.wav
182,192,115560,1,0,0:0:0:50:8f9ca7df.wav
329,192,115680,1,0,0:0:0:100:5f91d348.wav
109,192,115920,1,0,0:0:0:50:30da387e.wav
182,192,115920,1,0,0:0:0:50:30da387e.wav
329,192,116040,1,0,0:0:0:100:59ca42c0.wav
36,192,116400,1,0,0:0:0:100:d4d05535.wav
329,192,116400,1,0,0:0:0:100:f2f55eca.wav
109,192,116640,1,0,0:0:0:50:3a610d1c.wav
182,192,116640,1,0,0:0:0:50:3a610d1c.wav
329,192,116760,1,0,0:0:0:100:669b3ea3.wav
36,192,116880,1,0,0:0:0:100:236eecf0.wav
182,192,117120,1,0,0:0:0:50:b3c471c9.wav
256,192,117120,1,0,0:0:0:50:b3c471c9.wav
182,192,117480,1,0,0:0:0:50:ef5f026.wav
256,192,117480,1,0,0:0:0:50:ef5f026.wav
402,192,117600,1,0,0:0:0:100:5f91d348.wav
182,192,117840,1,0,0:0:0:50:1c683d74.wav
256,192,117840,1,0,0:0:0:50:1c683d74.wav
402,192,117960,1,0,0:0:0:100:59ca42c0.wav
109,192,118320,1,0,0:0:0:100:48683211.wav
402,192,118320,1,0,0:0:0:100:f2f55eca.wav
182,192,118560,1,0,0:0:0:50:1a15f9d8.wav
256,192,118560,1,0,0:0:0:50:1a15f9d8.wav
402,192,118680,1,0,0:0:0:100:669b3ea3.wav
109,192,118800,1,0,0:0:0:100:becc4da7.wav
256,192,119040,1,0,0:0:0:50:ed0e922b.wav
329,192,119040,1,0,0:0:0:50:ed0e922b.wav
256,192,119400,1,0,0:0:0:50:fc930b94.wav
329,192,119400,1,0,0:0:0:50:fc930b94.wav
475,192,119520,1,0,0:0:0:100:5f91d348.wav
256,192,119760,1,0,0:0:0:50:d8f88499.wav
329,192,119760,1,0,0:0:0:50:d8f88499.wav
475,192,119880,1,0,0:0:0:100:59ca42c0.wav
182,192,120240,1,0,0:0:0:100:1128a9be.wav
475,192,120240,1,0,0:0:0:100:f2f55eca.wav
256,192,120480,1,0,0:0:0:50:c2b6bf3a.wav
329,192,120480,1,0,0:0:0:50:c2b6bf3a.wav
475,192,120600,1,0,0:0:0:100:669b3ea3.wav
182,192,120720,1,0,0:0:0:100:2e656cfe.wav
36,192,120960,1,0,0:0:0:100:712dbe86.wav
329,192,121200,1,0,0:0:0:100:34c1c938.wav
36,192,121440,1,0,0:0:0:100:712dbe86.wav
329,192,121440,1,0,0:0:0:100:2efb2866.wav
475,192,121440,1,0,0:0:0:100:ea716e98.wav
182,192,121680,1,0,0:0:0:100:10f36de3.wav
36,192,121920,1,0,0:0:0:100:712dbe86.wav
329,192,121920,1,0,0:0:0:100:522b726e.wav
182,192,122160,1,0,0:0:0:100:c272b210.wav
329,192,122280,128,0,122520:0:0:0:100:36bb6ef0.wav
36,192,122400,1,0,0:0:0:100:712dbe86.wav
475,192,122400,1,0,0:0:0:100:ea716e98.wav
109,192,122760,1,0,0:0:0:100:3a58c194.wav
182,192,122880,1,0,0:0:0:100:fc5dc8a6.wav
402,192,122880,1,0,0:0:0:100:712dbe86.wav
329,192,123120,1,0,0:0:0:100:712dbe86.wav
475,192,123120,1,0,0:0:0:100:b76529c2.wav
36,192,123360,1,0,0:0:0:100:8a70c0a7.wav
182,192,123360,1,0,0:0:0:100:712dbe86.wav
109,192,123600,1,0,0:0:0:100:a5855ad1.wav
329,192,123600,1,0,0:0:0:100:712dbe86.wav
36,192,123840,1,0,0:0:0:100:ea716e98.wav
475,192,123840,1,0,0:0:0:100:712dbe86.wav
329,192,124200,1,0,0:0:0:100:712dbe86.wav
182,192,124320,1,0,0:0:0:100:712dbe86.wav
329,192,124440,1,0,0:0:0:100:712dbe86.wav
182,192,124560,1,0,0:0:0:100:712dbe86.wav
329,192,124680,1,0,0:0:0:100:712dbe86.wav
36,192,124800,1,0,0:0:0:100:712dbe86.wav
402,192,125040,1,0,0:0:0:100:bed986a4.wav
36,192,125280,1,0,0:0:0:100:712dbe86.wav
182,192,125280,1,0,0:0:0:100:ea716e98.wav
402,192,125520,1,0,0:0:0:100:bed986a4.wav
36,192,125760,1,0,0:0:0:100:712dbe86.wav
329,192,125880,1,0,0:0:0:100:4e39d1b7.wav
109,192,126000,1,0,0:0:0:100:bed986a4.wav
402,192,126000,1,0,0:0:0:100:f39b9f0e.wav
329,192,126120,1,0,0:0:0:100:a2485e5.wav
36,192,126240,1,0,0:0:0:100:712dbe86.wav
182,192,126240,1,0,0:0:0:100:ea716e98.wav
475,192,126240,1,0,0:0:0:100:913ebea5.wav
329,192,126360,1,0,0:0:0:100:654734e1.wav
109,192,126480,1,0,0:0:0:100:bed986a4.wav
402,192,126480,1,0,0:0:0:100:187fe26b.wav
329,192,126600,1,0,0:0:0:100:ae0d8550.wav
256,192,126720,1,0,0:0:0:100:712dbe86.wav
36,192,126960,1,0,0:0:0:100:bed986a4.wav
256,192,127200,1,0,0:0:0:100:712dbe86.wav
475,192,127200,1,0,0:0:0:100:ea716e98.wav
36,192,127440,1,0,0:0:0:100:bed986a4.wav
256,192,127680,1,0,0:0:0:100:712dbe86.wav
329,192,127800,1,0,0:0:0:100:4cd101d2.wav
109,192,127920,1,0,0:0:0:100:bed986a4.wav
402,192,127920,1,0,0:0:0:100:89a8ace8.wav
475,192,128040,1,0,0:0:0:100:83aa5713.wav
36,192,128160,1,0,0:0:0:100:ea716e98.wav
182,192,128160,1,0,0:0:0:100:712dbe86.wav
402,192,128160,1,0,0:0:0:100:abc4b957.wav
329,192,128280,1,0,0:0:0:100:c2cac3fe.wav
109,192,128400,1,0,0:0:0:100:bed986a4.wav
256,192,128400,1,0,0:0:0:100:1f6344b1.wav
182,192,128520,1,0,0:0:0:100:e6168002.wav
475,192,128640,1,0,0:0:0:100:712dbe86.wav
36,192,128880,1,0,0:0:0:100:bed986a4.wav
329,192,129120,1,0,0:0:0:100:ea716e98.wav
475,192,129120,1,0,0:0:0:100:712dbe86.wav
36,192,129360,1,0,0:0:0:100:bed986a4.wav
475,192,129600,1,0,0:0:0:100:712dbe86.wav
109,192,129720,1,0,0:0:0:100:4e39d1b7.wav
256,192,129840,1,0,0:0:0:100:f39b9f0e.wav
402,192,129840,1,0,0:0:0:100:bed986a4.wav
109,192,129960,1,0,0:0:0:100:a2485e5.wav
182,192,130080,1,0,0:0:0:100:ea716e98.wav
329,192,130080,1,0,0:0:0:100:913ebea5.wav
475,192,130080,1,0,0:0:0:100:712dbe86.wav
109,192,130200,1,0,0:0:0:100:654734e1.wav
256,192,130320,1,0,0:0:0:100:187fe26b.wav
402,192,130320,1,0,0:0:0:100:bed986a4.wav
109,192,130440,1,0,0:0:0:100:ae0d8550.wav
182,192,130560,1,0,0:0:0:100:712dbe86.wav
475,192,130800,1,0,0:0:0:100:bed986a4.wav
36,192,131040,1,0,0:0:0:100:ea716e98.wav
182,192,131040,1,0,0:0:0:100:712dbe86.wav
109,192,131280,1,0,0:0:0:100:bed986a4.wav
256,192,131280,1,0,0:0:0:100:10a1c294.wav
329,192,131400,1,0,0:0:0:100:1616289.wav
182,192,131520,1,0,0:0:0:100:712dbe86.wav
402,192,131520,1,0,0:0:0:100:5775b845.wav
36,192,131640,1,0,0:0:0:100:3a58c194.wav
109,192,131760,1,0,0:0:0:100:bed986a4.wav
329,192,131760,1,0,0:0:0:100:6ecd7690.wav
36,192,132000,1,0,0:0:0:100:ea716e98.wav
182,192,132000,1,0,0:0:0:100:712dbe86.wav
402,192,132000,1,0,0:0:0:100:f6753c9.wav
475,192,132120,1,0,0:0:0:100:56c351cb.wav
256,192,132240,1,0,0:0:0:100:bed986a4.wav
109,192,132360,1,0,0:0:0:100:3a58c194.wav
402,192,132360,1,0,0:0:0:100:e84a825c.wav
329,192,132480,1,0,0:0:0:100:712dbe86.wav
182,192,132720,1,0,0:0:0:100:bed986a4.wav
36,192,132960,1,0,0:0:0:100:ea716e98.wav
329,192,132960,1,0,0:0:0:100:712dbe86.wav
182,192,133200,1,0,0:0:0:100:bed986a4.wav
109,192,133440,1,0,0:0:0:100:712dbe86.wav
256,192,133560,1,0,0:0:0:100:4e39d1b7.wav
329,192,133680,1,0,0:0:0:100:bed986a4.wav
402,192,133680,1,0,0:0:0:100:f39b9f0e.wav
256,192,133800,1,0,0:0:0:100:a2485e5.wav
36,192,133920,1,0,0:0:0:100:ea716e98.wav
109,192,133920,1,0,0:0:0:100:712dbe86.wav
475,192,133920,1,0,0:0:0:100:913ebea5.wav
256,192,134040,1,0,0:0:0:100:654734e1.wav
329,192,134160,1,0,0:0:0:100:bed986a4.wav
402,192,134160,1,0,0:0:0:100:187fe26b.wav
256,192,134280,1,0,0:0:0:100:ae0d8550.wav
182,192,134400,1,0,0:0:0:100:712dbe86.wav
475,192,134640,1,0,0:0:0:100:bed986a4.wav
182,192,134880,1,0,0:0:0:100:712dbe86.wav
402,192,134880,1,0,0:0:0:100:ea716e98.wav
475,192,135120,1,0,0:0:0:100:bed986a4.wav
182,192,135360,1,0,0:0:0:100:712dbe86.wav
256,192,135480,1,0,0:0:0:100:4cd101d2.wav
109,192,135600,1,0,0:0:0:100:bed986a4.wav
329,192,135600,1,0,0:0:0:100:89a8ace8.wav
402,192,135720,1,0,0:0:0:100:83aa5713.wav
36,192,135840,1,0,0:0:0:100:712dbe86.wav
256,192,135840,1,0,0:0:0:100:abc4b957.wav
475,192,135840,1,0,0:0:0:100:ea716e98.wav
182,192,135960,1,0,0:0:0:100:c2cac3fe.wav
109,192,136080,1,0,0:0:0:100:1f6344b1.wav
402,192,136080,1,0,0:0:0:100:bed986a4.wav
36,192,136200,1,0,0:0:0:100:e6168002.wav
256,192,136320,1,0,0:0:0:100:712dbe86.wav
329,192,136560,1,0,0:0:0:100:bed986a4.wav
109,192,136800,1,0,0:0:0:100:ea716e98.wav
256,192,136800,1,0,0:0:0:100:712dbe86.wav
329,192,137040,1,0,0:0:0:100:bed986a4.wav
256,192,137280,1,0,0:0:0:100:712dbe86.wav
402,192,137400,1,0,0:0:0:100:4e39d1b7.wav
36,192,137520,1,0,0:0:0:100:f39b9f0e.wav
182,192,137520,1,0,0:0:0:100:bed986a4.wav
402,192,137640,1,0,0:0:0:100:a2485e5.wav
109,192,137760,1,0,0:0:0:100:ea716e98.wav
256,192,137760,1,0,0:0:0:100:712dbe86.wav
475,192,137760,1,0,0:0:0:100:913ebea5.wav
402,192,137880,1,0,0:0:0:100:654734e1.wav
36,192,138000,1,0,0:0:0:100:187fe26b.wav
182,192,138000,1,0,0:0:0:100:bed986a4.wav
402,192,138120,1,0,0:0:0:100:ae0d8550.wav
109,192,138240,1,0,0:0:0:100:712dbe86.wav
256,192,138480,1,0,0:0:0:100:bed986a4.wav
475,192,138600,1,0,0:0:0:100:d6878a4.wav
109,192,138720,1,0,0:0:0:100:712dbe86.wav
402,192,138720,1,0,0:0:0:100:3a58c194.wav
36,192,138960,1,0,0:0:0:100:ea716e98.wav
256,192,138960,1,0,0:0:0:100:bed986a4.wav
109,192,139200,1,0,0:0:0:100:712dbe86.wav
475,192,139320,1,0,0:0:0:100:3a58c194.wav
256,192,139440,1,0,0:0:0:100:bed986a4.wav
109,192,139680,1,0,0:0:0:100:712dbe86.wav
402,192,139680,1,0,0:0:0:100:ea716e98.wav
256,192,139920,1,0,0:0:0:100:bed986a4.wav
36,192,140040,1,0,0:0:0:100:3a58c194.wav
402,192,140160,1,0,0:0:0:100:ee36e226.wav
402,192,140520,1,0,0:0:0:100:eccacf74.wav
36,192,140640,1,0,0:0:0:50:e27f2438.wav
182,192,140640,1,0,0:0:0:50:e27f2438.wav
329,192,140640,1,0,0:0:0:100:1017a3f1.wav
475,192,140640,1,0,0:0:0:100:ea716e98.wav
402,192,140880,1,0,0:0:0:100:d9633de8.wav
36,192,141000,1,0,0:0:0:50:539bb826.wav
182,192,141000,1,0,0:0:0:50:539bb826.wav
36,192,141360,128,0,141960:0:0:0:50:3a79635e.wav
182,192,141360,128,0,141960:0:0:0:50:3a79635e.wav
402,192,141360,1,0,0:0:0:100:a55525b2.wav
329,192,141600,1,0,0:0:0:100:1f94dfc3.wav
475,192,141600,1,0,0:0:0:100:ea716e98.wav
402,192,141840,1,0,0:0:0:100:748935c6.wav
109,192,142080,1,0,0:0:0:100:c0388a16.wav
402,192,142320,1,0,0:0:0:100:26947e99.wav
109,192,142440,1,0,0:0:0:100:e4a34aae.wav
36,192,142560,1,0,0:0:0:100:96acf745.wav
182,192,142560,1,0,0:0:0:100:ea716e98.wav
329,192,142560,1,0,0:0:0:50:28a4a63e.wav
475,192,142560,1,0,0:0:0:50:28a4a63e.wav
109,192,142800,1,0,0:0:0:100:a26e042.wav
329,192,142920,1,0,0:0:0:50:d0d08b4f.wav
475,192,142920,1,0,0:0:0:50:d0d08b4f.wav
109,192,143280,1,0,0:0:0:100:b15bd6c3.wav
329,192,143280,128,0,144000:0:0:0:50:bcb96231.wav
475,192,143280,128,0,144000:0:0:0:50:bcb96231.wav
36,192,143520,1,0,0:0:0:100:ea716e98.wav
182,192,143520,1,0,0:0:0:100:31bf120f.wav
109,192,143760,1,0,0:0:0:100:3d5db793.wav
36,192,144000,1,0,0:0:0:100:7e0854d9.wav
402,192,144000,1,0,0:0:0:100:712dbe86.wav
109,192,144480,1,0,0:0:0:100:2cde9ee6.wav
256,192,144480,1,0,0:0:0:100:35aa4bf2.wav
402,192,144480,1,0,0:0:0:100:712dbe86.wav
36,192,144960,1,0,0:0:0:100:56a75c71.wav
182,192,144960,1,0,0:0:0:100:f504ccdd.wav
329,192,144960,1,0,0:0:0:100:712dbe86.wav
109,192,145320,1,0,0:0:0:100:6b91cea6.wav
256,192,145320,1,0,0:0:0:100:6c1b3515.wav
402,192,145320,1,0,0:0:0:100:712dbe86.wav
182,192,145680,128,0,146400:0:0:0:100:7a2495e8.wav
329,192,145680,128,0,146400:0:0:0:100:712dbe86.wav
475,192,145680,128,0,146400:0:0:0:100:ea716e98.wav
36,192,145920,1,0,0:0:0:100:712dbe86.wav
36,192,146400,1,0,0:0:0:100:712dbe86.wav
109,192,146400,1,0,0:0:0:100:77c80ee2.wav
256,192,146760,1,0,0:0:0:100:ba7b5635.wav
36,192,146880,1,0,0:0:0:100:712dbe86.wav
182,192,146880,1,0,0:0:0:100:b65a8679.wav
256,192,147120,1,0,0:0:0:50:9e5a84f4.wav
402,192,147120,1,0,0:0:0:50:9e5a84f4.wav
36,192,147360,1,0,0:0:0:100:712dbe86.wav
109,192,147360,1,0,0:0:0:100:497a2e57.wav
329,192,147480,1,0,0:0:0:50:d68b45ea.wav
475,192,147480,1,0,0:0:0:50:d68b45ea.wav
402,192,147720,1,0,0:0:0:100:3a58c194.wav
256,192,147840,1,0,0:0:0:100:712dbe86.wav
256,192,148320,1,0,0:0:0:100:712dbe86.wav
475,192,148320,1,0,0:0:0:100:4cb9bcc9.wav
475,192,148680,1,0,0:0:0:100:be2ede9c.wav
256,192,148800,1,0,0:0:0:100:712dbe86.wav
109,192,148920,1,0,0:0:0:100:4e39d1b7.wav
329,192,149040,1,0,0:0:0:100:f39b9f0e.wav
475,192,149040,1,0,0:0:0:100:192d4703.wav
109,192,149160,1,0,0:0:0:100:a2485e5.wav
256,192,149280,1,0,0:0:0:100:712dbe86.wav
402,192,149280,1,0,0:0:0:100:913ebea5.wav
109,192,149400,1,0,0:0:0:100:654734e1.wav
475,192,149400,1,0,0:0:0:100:546bd5ac.wav
329,192,149520,1,0,0:0:0:100:187fe26b.wav
109,192,149640,1,0,0:0:0:100:ae0d8550.wav
36,192,149760,1,0,0:0:0:100:712dbe86.wav
36,192,150240,1,0,0:0:0:100:712dbe86.wav
402,192,150240,1,0,0:0:0:100:e55de9d9.wav
402,192,150600,1,0,0:0:0:100:8cb695a.wav
36,192,150720,1,0,0:0:0:100:712dbe86.wav
256,192,150840,1,0,0:0:0:100:4cd101d2.wav
182,192,150960,1,0,0:0:0:100:1399e4df.wav
329,192,150960,1,0,0:0:0:100:89a8ace8.wav
402,192,151080,1,0,0:0:0:100:83aa5713.wav
36,192,151200,1,0,0:0:0:100:712dbe86.wav
182,192,151200,1,0,0:0:0:100:3e198cf7.wav
475,192,151200,1,0,0:0:0:100:abc4b957.wav
402,192,151320,1,0,0:0:0:100:c2cac3fe.wav
109,192,151440,1,0,0:0:0:100:14a5d775.wav
329,192,151440,1,0,0:0:0:100:1f6344b1.wav
256,192,151560,1,0,0:0:0:100:e6168002.wav
182,192,151680,1,0,0:0:0:100:62cd3c8.wav
475,192,151680,1,0,0:0:0:100:712dbe86.wav
329,192,151920,1,0,0:0:0:100:712dbe86.wav
182,192,152040,1,0,0:0:0:100:41f9b5e4.wav
36,192,152160,1,0,0:0:0:100:e8fb04be.wav
402,192,152160,1,0,0:0:0:100:ea716e98.wav
182,192,152400,1,0,0:0:0:100:eab739ae.wav
329,192,152400,1,0,0:0:0:100:712dbe86.wav
256,192,152880,1,0,0:0:0:100:ddc83204.wav
402,192,152880,1,0,0:0:0:100:712dbe86.wav
109,192,153120,1,0,0:0:0:100:9816e6e.wav
256,192,153120,1,0,0:0:0:100:b0fa1f3.wav
329,192,153240,1,0,0:0:0:100:3a58c194.wav
36,192,153360,128,0,155520:0:0:0:50:c8dad2c6.wav
182,192,153360,1,0,0:0:0:100:712dbe86.wav
475,192,153360,128,0,155520:0:0:0:50:c8dad2c6.wav
182,192,153840,1,0,0:0:0:100:712dbe86.wav
329,192,154080,1,0,0:0:0:100:ea716e98.wav
182,192,154320,1,0,0:0:0:100:712dbe86.wav
329,192,154680,1,0,0:0:0:100:3a58c194.wav
182,192,154800,1,0,0:0:0:100:712dbe86.wav
329,192,154920,1,0,0:0:0:100:d6878a4.wav
402,192,155040,1,0,0:0:0:100:712dbe86.wav
256,192,155160,1,0,0:0:0:100:712dbe86.wav
109,192,155280,1,0,0:0:0:100:712dbe86.wav
329,192,155400,1,0,0:0:0:100:712dbe86.wav
256,192,155520,1,0,0:0:0:100:712dbe86.wav
36,192,157440,128,0,161280:0:0:0:100:712dbe86.wav
182,192,157440,128,0,161280:0:0:0:100:b1eb7048.wav
329,192,157500,128,0,161280:0:0:0:10:f4502155.wav
475,192,157560,128,0,161280:0:0:0:10:f4502155.wav
