osu file format v14

[General]
AudioFilename: MILO-Energy-Beat.mp3
AudioLeadIn: 0
PreviewTime: 16680
Countdown: 0
SampleSet: Soft
StackLeniency: 0.7
Mode: 0
LetterboxInBreaks: 0
WidescreenStoryboard: 0

[Editor]
DistanceSpacing: 0.9
BeatDivisor: 4
GridSize: 4
TimelineZoom: 1

[Metadata]
Title:Champion Energy 2.5mins 062017
TitleUnicode:Champion Energy 2.5mins 062017
Artist:Thyro Alfaro
ArtistUnicode:Thyro Alfaro
Creator:-Nitrous
Version:Normal
Source:
Tags:nestle advertisement tagalog filipino energize gap Corinn Akitoshi
BeatmapID:1183313
BeatmapSetID:559511

[Difficulty]
HPDrainRate:3
CircleSize:3
OverallDifficulty:4
ApproachRate:4
SliderMultiplier:1
SliderTickRate:1

[Events]
//Background and Video events
0,0,"ENERGIZE.jpg",0,0
//Break Periods
//Storyboard Layer 0 (Background)
//Storyboard Layer 1 (Fail)
//Storyboard Layer 2 (Pass)
//Storyboard Layer 3 (Foreground)
//Storyboard Sound Samples

[TimingPoints]
0,480,4,2,1,40,1,0
5760,-100,4,2,1,60,0,0
13440,-100,4,2,1,70,0,0
17280,-100,4,2,1,80,0,1
24480,-100,4,2,1,80,0,0
24960,-100,4,2,1,80,0,1
32640,-100,4,2,1,70,0,0
40320,-100,4,2,1,80,0,1
47520,-100,4,2,1,80,0,0
48000,-100,4,2,1,80,0,1
55200,-100,4,2,1,80,0,0
55680,-100,4,2,1,80,0,1
63360,-100,4,2,1,80,0,0
66720,-100,4,2,1,5,0,0

[Colours]
Combo1 : 0,120,240
Combo2 : 0,213,106
Combo3 : 178,178,178
Combo4 : 255,128,64

[HitObjects]
443,108,0,6,0,B|456:156|456:156|444:212,1,100,2|0,0:0|0:0,0:0:0:0:
407,286,960,1,0,0:0:0:0:
320,260,1440,1,2,0:0:0:0:
243,307,1920,2,0,P|231:258|243:210,1,100,2|0,0:0|0:0,0:0:0:0:
274,126,2880,1,0,0:0:0:0:
363,130,3360,1,2,0:0:0:0:
440,176,3840,6,0,B|455:225|455:225|442:284,1,100,2|0,0:0|0:0,0:0:0:0:
375,330,4800,2,0,L|259:329,1,100,2|0,0:0|0:0,0:0:0:0:
184,327,5760,5,4,0:0:0:0:
112,271,6240,2,0,P|96:226|112:165,1,100,8|0,0:0|0:0,0:0:0:0:
126,87,7200,1,8,0:0:0:0:
198,139,7680,2,0,P|248:150|301:138,1,100,2|8,0:0|0:0,0:0:0:0:
339,132,8400,2,0,P|334:192|342:236,1,100,2|0,0:0|0:0,0:0:0:0:
365,268,9120,1,8,0:0:0:0:
297,327,9600,6,0,P|249:338|193:327,1,100,2|8,0:0|0:0,0:0:0:0:
158,311,10320,2,0,B|149:263|149:263|161:197,1,100,2|0,0:0|0:0,0:0:0:0:
173,170,11040,1,8,0:0:0:0:
218,92,11520,2,0,L|290:74,1,50
311,75,12000,1,0,0:0:0:0:
400,72,12480,1,0,0:0:0:0:
329,237,13440,6,0,P|275:250|219:241,1,100,4|8,0:0|0:0,0:0:0:0:
188,237,14160,2,0,P|197:187|189:126,1,100,2|0,0:0|0:0,0:0:0:0:
186,94,14880,1,8,0:0:0:0:
141,15,15360,2,0,L|54:10,2,75,4|4|4,0:0|0:0|0:0,0:0:0:0:
185,18,16320,1,2,0:0:0:0:
274,28,16800,1,8,0:0:0:0:
324,103,17280,6,0,B|331:153|331:153|325:210,1,100,4|8,0:0|0:0,0:0:0:0:
313,245,18000,1,0,0:0:0:0:
313,245,18240,2,0,L|211:249,1,100,2|8,0:0|0:0,0:0:0:0:
147,311,19200,2,0,P|127:262|144:196,1,100,2|8,0:0|0:0,0:0:0:0:
146,173,19920,1,0,0:0:0:0:
146,173,20160,2,0,L|263:163,1,100,2|8,0:0|0:0,0:0:0:0:
335,156,21120,6,0,P|354:206|339:266,1,100,4|8,0:0|0:0,0:0:0:0:
328,292,21840,2,0,L|217:300,1,100,2|0,0:0|0:0,0:0:0:0:
184,307,22560,1,8,0:0:0:0:
104,265,23040,2,0,B|93:216|93:216|106:151,1,100,2|8,0:0|0:0,0:0:0:0:
116,124,23760,2,0,L|231:117,1,100,2|0,0:0|0:0,0:0:0:0:
260,115,24480,1,8,0:0:0:0:
341,152,24960,6,0,L|339:257,1,100,4|8,0:0|0:0,0:0:0:0:
429,252,25920,2,0,L|431:147,1,100,2|8,0:0|0:0,0:0:0:0:
433,62,26880,2,0,P|379:48|323:66,1,100,2|8,0:0|0:0,0:0:0:0:
262,108,27840,1,2,0:0:0:0:
178,74,28320,1,8,0:0:0:0:
103,124,28800,6,0,B|92:169|92:169|106:231,1,100,4|8,0:0|0:0,0:0:0:0:
120,263,29520,2,0,P|168:253|232:268,1,100,2|0,0:0|0:0,0:0:0:0:
259,277,30240,1,8,0:0:0:0:
330,222,30720,2,0,P|347:177|333:113,1,100,2|8,0:0|0:0,0:0:0:0:
322,85,31440,2,0,L|215:82,1,100,2|0,0:0|0:0,0:0:0:0:
177,80,32160,1,8,0:0:0:0:
103,131,32640,6,0,P|85:177|109:242,1,100,4|0,0:0|0:0,0:0:0:0:
162,285,33600,2,0,L|266:289,1,100,2|0,0:0|0:0,0:0:0:0:
336,339,34560,2,0,B|350:296|350:296|337:224,1,100,2|0,0:0|0:0,0:0:0:0:
311,207,35280,2,0,P|297:163|324:93,1,100,2|0,0:0|0:0,0:0:0:0:
334,74,36000,1,2,0:0:0:0:
256,192,36480,12,2,38400,0:0:0:0:
374,97,39840,6,0,P|369:122|372:149,1,50,2|0,0:0|0:0,0:0:0:0:
388,187,40320,6,0,L|276:181,1,100,4|8,0:0|0:0,0:0:0:0:
243,179,41040,1,0,0:0:0:0:
243,179,41280,2,0,P|221:225|234:288,1,100,2|8,0:0|0:0,0:0:0:0:
290,335,42240,2,0,B|339:343|339:343|410:330,1,100,2|8,0:0|0:0,0:0:0:0:
432,323,42960,1,0,0:0:0:0:
432,323,43200,2,0,P|447:276|435:213,1,100,2|8,0:0|0:0,0:0:0:0:
360,185,44160,6,0,P|352:137|374:67,1,100,4|8,0:0|0:0,0:0:0:0:
384,47,44880,2,0,L|267:52,1,100,2|0,0:0|0:0,0:0:0:0:
239,57,45600,1,8,0:0:0:0:
163,106,46080,2,0,P|145:155|161:212,1,100,2|8,0:0|0:0,0:0:0:0:
179,238,46800,2,0,L|283:241,1,100,2|0,0:0|0:0,0:0:0:0:
323,240,47520,1,8,0:0:0:0:
412,240,48000,6,0,P|430:287|410:346,1,100,4|8,0:0|0:0,0:0:0:0:
385,364,48720,1,0,0:0:0:0:
385,364,48960,2,0,L|274:366,1,100,2|8,0:0|0:0,0:0:0:0:
194,363,49920,2,0,P|179:311|197:255,1,100,2|8,0:0|0:0,0:0:0:0:
218,232,50640,1,0,0:0:0:0:
218,232,50880,2,0,B|230:180|230:180|218:127,1,100,2|8,0:0|0:0,0:0:0:0:
168,60,51840,6,0,P|222:46|278:65,1,100,4|8,0:0|0:0,0:0:0:0:
304,75,52560,2,0,P|352:85|399:71,1,100,2|0,0:0|0:0,0:0:0:0:
435,44,53280,1,8,0:0:0:0:
499,106,53760,2,0,L|500:213,1,100,4|8,0:0|0:0,0:0:0:0:
497,250,54480,2,0,P|459:238|388:252,1,100,2|0,0:0|0:0,0:0:0:0:
360,267,55200,1,8,0:0:0:0:
293,327,55680,6,0,P|240:336|180:324,1,100,4|8,0:0|0:0,0:0:0:0:
151,315,56400,1,0,0:0:0:0:
151,315,56640,2,0,P|163:267|146:204,1,100,2|8,0:0|0:0,0:0:0:0:
85,159,57600,2,0,P|75:110|87:62,1,100,2|8,0:0|0:0,0:0:0:0:
107,21,58320,1,0,0:0:0:0:
107,21,58560,2,0,L|225:24,1,100,2|8,0:0|0:0,0:0:0:0:
296,28,59520,6,0,B|308:77|308:77|297:138,1,100,4|8,0:0|0:0,0:0:0:0:
283,167,60240,2,0,L|172:169,1,100,2|0,0:0|0:0,0:0:0:0:
137,171,60960,1,8,0:0:0:0:
59,217,61440,2,0,P|43:263|58:323,1,100,4|8,0:0|0:0,0:0:0:0:
134,349,62400,2,0,L|256:348,1,100,2|8,0:0|0:0,0:0:0:0:
323,347,63360,5,4,0:0:0:0:
256,192,63600,12,0,66720,0:0:0:0:
