osu file format v14

[General]
AudioFilename: MILO-Energy-Beat.mp3
AudioLeadIn: 0
PreviewTime: 16680
Countdown: 0
SampleSet: Soft
StackLeniency: 0.7
Mode: 0
LetterboxInBreaks: 0
WidescreenStoryboard: 0

[Editor]
DistanceSpacing: 1.6
BeatDivisor: 4
GridSize: 4
TimelineZoom: 1

[Metadata]
Title:Champion Energy 2.5mins 062017
TitleUnicode:Champion Energy 2.5mins 062017
Artist:Thyro Alfaro
ArtistUnicode:Thyro Alfaro
Creator:-Nitrous
Version:Hard
Source:
Tags:nestle advertisement tagalog filipino energize gap Corinn Akitoshi
BeatmapID:1183312
BeatmapSetID:559511

[Difficulty]
HPDrainRate:4
CircleSize:4
OverallDifficulty:6.5
ApproachRate:6
SliderMultiplier:1.25
SliderTickRate:1

[Events]
//Background and Video events
0,0,"ENERGIZE.jpg",0,0
//Break Periods
//Storyboard Layer 0 (Background)
//Storyboard Layer 1 (Fail)
//Storyboard Layer 2 (Pass)
//Storyboard Layer 3 (Foreground)
//Storyboard Sound Samples

[TimingPoints]
0,480,4,2,1,40,1,0
5760,-100,4,2,1,60,0,0
12480,-133.333333333333,4,2,1,60,0,0
12960,-133.333333333333,4,2,1,5,0,0
13440,-100,4,2,1,70,0,0
17280,-100,4,2,1,80,0,1
24480,-100,4,2,1,80,0,0
24960,-100,4,2,1,80,0,1
32640,-100,4,2,1,70,0,0
40320,-100,4,2,1,80,0,1
47520,-100,4,2,1,80,0,0
48000,-100,4,2,1,80,0,1
55200,-100,4,2,1,80,0,0
55680,-100,4,2,1,80,0,1
63360,-100,4,2,1,80,0,0
66720,-100,4,2,1,5,0,0

[Colours]
Combo1 : 0,120,240
Combo2 : 0,213,106
Combo3 : 178,178,178
Combo4 : 255,128,64

[HitObjects]
80,139,0,6,0,B|127:129|127:129|164:138|164:138|210:128,1,125,2|0,0:0|0:0,0:0:0:0:
282,117,720,2,0,P|325:173|301:240,1,125,2|0,0:0|0:0,0:0:0:0:
272,291,1440,1,2,0:0:0:0:
272,291,1920,6,0,P|333:325|395:296,1,125,2|0,0:0|0:0,0:0:0:0:
446,260,2640,2,0,B|426:198|426:198|439:125,1,125,2|0,0:0|0:0,0:0:0:0:
461,61,3360,1,2,0:0:0:0:
461,61,3840,6,0,B|403:74|403:74|337:64,1,125,2|0,0:0|0:0,0:0:0:0:
258,49,4560,2,0,P|205:79|193:153,1,125,2|0,0:0|0:0,0:0:0:0:
223,211,5280,2,0,P|257:205|293:213,1,62.5,2|0,0:0|0:0,0:0:0:0:
405,244,5760,6,0,P|420:316|375:351,1,125,4|8,0:0|0:0,0:0:0:0:
306,355,6480,2,0,L|181:347,1,125,2|0,0:0|0:0,0:0:0:0:
100,341,7200,1,8,0:0:0:0:
48,186,7680,6,0,B|24:144|24:144|46:50,1,125,2|8,0:0|0:0,0:0:0:0:
112,28,8400,2,0,B|149:40|149:40|197:35|197:35|243:45,1,125,2|0,0:0|0:0,0:0:0:0:
311,68,9120,1,8,0:0:0:0:
183,168,9600,6,0,P|159:227|189:296,1,125,2|8,0:0|0:0,0:0:0:0:
238,337,10320,2,0,B|283:348|283:348|368:333,1,125,2|0,0:0|0:0,0:0:0:0:
438,313,11040,1,8,0:0:0:0:
460,152,11520,5,0,3:0:0:0:
460,152,11640,1,0,3:0:0:0:
460,152,11760,1,0,3:0:0:0:
363,98,12000,1,0,3:0:0:0:
321,197,12240,1,0,3:0:0:0:
321,197,12480,6,0,B|287:199|263:185|263:185|215:200|215:200|193:184|151:184,1,164.062506258488,4|0,0:3|0:0,0:0:0:0:
121,175,13440,6,0,P|107:118|132:68,1,93.75,4|0,0:0|0:0,0:0:0:0:
131,44,13920,1,8,0:0:0:0:
201,95,14160,2,0,B|240:110|240:110|327:97,1,125,2|0,0:0|0:0,0:0:0:0:
397,52,14880,2,0,B|405:83|405:83|400:137,1,62.5,8|0,0:0|0:0,0:0:0:0:
336,171,15360,6,0,L|235:186,2,93.75,4|4|4,0:0|0:0|0:0,0:0:0:0:
416,158,16320,1,2,0:0:0:0:
340,326,16800,2,0,L|273:335,1,62.5,8|0,0:0|0:0,0:0:0:0:
190,341,17280,6,0,P|165:298|175:240,1,93.75,4|0,0:0|0:0,0:0:0:0:
178,213,17760,1,8,0:0:0:0:
178,213,18000,1,0,0:0:0:0:
268,255,18240,2,0,P|299:257|331:251,1,62.5,2|0,0:0|0:0,0:0:0:0:
427,229,18720,1,8,0:0:0:0:
251,120,19200,6,0,P|208:104|150:123,1,93.75,2|0,0:0|0:0,0:0:0:0:
125,138,19680,1,8,0:0:0:0:
125,138,19920,1,0,0:0:0:0:
198,205,20160,2,0,P|202:237|196:276,1,62.5,2|0,0:0|0:0,0:0:0:0:
149,351,20640,1,8,0:0:0:0:
341,296,21120,6,0,P|386:283|440:294,1,93.75,4|0,0:0|0:0,0:0:0:0:
480,300,21600,1,8,0:0:0:0:
435,210,21840,2,0,P|412:151|442:74,1,125,2|0,0:0|0:0,0:0:0:0:
494,18,22560,1,8,0:0:0:0:
302,74,23040,6,0,P|256:82|211:70,1,93.75,2|0,0:0|0:0,0:0:0:0:
164,53,23520,1,8,0:0:0:0:
197,147,23760,2,0,B|220:205|220:205|196:272,1,125,2|0,0:0|0:0,0:0:0:0:
146,349,24480,1,8,0:0:0:0:
48,174,24960,6,0,P|41:127|57:84,1,93.75,4|0,0:0|0:0,0:0:0:0:
94,49,25440,2,0,L|155:39,1,62.5,8|0,0:0|0:0,0:0:0:0:
242,90,25920,2,0,L|324:99,1,62.5,2|0,0:0|0:0,0:0:0:0:
403,106,26400,1,8,0:0:0:0:
216,177,26880,6,0,B|203:222|203:222|216:267,1,93.75,2|0,0:0|0:0,0:0:0:0:
239,311,27360,2,0,P|270:316|316:310,1,62.5,8|0,0:0|0:0,0:0:0:0:
394,277,27840,2,0,P|397:245|392:215,1,62.5,2|0,0:0|0:0,0:0:0:0:
378,116,28320,1,8,0:0:0:0:
184,171,28800,6,0,P|166:217|180:268,1,93.75,4|0,0:0|0:0,0:0:0:0:
194,298,29280,1,8,0:0:0:0:
279,246,29520,2,0,B|324:237|324:237|358:249|358:249|413:241,1,125,2|0,0:0|0:0,0:0:0:0:
499,225,30240,1,8,0:0:0:0:
390,85,30720,6,0,P|352:111|281:99,1,93.75,2|0,0:0|0:0,0:0:0:0:
261,105,31200,1,8,0:0:0:0:
173,153,31440,2,0,P|153:211|179:286,1,125,2|0,0:0|0:0,0:0:0:0:
224,353,32160,1,8,0:0:0:0:
402,338,32640,6,0,P|423:275|385:213,1,125,4|0,0:0|0:0,0:0:0:0:
335,165,33360,1,0,0:0:0:0:
268,221,33600,2,0,B|231:233|231:233|134:217,1,125,2|0,0:0|0:0,0:0:0:0:
59,66,34560,6,0,P|110:42|193:67,1,125,2|0,0:0|0:0,0:0:0:0:
253,94,35280,2,0,L|247:236,1,125,2|0,0:0|0:0,0:0:0:0:
242,306,36000,1,2,0:0:0:0:
416,309,36480,6,0,P|436:251|417:190,1,125,2|0,0:0|0:0,0:0:0:0:
306,57,37440,2,0,B|269:38|269:38|180:48,1,125,2|0,0:0|0:0,0:0:0:0:
13,77,38400,1,2,0:0:0:0:
404,75,39840,6,0,P|408:107|400:146,1,62.5,2|0,0:0|0:0,0:0:0:0:
341,215,40320,2,0,L|232:213,1,93.75,4|0,0:0|0:0,0:0:0:0:
203,211,40800,1,8,0:0:0:0:
203,211,41040,1,0,0:0:0:0:
111,250,41280,2,0,P|103:287|110:325,1,62.5,2|0,0:0|0:0,0:0:0:0:
187,368,41760,1,8,0:0:0:0:
369,312,42240,6,0,P|381:265|363:210,1,93.75,2|0,0:0|0:0,0:0:0:0:
346,185,42720,1,8,0:0:0:0:
346,185,42960,1,0,0:0:0:0:
258,232,43200,2,0,B|214:243|214:243|126:232,1,125,2|8,0:0|0:0,0:0:0:0:
202,61,44160,6,0,P|246:48|309:73,1,93.75,4|0,0:0|0:0,0:0:0:0:
331,77,44640,1,8,0:0:0:0:
248,133,44880,2,0,B|231:175|231:175|251:259,1,125,2|0,0:0|0:0,0:0:0:0:
277,348,45600,1,8,0:0:0:0:
457,269,46080,6,0,P|472:222|446:169,1,93.75,2|0,0:0|0:0,0:0:0:0:
432,146,46560,1,8,0:0:0:0:
346,198,46800,2,0,P|292:218|214:188,1,125,2|0,0:0|0:0,0:0:0:0:
148,140,47520,1,8,0:0:0:0:
148,140,47760,1,0,0:0:0:0:
69,198,48000,6,0,P|52:246|78:302,1,93.75,4|0,0:0|0:0,0:0:0:0:
81,326,48480,1,8,0:0:0:0:
81,326,48720,1,0,0:0:0:0:
143,247,48960,2,0,P|174:241|210:247,1,62.5,2|0,0:0|0:0,0:0:0:0:
302,264,49440,1,8,0:0:0:0:
427,138,49920,6,0,P|385:149|328:134,1,93.75,2|0,0:0|0:0,0:0:0:0:
295,123,50400,1,8,0:0:0:0:
295,123,50640,1,0,0:0:0:0:
194,157,50880,2,0,L|189:231,1,62.5,2|0,0:0|0:0,0:0:0:0:
183,319,51360,1,8,0:0:0:0:
383,322,51840,6,0,P|405:264|390:215,1,93.75,4|0,0:0|0:0,0:0:0:0:
380,194,52320,1,8,0:0:0:0:
281,215,52560,2,0,B|235:224|235:224|201:216|201:216|150:229,1,125,2|0,0:0|0:0,0:0:0:0:
61,252,53280,1,8,0:0:0:0:
247,335,53760,6,0,L|356:339,1,93.75,4|0,0:0|0:0,0:0:0:0:
384,340,54240,1,8,0:0:0:0:
489,342,54480,2,0,P|512:285|482:218,1,125,2|0,0:0|0:0,0:0:0:0:
434,145,55200,1,8,0:0:0:0:
434,145,55440,1,0,0:0:0:0:
308,226,55680,6,0,L|206:226,1,93.75,4|0,0:0|0:0,0:0:0:0:
170,227,56160,1,8,0:0:0:0:
170,227,56400,1,0,0:0:0:0:
81,169,56640,2,0,P|76:135|87:92,1,62.5,2|0,0:0|0:0,0:0:0:0:
146,32,57120,1,8,0:0:0:0:
265,192,57600,6,0,P|313:208|373:189,1,93.75,2|0,0:0|0:0,0:0:0:0:
397,191,58080,1,8,0:0:0:0:
397,191,58320,1,0,0:0:0:0:
500,214,58560,2,0,L|499:292,1,62.5,2|0,0:0|0:0,0:0:0:0:
494,376,59040,1,8,0:0:0:0:
308,301,59520,6,0,P|264:315|203:293,1,93.75,4|0,0:0|0:0,0:0:0:0:
180,284,60000,1,8,0:0:0:0:
84,237,60240,2,0,L|85:109,1,125,2|0,0:0|0:0,0:0:0:0:
86,12,60960,1,8,0:0:0:0:
246,131,61440,6,0,P|288:148|350:136,1,93.75,4|0,0:0|0:0,0:0:0:0:
378,137,61920,2,0,L|382:207,1,62.5,8|0,0:0|0:0,0:0:0:0:
331,265,62400,2,0,B|295:275|295:275|224:257,1,93.75,2|0,0:0|0:0,0:0:0:0:
199,245,62880,2,0,L|200:166,1,62.5,8|0,0:0|0:0,0:0:0:0:
201,82,63360,5,4,0:0:0:0:
256,192,63480,12,0,66720,0:0:0:0:
