osu file format v14

[General]
AudioFilename: MILO-Energy-Beat.mp3
AudioLeadIn: 0
PreviewTime: 16680
Countdown: 0
SampleSet: Soft
StackLeniency: 0.7
Mode: 0
LetterboxInBreaks: 0
WidescreenStoryboard: 0

[Editor]
DistanceSpacing: 0.5
BeatDivisor: 4
GridSize: 4
TimelineZoom: 1

[Metadata]
Title:Champion Energy 2.5mins 062017
TitleUnicode:Champion Energy 2.5mins 062017
Artist:Thyro Alfaro
ArtistUnicode:Thyro Alfaro
Creator:-Nitrous
Version:Corinn's Insane
Source:
Tags:nestle advertisement tagalog filipino energize gap Corinn Akitoshi
BeatmapID:1183373
BeatmapSetID:559511

[Difficulty]
HPDrainRate:6
CircleSize:4.1
OverallDifficulty:7
ApproachRate:8
SliderMultiplier:1.58
SliderTickRate:1

[Events]
//Background and Video events
0,0,"ENERGIZE.jpg",0,0
//Break Periods
//Storyboard Layer 0 (Background)
//Storyboard Layer 1 (Fail)
//Storyboard Layer 2 (Pass)
//Storyboard Layer 3 (Foreground)
//Storyboard Sound Samples

[TimingPoints]
0,480,4,2,1,40,1,0
0,-133.333333333333,4,2,1,40,0,0
5760,-100,4,2,1,60,0,0
12480,-133.333333333333,4,2,1,60,0,0
12960,-133.333333333333,4,2,1,15,0,0
13320,-133.333333333333,4,2,1,5,0,0
13440,-100,4,2,1,70,0,0
16680,-100,4,2,1,5,0,0
16800,-100,4,2,1,70,0,0
17280,-90.9090909090909,4,2,1,80,0,1
24480,-90.9090909090909,4,2,1,80,0,0
24960,-90.9090909090909,4,2,1,80,0,1
32640,-125,4,2,1,70,0,0
38400,-200,4,2,1,70,0,0
39360,-200,4,2,1,30,0,0
39840,-100,4,2,1,70,0,0
40320,-90.9090909090909,4,2,1,80,0,1
47520,-100,4,2,1,80,0,0
48000,-90.9090909090909,4,2,1,80,0,1
55200,-100,4,2,1,80,0,0
55680,-90.9090909090909,4,2,1,80,0,1
63360,-100,4,2,1,80,0,0
66720,-100,4,2,1,5,0,0

[Colours]
Combo1 : 0,120,240
Combo2 : 0,213,106
Combo3 : 178,178,178
Combo4 : 255,128,64

[HitObjects]
355,161,0,6,0,P|401:137|482:144,2,118.500004520416,2|2|2,0:0|0:0|0:0,0:0:0:0:
268,242,1440,1,2,0:0:0:0:
158,196,1920,2,0,L|163:327,2,118.500004520416,2|2|2,0:0|0:0|0:0,0:0:0:0:
153,77,3360,1,2,0:0:0:0:
256,192,3840,12,0,4800,0:0:0:0:
158,157,5760,6,0,B|247:143|225:209|337:187,1,158,6|0,0:0|1:0,0:0:0:0:
440,165,6480,1,2,0:0:0:0:
302,112,6720,2,0,L|308:201,1,79,0|2,0:0|0:0,0:0:0:0:
478,88,7200,2,0,L|472:-1,1,79,0|0,1:0|0:0,0:0:0:0:
392,239,7680,6,0,L|401:378,1,118.5,2|0,0:0|0:0,0:0:0:0:
399,357,8160,1,0,1:0:0:0:
484,196,8400,2,0,P|451:155|408:136,1,79,2|0,0:0|0:0,0:0:0:0:
392,239,8880,1,2,0:0:0:0:
214,228,9120,2,0,L|111:225,1,79,0|0,1:0|0:0,0:0:0:0:
284,103,9600,5,2,0:0:0:0:
313,254,9840,1,0,0:0:0:0:
135,225,10080,1,0,1:0:0:0:
255,338,10320,2,0,P|300:356|398:308,1,158,2|2,0:0|0:0,0:0:0:0:
436,168,11040,2,0,L|337:166,1,79,0|0,1:0|0:0,0:0:0:0:
464,271,11520,5,2,0:0:0:0:
314,260,11760,1,0,3:0:0:0:
314,260,11880,1,0,3:0:0:0:
314,260,12000,2,0,L|202:257,1,79,8|0,3:0|0:0,0:0:0:0:
85,61,12480,6,0,B|217:30|144:115|290:71,1,207.375007910729,4|0,0:3|0:0,0:0:0:0:
284,73,13440,6,0,P|271:132|296:199,1,118.5,4|0,0:0|0:0,0:0:0:0:
287,186,13920,1,0,1:0:0:0:
451,107,14160,2,0,P|384:78|347:141,1,158,2|2,0:0|0:0,0:0:0:0:
373,228,14760,1,0,0:0:0:0:
373,228,14880,2,0,L|371:334,1,79,0|0,1:0|0:0,0:0:0:0:
191,336,15360,6,0,P|117:341|53:299,2,118.5,6|4|4,0:0|0:0|0:0,0:0:0:0:
282,187,16320,2,0,L|269:55,1,118.5,2|0,0:0|0:0,0:0:0:0:
267,45,16800,2,0,P|227:60|187:56,1,79
376,7,17280,6,0,P|391:47|382:119,1,86.9000026519776,6|0,0:0|0:0,0:0:0:0:
298,259,17760,1,0,1:0:0:0:
270,69,18000,1,0,0:0:0:0:
422,183,18240,2,0,P|462:158|488:107,1,86.9000026519776,2|0,0:0|0:0,0:0:0:0:
270,69,18720,2,0,P|230:94|204:145,1,86.9000026519776,0|0,1:0|0:0,0:0:0:0:
193,332,19200,5,2,0:0:0:0:
299,165,19440,1,0,0:0:0:0:
114,236,19680,1,0,1:0:0:0:
306,285,19920,1,0,0:0:0:0:
209,126,20160,2,0,B|149:101|149:101|66:107,1,130.350003977966,2|0,0:0|0:0,0:0:0:0:
76,85,20640,2,0,L|189:78,1,86.9000026519776,0|0,1:0|0:0,0:0:0:0:
372,83,21120,6,0,B|382:179|382:179|357:233,1,130.350003977966,6|0,0:0|0:0,0:0:0:0:
367,209,21600,1,0,1:0:0:0:
194,290,21840,2,0,B|113:316|100:254|11:290,1,173.800005303955,2|2,0:0|0:0,0:0:0:0:
269,250,22560,2,0,P|236:216|188:204,1,86.9000026519776,0|0,1:0|0:0,0:0:0:0:
268,371,23040,6,0,L|426:358,1,130.350003977966,2|0,0:0|0:0,0:0:0:0:
397,360,23520,1,0,1:0:0:0:
483,240,23760,2,0,P|486:162|405:73,1,173.800005303955,2|2,0:0|0:0,0:0:0:0:
269,23,24480,1,0,1:0:0:0:
143,143,24720,1,8,3:0:0:0:
143,143,24840,1,8,3:0:0:0:
143,143,24960,6,0,L|31:135,1,86.9000026519776,6|0,0:0|0:0,0:0:0:0:
224,245,25440,2,0,L|336:237,1,86.9000026519776,0|0,1:0|0:0,0:0:0:0:
257,110,25920,1,2,0:0:0:0:
131,230,26160,1,0,3:0:0:0:
131,230,26280,1,0,3:0:0:0:
131,230,26400,2,0,P|137:283|172:322,1,86.9000026519776,0|0,1:0|0:0,0:0:0:0:
358,359,26880,5,2,0:0:0:0:
225,246,27120,1,0,0:0:0:0:
429,287,27360,1,0,1:0:0:0:
290,303,27600,1,0,0:0:0:0:
430,148,27840,2,0,P|436:91|361:59,1,130.350003977966,2|0,0:0|0:0,0:0:0:0:
360,65,28320,2,0,L|264:60,1,86.9000026519776,0|0,1:0|0:0,0:0:0:0:
172,210,28800,6,0,L|303:203,1,130.350003977966,6|0,0:0|0:0,0:0:0:0:
302,203,29280,1,0,1:0:0:0:
106,133,29520,2,0,P|71:194|105:289,1,173.800005303955,2|2,0:0|0:0,0:0:0:0:
241,129,30240,2,0,L|233:31,1,86.9000026519776,0|0,1:0|0:0,0:0:0:0:
173,211,30720,6,0,P|248:234|320:199,1,130.350003977966,2|0,0:0|0:0,0:0:0:0:
295,219,31200,1,0,1:0:0:0:
438,92,31440,2,0,B|458:205|458:205|406:263,1,173.800005303955,2|2,0:0|0:0,0:0:0:0:
266,365,32160,1,0,1:0:0:0:
410,336,32400,1,0,0:0:0:0:
248,236,32640,6,0,L|253:86,2,126.4,6|2|2,0:0|0:0|0:0,0:0:0:0:
159,325,34080,1,2,0:0:0:0:
68,236,34560,2,0,L|63:86,2,126.4,2|2|2,0:0|0:0|0:0,0:0:0:0:
159,325,36000,1,2,0:0:0:0:
248,236,36480,6,0,P|312:224|379:240,1,126.4,2|2,0:0|0:0,0:0:0:0:
368,362,37440,2,0,P|304:374|237:358,1,126.4,2|2,0:0|0:0,0:0:0:0:
129,240,38400,6,0,B|121:196|121:196|138:135|138:135|131:81,1,158,4|0,3:0|0:0,0:0:0:0:
131,85,39840,6,0,P|187:91|229:76,1,79
400,30,40320,6,0,L|401:145,1,86.9000026519776,6|0,0:0|0:0,0:0:0:0:
399,316,40800,1,0,1:0:0:0:
503,166,41040,1,0,0:0:0:0:
320,174,41280,2,0,P|303:137|309:81,1,86.9000026519776,2|0,0:0|0:0,0:0:0:0:
468,260,41760,2,0,P|485:297|479:353,1,86.9000026519776,0|0,1:0|0:0,0:0:0:0:
400,116,42240,5,2,0:0:0:0:
399,316,42480,1,0,0:0:0:0:
218,230,42720,2,0,L|99:235,1,86.9000026519776,0|0,1:0|0:0,0:0:0:0:
6,76,43200,2,0,L|139:72,1,130.350003977966,2|0,0:0|0:0,0:0:0:0:
162,71,43680,2,0,P|177:112|175:168,1,86.9000026519776,0|0,1:0|0:0,0:0:0:0:
142,351,44160,6,0,B|209:367|209:367|295:349,1,130.350003977966,2|0,0:0|0:0,0:0:0:0:
269,354,44640,1,0,1:0:0:0:
412,190,44880,2,0,B|398:-5,1,173.800005303955,2|2,0:0|0:0,0:0:0:0:
294,159,45600,2,0,P|289:202|314:260,1,86.9000026519776,0|0,1:0|0:0,0:0:0:0:
505,257,46080,6,0,P|470:199|399:194,1,130.350003977966,2|0,0:0|0:0,0:0:0:0:
412,189,46560,1,0,1:0:0:0:
269,354,46800,2,0,B|198:342|198:342|145:386|68:357,1,173.800005303955,2|2,0:0|0:0,0:0:0:0:
117,191,47520,2,0,P|129:228|127:268,1,79,0|0,1:0|0:0,0:0:0:0:
18,124,48000,6,0,P|8:82|14:38,1,86.9000026519776,6|0,0:0|0:0,0:0:0:0:
232,39,48480,2,0,P|241:80|235:124,1,86.9000026519776,0|0,1:0|0:0,0:0:0:0:
127,267,48960,1,2,0:0:0:0:
121,86,49200,1,0,0:0:0:0:
286,198,49440,2,0,L|399:195,1,86.9000026519776,0|0,1:0|0:0,0:0:0:0:
232,39,49920,5,2,0:0:0:0:
173,202,50160,1,0,0:0:0:0:
340,93,50400,2,0,P|379:87|437:110,1,86.9000026519776,0|0,1:0|0:0,0:0:0:0:
425,300,50880,2,0,P|362:310|284:271,1,130.350003977966,2|0,0:0|0:0,0:0:0:0:
282,267,51360,2,0,B|238:265|238:265|191:274,1,86.9000026519776,0|0,1:0|0:0,0:0:0:0:
3,325,51840,6,0,L|8:163,1,130.350003977966,2|0,0:0|0:0,0:0:0:0:
7,194,52320,1,0,1:0:0:0:
169,78,52560,2,0,P|218:104|137:130,1,173.800005303955,2|2,0:0|0:0,0:0:0:0:
316,40,53280,2,0,L|414:44,1,86.9000026519776,0|0,1:0|0:0,0:0:0:0:
500,218,53760,6,0,B|458:216|458:216|412:224|412:224|344:219,1,130.350003977966,2|0,0:0|0:0,0:0:0:0:
370,220,54240,1,0,1:0:0:0:
179,207,54480,2,0,P|150:139|200:47,1,173.800005303955,2|2,0:0|0:0,0:0:0:0:
326,134,55200,2,0,L|248:136,1,79,0|0,1:0|0:0,0:0:0:0:
56,141,55680,6,0,B|51:185|51:185|59:236,1,86.9000026519776,6|0,0:0|0:0,0:0:0:0:
229,361,56160,1,0,1:0:0:0:
79,314,56400,1,0,0:0:0:0:
265,242,56640,2,0,P|303:229|371:241,1,86.9000026519776,2|0,0:0|0:0,0:0:0:0:
508,354,57120,2,0,P|469:366|402:355,1,86.9000026519776,0|0,1:0|0:0,0:0:0:0:
265,242,57600,5,2,0:0:0:0:
456,262,57840,1,0,0:0:0:0:
331,105,58080,2,0,L|243:104,1,86.9000026519776,0|0,1:0|0:0,0:0:0:0:
120,262,58560,2,0,P|183:277|253:252,1,130.350003977966,2|0,0:0|0:0,0:0:0:0:
265,242,59040,2,0,B|277:285|277:285|275:330,1,86.9000026519776,0|0,1:0|0:0,0:0:0:0:
103,178,59520,6,0,B|91:135|91:135|98:38,1,130.350003977966,2|0,0:0|0:0,0:0:0:0:
97,49,60000,1,0,1:0:0:0:
270,129,60240,2,0,P|357:156|438:98,1,173.800005303955,2|2,0:0|0:0,0:0:0:0:
214,64,60960,2,0,P|189:102|192:163,1,86.9000026519776,0|0,1:0|0:0,0:0:0:0:
238,335,61440,5,2,0:0:0:0:
86,204,61680,1,0,3:0:0:0:
86,204,61800,1,0,3:0:0:0:
86,204,61920,2,0,L|-24:206,1,86.9000026519776,0|0,1:0|0:0,0:0:0:0:
151,333,62400,2,0,L|261:335,1,86.9000026519776,2|0,0:0|0:0,0:0:0:0:
438,338,62880,1,0,1:0:0:0:
328,150,63120,1,0,0:0:0:0:
328,150,63240,1,0,0:0:0:0:
328,150,63360,5,4,1:0:0:0:
256,192,63480,12,0,66720,0:0:0:0:
