osu file format v14

[General]
AudioFilename: MILO-Energy-Beat.mp3
AudioLeadIn: 0
PreviewTime: 16680
Countdown: 0
SampleSet: Soft
StackLeniency: 0.7
Mode: 0
LetterboxInBreaks: 0
WidescreenStoryboard: 0

[Editor]
DistanceSpacing: 1.1
BeatDivisor: 2
GridSize: 4
TimelineZoom: 1

[Metadata]
Title:Champion Energy 2.5mins 062017
TitleUnicode:Champion Energy 2.5mins 062017
Artist:Thyro Alfaro
ArtistUnicode:Thyro Alfaro
Creator:-Nitrous
Version:Easy
Source:
Tags:nestle advertisement tagalog filipino energize gap Corinn Akitoshi
BeatmapID:1183311
BeatmapSetID:559511

[Difficulty]
HPDrainRate:1
CircleSize:2
OverallDifficulty:2
ApproachRate:2
SliderMultiplier:0.8
SliderTickRate:1

[Events]
//Background and Video events
0,0,"ENERGIZE.jpg",0,0
//Break Periods
//Storyboard Layer 0 (Background)
//Storyboard Layer 1 (Fail)
//Storyboard Layer 2 (Pass)
//Storyboard Layer 3 (Foreground)
//Storyboard Sound Samples

[TimingPoints]
0,480,4,2,1,40,1,0
5760,-100,4,2,1,60,0,0
13440,-100,4,2,1,70,0,0
17280,-100,4,2,1,80,0,1
24480,-100,4,2,1,80,0,0
24960,-100,4,2,1,80,0,1
32640,-100,4,2,1,70,0,0
40320,-100,4,2,1,80,0,1
47520,-100,4,2,1,80,0,0
48000,-100,4,2,1,80,0,1
55200,-100,4,2,1,80,0,0
55680,-100,4,2,1,80,0,1
63360,-100,4,2,1,80,0,0
66720,-100,4,2,1,5,0,0

[Colours]
Combo1 : 0,120,240
Combo2 : 0,213,106
Combo3 : 178,178,178
Combo4 : 255,128,64

[HitObjects]
419,144,0,6,0,P|464:214|413:273,1,160,2|0,0:0|0:0,0:0:0:0:
355,323,1440,1,2,0:0:0:0:
285,269,1920,2,0,B|234:249|234:249|119:268,1,160,2|0,0:0|0:0,0:0:0:0:
49,301,3360,1,2,0:0:0:0:
26,215,3840,6,0,P|23:124|161:95,1,240,2|0,0:0|0:0,0:0:0:0:
102,165,5760,6,0,B|154:181|154:181|269:155,1,160,4|0,0:0|0:0,0:0:0:0:
341,131,7200,1,8,0:0:0:0:
407,188,7680,2,0,P|428:247|406:320,2,120,2|2|8,0:0|0:0|0:0,0:0:0:0:
341,131,9600,6,0,L|205:136,2,120,2|2|8,0:0|0:0|0:0,0:0:0:0:
396,62,11520,2,0,P|429:133|389:204,1,160,0|4,3:0|0:3,0:0:0:0:
250,302,13440,6,0,B|201:266|201:266|177:229|177:229|114:182,1,160,4|0,0:0|0:0,0:0:0:0:
74,130,14880,1,8,0:0:0:0:
127,60,15360,2,0,B|181:43|181:43|298:62,1,160,4|0,0:0|0:0,0:0:0:0:
368,81,16800,1,8,0:0:0:0:
448,116,17280,6,0,P|483:193|417:262,1,160,4|2,0:0|0:0,0:0:0:0:
376,305,18720,1,8,0:0:0:0:
330,229,19200,2,0,B|275:217|275:217|165:233,1,160,2|2,0:0|0:0,0:0:0:0:
89,261,20640,1,8,0:0:0:0:
47,183,21120,6,0,B|37:112|37:112|54:66,2,120,4|2|8,0:0|0:0|0:0,0:0:0:0:
89,261,23040,2,0,L|208:254,2,120,2|2|8,0:0|0:0|0:0,0:0:0:0:
25,199,24960,6,0,P|1:276|56:344,1,160,4|2,0:0|0:0,0:0:0:0:
128,355,26400,1,8,0:0:0:0:
214,337,26880,2,0,B|268:331|268:331|316:339|316:339|385:329,1,160,2|2,0:0|0:0,0:0:0:0:
460,323,28320,1,8,0:0:0:0:
416,246,28800,6,0,P|420:200|489:139,2,120,4|2|8,0:0|0:0|0:0,0:0:0:0:
344,297,30720,2,0,P|309:268|217:274,2,120,4|2|8,0:0|0:0|0:0,0:0:0:0:
396,369,32640,6,0,P|433:299|379:216,1,160,4|2,0:0|0:0,0:0:0:0:
336,171,34080,1,0,0:0:0:0:
260,216,34560,2,0,B|207:234|207:234|86:218,1,160,2|0,0:0|0:0,0:0:0:0:
18,199,36000,1,2,0:0:0:0:
256,192,36480,12,2,38400,0:0:0:0:
342,232,40320,6,0,B|293:248|293:248|248:237|248:237|172:253,1,160,4|2,0:0|0:0,0:0:0:0:
109,291,41760,1,8,0:0:0:0:
44,230,42240,2,0,P|25:156|84:93,1,160,2|2,0:0|0:0,0:0:0:0:
143,40,43680,1,8,0:0:0:0:
208,98,44160,6,0,L|352:94,2,120,4|2|8,0:0|0:0|0:0,0:0:0:0:
147,160,46080,2,0,L|27:156,2,120,2|2|8,0:0|0:0|0:0,0:0:0:0:
213,217,48000,6,0,P|234:145|175:77,1,160,4|2,0:0|0:0,0:0:0:0:
119,23,49440,1,8,0:0:0:0:
50,78,49920,2,0,B|30:127|30:127|61:256,1,160,2|2,0:0|0:0,0:0:0:0:
96,308,51360,1,8,0:0:0:0:
169,260,51840,6,0,B|201:246|201:246|300:250,2,120,4|2|8,0:0|0:0|0:0,0:0:0:0:
135,341,53760,2,0,P|94:306|97:213,2,120,4|2|8,0:0|0:0|0:0,0:0:0:0:
222,348,55680,6,0,L|404:339,1,160,4|2,0:0|0:0,0:0:0:0:
469,335,57120,1,8,0:0:0:0:
420,261,57600,2,0,P|387:192|421:105,1,160,2|2,0:0|0:0,0:0:0:0:
449,36,59040,1,8,0:0:0:0:
361,40,59520,6,0,B|320:47|320:47|213:28,2,120,4|2|8,0:0|0:0|0:0,0:0:0:0:
448,28,61440,2,0,P|494:92|452:164,1,160,4|2,0:0|0:0,0:0:0:0:
400,222,62880,1,8,0:0:0:0:
256,192,63360,12,0,66720,0:0:0:0:
