osu file format v14

[General]
AudioFilename: audio.mp3
AudioLeadIn: 0
PreviewTime: 37441
Countdown: 0
SampleSet: Soft
StackLeniency: 0.3
Mode: 0
LetterboxInBreaks: 0
WidescreenStoryboard: 1

[Editor]
DistanceSpacing: 1
BeatDivisor: 4
GridSize: 32
TimelineZoom: 2.1

[Metadata]
Title:Telecaster B-boy
TitleUnicode:テレキャスタービーボーイ
Artist:Three feat. Kagamine Len
ArtistUnicode:すりぃ feat.鏡音レン
Creator:Wanpachi
Version:Normal
Source:
Tags:surii 3 パラドックス paradox vocaloid japanese pop j-pop jpop cycopton cut short ver. version edit pandemic パンデミック
BeatmapID:2611853
BeatmapSetID:1250030

[Difficulty]
HPDrainRate:4
CircleSize:3
OverallDifficulty:4.5
ApproachRate:5
SliderMultiplier:1
SliderTickRate:1

[Events]
//Background and Video events
0,0,"wo ai ni.jpg",0,0
//Break Periods
//Storyboard Layer 0 (Background)
//Storyboard Layer 1 (Fail)
//Storyboard Layer 2 (Pass)
//Storyboard Layer 3 (Foreground)
//Storyboard Layer 4 (Overlay)
//Storyboard Sound Samples

[TimingPoints]
-4427,329.67032967033,4,2,1,50,1,0
847,-100,4,2,1,70,0,0
11397,-100,4,2,1,60,0,0
21946,-100,4,2,1,70,0,0
32496,-105.263157894737,4,2,2,50,0,0
37770,-95.2380952380952,4,2,2,80,0,1
37853,-95.2380952380952,4,2,1,80,0,1
43045,-95.2380952380952,4,2,1,80,0,0
43292,-95.2380952380952,4,2,1,5,0,0
43375,-95.2380952380952,4,2,1,80,0,1
47990,-95.2380952380952,4,2,1,80,0,0
48320,-95.2380952380952,4,2,1,80,0,1
58869,-95.2380952380952,4,2,1,80,0,0

[Colours]
Combo1 : 40,172,119
Combo2 : 237,205,107

[HitObjects]
48,45,518,5,2,3:2:0:0:
124,108,847,6,0,P|173:101|220:85,1,100,6|8,3:2|0:0,0:0:0:0:
256,49,1342,1,2,0:0:0:0:
354,62,1671,2,0,P|357:37|365:13,2,50,2|10|2,0:0|0:0|0:0,0:0:0:0:
389,97,2166,2,0,P|395:146|411:193,1,100,2|8,3:2|0:0,0:0:0:0:
437,236,2660,1,2,0:0:0:0:
369,309,2990,1,2,0:0:0:0:
369,309,3155,2,0,P|345:300|320:297,1,50,10|2,0:0|0:0,0:0:0:0:
285,262,3485,6,0,P|235:268|188:284,1,100,2|8,3:2|0:0,0:0:0:0:
147,313,3979,1,2,0:0:0:0:
74,243,4309,2,0,P|50:251|25:254,2,50,2|10|2,0:0|0:0|0:0,0:0:0:0:
109,207,4803,2,0,P|125:159|131:110,1,100,2|8,3:2|0:0,0:0:0:0:
120,61,5298,1,2,0:0:0:0:
221,41,5627,1,2,0:0:0:0:
221,41,5792,2,0,P|244:49|269:52,1,50,10|10,0:0|0:0,0:0:0:0:
315,32,6122,6,0,P|362:15|411:9,1,100,6|8,3:2|0:0,0:0:0:0:
458,27,6616,1,2,0:0:0:0:
446,126,6946,2,0,P|422:117|397:114,2,50,2|10|2,0:0|0:0|0:0,0:0:0:0:
480,162,7441,2,0,P|463:209|457:258,1,100,2|8,3:2|0:0,0:0:0:0:
470,307,7935,1,2,0:0:0:0:
382,355,8265,1,2,0:0:0:0:
382,355,8430,2,0,P|358:346|333:343,1,50,10|2,0:0|0:0,0:0:0:0:
286,328,8759,6,0,P|238:344|189:350,1,100,2|8,3:2|0:0,0:0:0:0:
141,333,9254,1,2,0:0:0:0:
80,253,9583,2,0,P|56:244|31:241,2,50,2|10|2,0:0|0:0|0:0,0:0:0:0:
122,225,10078,2,0,P|138:177|144:128,1,100,2|8,3:2|0:0,0:0:0:0:
118,84,10573,1,2,0:0:0:0:
203,29,10902,1,10,0:0:0:0:
203,29,11067,2,0,P|226:37|251:40,1,50,10|6,0:0|0:3,0:0:0:0:
279,81,11397,6,0,P|302:72|327:69,2,50,6|2|10,3:2|0:0|3:2,0:0:0:0:
255,125,11891,2,0,P|238:172|232:221,1,100,2|2,0:0|0:0,0:0:0:0:
259,263,12386,1,10,3:2:0:0:
347,309,12715,1,2,3:2:0:0:
347,309,12880,1,2,0:0:0:0:
446,296,13210,2,0,P|462:248|468:199,1,100,2|0,0:0|0:0,0:0:0:0:
448,100,13869,1,2,0:0:0:0:
448,100,14034,6,0,P|456:76|459:51,2,50,2|2|10,3:2|0:0|3:2,0:0:0:0:
398,109,14529,2,0,P|350:92|301:86,1,100,2|2,0:0|0:0,0:0:0:0:
273,44,15023,1,10,3:2:0:0:
175,65,15353,1,2,3:2:0:0:
175,65,15518,1,2,0:0:0:0:
207,160,15847,2,0,P|200:209|184:256,1,100,2|2,0:0|0:0,0:0:0:0:
121,335,16507,1,2,0:0:0:0:
121,335,16671,6,0,P|98:326|73:323,2,50,2|2|10,3:2|0:0|3:2,0:0:0:0:
159,367,17166,2,0,P|208:360|255:344,1,100,2|2,0:0|0:0,0:0:0:0:
297,316,17660,1,10,3:2:0:0:
397,318,17990,1,2,3:2:0:0:
397,318,18155,1,2,0:0:0:0:
480,262,18485,2,0,P|473:212|457:165,1,100,2|0,0:0|0:0,0:0:0:0:
424,72,19144,1,2,0:0:0:0:
424,72,19309,6,0,P|376:88|327:95,1,100,2|10,3:2|3:2,0:0:0:0:
237,51,19968,1,2,3:2:0:0:
151,102,20298,2,0,P|148:126|139:150,1,50,10|2,3:2|0:0,0:0:0:0:
103,185,20627,2,0,P|119:232|126:281,1,100,2|8,3:2|3:2,0:0:0:0:
162,316,21122,1,2,0:0:0:0:
230,241,21452,1,8,0:0:0:0:
230,241,21616,2,0,P|253:232|278:229,1,50,10|2,0:0|0:0,0:0:0:0:
303,185,21946,6,0,P|327:188|351:196,2,50,6|2|10,3:2|0:0|3:2,0:0:0:0:
283,138,22441,2,0,P|266:90|259:41,1,100,2|2,0:0|0:0,0:0:0:0:
215,17,22935,1,10,3:2:0:0:
140,83,23265,1,2,3:2:0:0:
140,83,23430,2,0,P|116:74|91:71,1,50,2|8,0:0|3:2,0:0:0:0:
61,110,23759,2,0,P|78:158|85:207,1,100,2|2,0:0|0:0,0:0:0:0:
120,300,24419,1,2,0:0:0:0:
120,300,24583,6,0,P|111:324|108:348,2,50,2|2|10,3:2|0:0|3:2,0:0:0:0:
155,264,25078,2,0,P|204:271|251:287,1,100,2|2,0:0|0:0,0:0:0:0:
286,323,25573,1,10,3:2:0:0:
378,285,25902,1,2,3:2:0:0:
378,285,26067,2,0,P|374:260|366:236,1,50,2|8,0:0|3:2,0:0:0:0:
321,213,26397,2,0,P|338:165|345:116,1,100,2|2,0:0|0:0,0:0:0:0:
262,59,27056,1,2,0:0:0:0:
262,59,27221,6,0,P|259:34|251:10,2,50,2|2|10,3:2|0:0|3:2,0:0:0:0:
221,88,27715,2,0,P|204:136|197:185,1,100,2|2,0:0|0:0,0:0:0:0:
165,223,28210,1,10,3:2:0:0:
205,314,28540,1,2,3:2:0:0:
205,314,28704,2,0,P|229:305|253:302,1,50,2|8,0:0|3:2,0:0:0:0:
300,282,29034,2,0,P|348:299|397:306,1,100,2|2,0:0|0:0,0:0:0:0:
470,236,29693,1,2,0:0:0:0:
470,236,29858,6,0,P|453:188|446:139,1,100,2|10,3:2|3:2,0:0:0:0:
375,68,30518,1,2,3:2:0:0:
283,108,30847,2,0,P|258:111|234:119,1,50,10|2,3:2|0:0,0:0:0:0:
207,162,31177,1,2,3:2:0:0:
207,162,31342,2,0,P|183:153|158:150,1,50,2|8,0:0|3:2,0:0:0:0:
110,164,31671,1,2,0:0:0:0:
63,254,32000,1,10,0:0:0:0:
63,254,32165,1,10,0:0:0:0:
118,344,32495,5,6,0:0:0:0:
118,344,32660,2,0,P|164:336|209:320,1,94.9999974632264,2|2,0:0|0:0,0:0:0:0:
243,286,33155,1,2,0:0:0:0:
243,286,33320,2,0,P|250:239|266:194,1,94.9999974632264,2|2,0:0|0:0,0:0:0:0:
290,153,33814,1,2,0:0:0:0:
248,67,34144,1,10,0:0:0:0:
326,13,34474,2,0,P|372:20|417:36,1,94.9999974632264,2|8,0:0|0:0,0:0:0:0:
451,70,34968,6,0,P|458:116|474:161,1,94.9999974632264,2|2,0:0|0:0,0:0:0:0:
502,200,35463,1,10,0:0:0:0:
442,274,35792,2,0,P|397:257|350:250,1,94.9999974632264,2|10,0:0|0:0,0:0:0:0:
280,314,36452,1,2,0:0:0:0:
280,314,36616,1,2,0:0:0:0:
188,286,36946,1,2,0:0:0:0:
256,32,37770,6,0,P|207:51|155:61,1,104.999996795654,6|10,3:1|0:0,0:0:0:0:
54,91,38430,2,0,P|46:52|32:15,2,78.7499975967408,2|2|2,3:1|0:1|0:1,0:0:0:0:
19,190,39254,1,2,0:0:0:0:
19,190,39419,2,0,P|44:194|69:204,1,52.4999983978272,10|2,0:0|0:0,0:0:0:0:
106,241,39748,2,0,P|91:277|84:316,2,78.7499975967408,2|2|2,3:1|0:1|0:1,0:0:0:0:
213,225,40573,5,2,0:0:0:0:
213,225,40737,2,0,P|222:249|227:275,1,52.4999983978272,10|2,0:0|0:0,0:0:0:0:
216,327,41067,2,0,P|191:331|166:341,2,52.4999983978272,0|2|10,3:2|0:0|0:0,0:0:0:0:
315,360,41726,2,0,P|321:322|336:285,2,78.7499975967408,2|2|2,3:1|0:1|0:1,0:0:0:0:
420,354,42551,1,8,0:0:0:0:
420,354,42715,2,0,P|444:344|470:339,1,52.4999983978272,8|10,0:0|0:0,0:0:0:0:
498,295,43045,5,6,0:3:0:0:
433,212,43375,1,14,0:0:0:0:
480,118,43704,2,0,P|486:80|501:43,2,78.7499975967408,2|2|2,3:1|0:1|0:1,0:0:0:0:
381,81,44529,1,2,0:0:0:0:
381,81,44693,2,0,P|356:85|331:95,1,52.4999983978272,14|2,0:0|0:0,0:0:0:0:
280,80,45023,2,0,P|265:43|258:4,2,78.7499975967408,2|2|10,3:1|0:1|0:1,0:0:0:0:
199,147,45847,5,2,0:0:0:0:
199,147,46012,2,0,P|174:156|148:161,1,52.4999983978272,10|2,0:0|3:2,0:0:0:0:
102,136,46342,2,0,P|97:110|87:85,2,52.4999983978272,10|2|10,0:0|3:2|0:0,0:0:0:0:
28,211,47001,2,0,P|36:262|56:311,1,104.999996795654,6|8,3:2|0:0,0:0:0:0:
105,330,47496,1,10,0:0:0:0:
105,330,47660,2,0,P|153:310|205:301,1,104.999996795654,10|8,0:0|0:0,0:0:0:0:
253,209,48320,5,2,3:2:0:0:
253,209,48485,2,0,P|244:157|223:108,1,104.999996795654,2|2,3:2|0:0,0:0:0:0:
185,82,48979,1,2,3:2:0:0:
185,82,49144,1,2,3:2:0:0:
256,5,49474,2,0,P|307:14|356:32,1,104.999996795654,2|2,0:0|3:2,0:0:0:0:
392,70,49968,1,10,0:0:0:0:
488,23,50298,1,2,3:2:0:0:
488,23,50463,1,2,3:2:0:0:
498,127,50792,6,0,P|478:175|469:227,1,104.999996795654,2|2,0:0|3:2,0:0:0:0:
502,267,51287,1,10,0:0:0:0:
431,344,51616,2,0,P|379:335|330:315,1,104.999996795654,2|10,3:2|0:0,0:0:0:0:
249,248,52276,2,0,P|197:256|148:276,1,104.999996795654,2|8,3:2|0:0,0:0:0:0:
105,257,52770,1,2,0:0:0:0:
105,257,52935,2,0,P|85:208|76:156,1,104.999996795654,2|8,3:2|0:0,0:0:0:0:
53,54,53594,6,0,P|104:63|153:82,1,104.999996795654,6|10,3:2|0:0,0:0:0:0:
244,135,54254,2,0,P|252:174|266:211,2,78.7499975967408,2|2|2,3:1|0:1|0:1,0:0:0:0:
316,59,55078,1,2,3:2:0:0:
316,59,55243,2,0,P|341:63|366:73,1,52.4999983978272,10|2,0:0|0:0,0:0:0:0:
418,78,55573,2,0,P|426:39|440:2,2,78.7499975967408,2|2|2,3:1|0:1|0:1,0:0:0:0:
435,186,56397,5,2,3:2:0:0:
435,186,56561,2,0,P|425:210|420:236,1,52.4999983978272,10|2,0:0|0:0,0:0:0:0:
458,273,56891,2,0,P|483:277|508:287,2,52.4999983978272,2|2|10,3:2|3:2|0:0,0:0:0:0:
386,350,57551,2,0,P|337:369|285:378,1,104.999996795654,6|10,3:2|0:0,0:0:0:0:
248,340,58045,1,6,0:3:0:0:
248,340,58210,2,0,P|199:320|147:311,1,104.999996795654,6|8,0:3|0:0,0:0:0:0:
73,237,58869,6,0,P|77:211|87:186,1,52.4999983978272,6|10,3:2|0:0,0:0:0:0:
124,149,59199,2,0,P|114:124|109:98,1,52.4999983978272,10|10,0:0|0:0,0:0:0:0:
147,61,59529,1,10,0:0:0:0:
