osu file format v14

[General]
AudioFilename: audio.mp3
AudioLeadIn: 0
PreviewTime: 37441
Countdown: 0
SampleSet: Soft
StackLeniency: 0.3
Mode: 0
LetterboxInBreaks: 0
WidescreenStoryboard: 0

[Editor]
DistanceSpacing: 1.6
BeatDivisor: 4
GridSize: 32
TimelineZoom: 2.1

[Metadata]
Title:Telecaster B-boy
TitleUnicode:テレキャスタービーボーイ
Artist:Three feat. Kagamine Len
ArtistUnicode:すりぃ feat.鏡音レン
Creator:Wanpachi
Version:Insane
Source:
Tags:surii 3 パラドックス paradox vocaloid japanese pop j-pop jpop cycopton cut short ver. version edit pandemic パンデミック
BeatmapID:2598029
BeatmapSetID:1250030

[Difficulty]
HPDrainRate:5.5
CircleSize:4
OverallDifficulty:8.5
ApproachRate:9
SliderMultiplier:1.6
SliderTickRate:1

[Events]
//Background and Video events
0,0,"wo ai ni.jpg",0,0
//Break Periods
//Storyboard Layer 0 (Background)
//Storyboard Layer 1 (Fail)
//Storyboard Layer 2 (Pass)
//Storyboard Layer 3 (Foreground)
//Storyboard Layer 4 (Overlay)
//Storyboard Sound Samples

[TimingPoints]
-4427,329.67032967033,4,2,1,50,1,0
847,-100,4,2,1,70,0,0
11397,-111.111111111111,4,2,1,60,0,0
21946,-100,4,2,1,70,0,0
32496,-125,4,2,2,50,0,0
37770,-90.9090909090909,4,2,2,80,0,1
37853,-90.9090909090909,4,2,1,80,0,1
38594,-90.9090909090909,4,2,1,5,0,1
38677,-90.9090909090909,4,2,1,80,0,1
38842,-90.9090909090909,4,2,1,5,0,1
38925,-90.9090909090909,4,2,1,80,0,1
39913,-90.9090909090909,4,2,1,5,0,1
39996,-90.9090909090909,4,2,1,80,0,1
40160,-90.9090909090909,4,2,1,5,0,1
40243,-90.9090909090909,4,2,1,80,0,1
41149,-90.9090909090909,4,2,1,5,0,1
41232,-90.9090909090909,4,2,1,80,0,1
41891,-90.9090909090909,4,2,1,5,0,1
41974,-90.9090909090909,4,2,1,80,0,1
42138,-90.9090909090909,4,2,1,5,0,1
42221,-90.9090909090909,4,2,1,80,0,1
43045,-142.857142857143,4,2,1,80,0,0
43292,-142.857142857143,4,2,1,5,0,0
43375,-90.9090909090909,4,2,1,80,0,1
43869,-90.9090909090909,4,2,1,5,0,1
43952,-90.9090909090909,4,2,1,80,0,1
44116,-90.9090909090909,4,2,1,5,0,1
44199,-90.9090909090909,4,2,1,80,0,1
45188,-90.9090909090909,4,2,1,5,0,1
45271,-90.9090909090909,4,2,1,80,0,1
45435,-90.9090909090909,4,2,1,5,0,1
45518,-90.9090909090909,4,2,1,80,0,1
47990,-90.9090909090909,4,2,1,80,0,0
48320,-90.9090909090909,4,2,1,80,0,1
54419,-90.9090909090909,4,2,1,5,0,1
54502,-90.9090909090909,4,2,1,80,0,1
54666,-90.9090909090909,4,2,1,5,0,1
54749,-90.9090909090909,4,2,1,80,0,1
55737,-90.9090909090909,4,2,1,5,0,1
55820,-90.9090909090909,4,2,1,80,0,1
55985,-90.9090909090909,4,2,1,5,0,1
56068,-90.9090909090909,4,2,1,80,0,1
58869,-90.9090909090909,4,2,1,80,0,0

[Colours]
Combo1 : 191,191,191
Combo2 : 237,205,107
Combo3 : 40,172,119

[HitObjects]
195,299,518,5,2,3:2:0:0:
179,286,847,6,0,P|154:209|144:130,1,160,6|8,3:2|0:0,0:0:0:0:
329,174,1342,2,0,P|290:186|251:191,1,80,2|0,0:0|3:2,0:0:0:0:
259,62,1671,1,2,0:0:0:0:
436,161,1836,2,0,P|430:200|418:238,1,80,10|2,0:0|0:0,0:0:0:0:
297,384,2166,22,0,P|376:373|452:348,1,160,2|8,3:2|0:0,0:0:0:0:
298,213,2660,2,0,P|303:252|315:290,1,80,2|0,0:0|3:2,0:0:0:0:
372,126,2990,1,2,0:0:0:0:
369,117,3073,1,2,0:0:0:0:
366,108,3155,2,0,P|327:95|288:90,1,80,10|2,0:0|0:0,0:0:0:0:
142,247,3485,6,0,P|218:222|297:212,1,160,2|8,3:2|0:0,0:0:0:0:
262,384,3979,2,0,P|256:344|244:306,1,80,2|0,0:0|3:2,0:0:0:0:
140,373,4309,1,2,0:0:0:0:
36,265,4474,2,0,P|42:225|54:188,1,80,10|2,0:0|0:0,0:0:0:0:
223,137,4803,22,0,P|143:126|67:102,1,160,2|8,3:2|0:0,0:0:0:0:
291,0,5298,2,0,P|303:38|308:77,1,80,2|0,0:0|3:2,0:0:0:0:
371,178,5627,1,2,0:0:0:0:
380,175,5710,1,2,0:0:0:0:
389,172,5792,1,10,0:0:0:0:
276,298,5957,1,10,0:0:0:0:
267,295,6040,1,8,0:0:0:0:
258,292,6122,6,0,P|233:216|223:137,1,160,6|8,3:2|0:0,0:0:0:0:
412,67,6616,2,0,P|399:105|394:144,1,80,2|0,0:0|3:2,0:0:0:0:
509,130,6946,1,2,0:0:0:0:
470,307,7111,2,0,P|430:301|392:289,1,80,10|2,0:0|0:0,0:0:0:0:
143,261,7441,22,0,P|222:250|298:226,1,160,2|8,3:2|0:0,0:0:0:0:
171,80,7935,2,0,P|176:119|188:157,1,80,2|0,0:0|3:2,0:0:0:0:
263,310,8265,1,2,0:0:0:0:
272,307,8347,1,2,0:0:0:0:
281,304,8430,2,0,P|293:265|298:226,1,80,10|2,0:0|0:0,0:0:0:0:
442,68,8759,6,0,P|365:92|286:102,1,160,2|8,3:2|0:0,0:0:0:0:
171,235,9254,2,0,P|176:195|188:157,1,80,2|0,0:0|3:2,0:0:0:0:
294,222,9583,1,2,0:0:0:0:
232,355,9748,2,0,P|193:367|154:372,1,80,10|2,0:0|0:0,0:0:0:0:
15,200,10078,22,0,P|91:224|171:235,1,160,2|8,3:2|0:0,0:0:0:0:
308,206,10573,1,2,0:0:0:0:
145,134,10737,1,8,0:0:0:0:
136,131,10820,1,8,0:0:0:0:
127,128,10902,2,0,P|129:109|135:90,1,40,10|8,0:0|0:0,0:0:0:0:
319,22,11067,1,10,0:0:0:0:
358,19,11149,1,8,0:3:0:0:
391,40,11231,1,6,0:3:0:0:
406,76,11314,1,4,0:3:0:0:
398,115,11397,6,0,P|388:149|384:185,1,71.9999978027344,6|2,3:2|0:0,0:0:0:0:
428,291,11726,1,10,3:2:0:0:
317,366,11891,2,0,P|246:358|177:338,1,143.999995605469,2|2,0:0|0:0,0:0:0:0:
85,383,12386,2,0,P|76:349|71:313,1,71.9999978027344,10|2,3:2|0:0,0:0:0:0:
121,201,12715,21,2,3:2:0:0:
219,233,12880,2,0,P|254:229|289:219,1,71.9999978027344,2|8,0:0|3:2,0:0:0:0:
395,131,13210,2,0,P|416:201|424:272,1,143.999995605469,2|0,0:0|0:0,0:0:0:0:
318,365,13704,1,8,3:2:0:0:
231,316,13869,1,2,0:0:0:0:
111,361,14034,6,0,P|76:371|40:376,1,71.9999978027344,2|2,3:2|0:0,0:0:0:0:
2,266,14364,1,10,3:2:0:0:
110,185,14529,2,0,P|181:193|250:213,1,143.999995605469,2|2,0:0|0:0,0:0:0:0:
344,272,15023,2,0,P|353:237|359:201,1,71.9999978027344,10|2,3:2|0:0,0:0:0:0:
268,85,15353,21,2,3:2:0:0:
187,161,15518,2,0,P|177:195|171:231,1,71.9999978027344,2|8,0:0|3:2,0:0:0:0:
81,327,15847,2,0,P|62:258|53:187,1,143.999995605469,2|2,0:0|0:0,0:0:0:0:
56,178,16259,1,2,0:0:0:0:
59,169,16342,1,8,3:2:0:0:
114,79,16507,1,2,0:0:0:0:
249,68,16671,5,2,3:2:0:0:
356,107,16836,2,0,P|366:141|371:177,1,71.9999978027344,2|10,0:0|3:2,0:0:0:0:
421,306,17166,2,0,P|349:297|280:277,1,143.999995605469,2|2,0:0|0:0,0:0:0:0:
170,231,17660,2,0,P|174:195|184:160,1,71.9999978027344,10|2,3:2|0:0,0:0:0:0:
268,56,17990,21,2,3:2:0:0:
364,24,18155,2,0,P|399:29|434:39,1,71.9999978027344,2|8,0:0|3:2,0:0:0:0:
488,168,18485,2,0,P|418:187|347:195,1,143.999995605469,2|0,0:0|0:0,0:0:0:0:
215,166,18979,1,8,3:2:0:0:
170,269,19144,1,2,0:0:0:0:
301,340,19309,6,0,P|335:349|371:353,1,71.9999978027344,2|0,3:2|0:0,0:0:0:0:
497,374,19638,2,0,P|492:338|483:303,1,71.9999978027344,10|0,3:2|0:0,0:0:0:0:
431,208,19968,2,0,P|395:211|360:222,1,71.9999978027344,2|0,3:2|0:0,0:0:0:0:
222,271,20298,1,10,3:2:0:0:
144,208,20463,1,2,0:0:0:0:
108,74,20627,21,2,3:2:0:0:
201,27,20792,2,0,P|236:32|271:42,1,71.9999978027344,2|8,0:0|3:2,0:0:0:0:
330,181,21122,1,2,0:0:0:0:
318,193,21452,1,8,0:0:0:0:
430,298,21616,2,0,P|442:302|454:304,5,23.9999992675781,10|2|2|2|2|2,0:0|0:0|0:0|0:0|0:0|0:0,0:0:0:0:
427,289,21946,6,0,P|438:251|443:212,1,80,6|2,3:2|0:0,0:0:0:0:
497,88,22276,1,10,3:2:0:0:
329,220,22441,2,0,P|249:208|173:186,1,160,2|2,0:0|0:0,0:0:0:0:
234,12,22935,2,0,P|239:51|250:89,1,80,10|2,3:2|0:0,0:0:0:0:
363,54,23265,21,2,3:2:0:0:
329,220,23430,2,0,P|289:214|251:203,1,80,2|8,0:0|3:2,0:0:0:0:
69,343,23759,2,0,P|145:320|224:309,1,160,2|2,0:0|0:0,0:0:0:0:
233,312,24171,1,2,0:0:0:0:
242,315,24254,1,8,3:2:0:0:
391,250,24419,1,2,0:0:0:0:
206,214,24583,6,0,P|194:175|189:136,1,80,2|2,3:2|0:0,0:0:0:0:
65,51,24913,1,10,3:2:0:0:
272,11,25078,2,0,P|351:22|427:44,1,160,2|2,0:0|0:0,0:0:0:0:
363,135,25573,2,0,P|324:140|286:152,1,80,10|2,3:2|0:0,0:0:0:0:
349,254,25902,21,2,3:2:0:0:
206,340,26067,2,0,P|167:328|128:323,1,80,2|8,0:0|3:2,0:0:0:0:
223,94,26397,2,0,P|245:170|256:249,1,160,2|2,0:0|0:0,0:0:0:0:
253,258,26809,1,2,0:0:0:0:
250,267,26891,1,8,3:2:0:0:
141,196,27056,1,2,0:0:0:0:
329,88,27221,6,0,P|368:93|406:104,1,80,2|2,3:2|0:0,0:0:0:0:
339,185,27551,1,10,3:2:0:0:
479,12,27715,2,0,P|501:88|512:167,1,160,2|2,0:0|0:0,0:0:0:0:
349,272,28210,2,0,P|354:232|365:194,1,80,10|2,3:2|0:0,0:0:0:0:
483,368,28540,21,2,3:2:0:0:
367,384,28704,2,0,P|327:378|289:367,1,80,2|8,0:0|3:2,0:0:0:0:
112,253,29034,2,0,P|191:241|267:219,1,160,2|2,0:0|0:0,0:0:0:0:
270,210,29446,1,2,0:0:0:0:
273,201,29529,1,8,3:2:0:0:
310,62,29693,1,2,0:0:0:0:
148,128,29858,6,0,P|136:89|131:50,1,80,2|0,3:2|0:0,0:0:0:0:
16,181,30188,2,0,P|10:220|0:258,1,80,10|0,3:2|0:0,0:0:0:0:
169,331,30518,2,0,P|208:325|246:314,1,80,2|0,3:2|0:0,0:0:0:0:
314,138,30847,1,10,3:2:0:0:
184,230,31012,1,2,0:0:0:0:
382,314,31177,21,2,3:2:0:0:
426,163,31342,2,0,P|420:123|409:85,1,80,2|8,0:0|3:2,0:0:0:0:
142,111,31671,2,0,P|218:133|297:144,1,160,2|10,0:0|0:0,0:0:0:0:
306,141,32083,1,2,0:0:0:0:
314,138,32166,1,10,0:0:0:0:
241,44,32331,1,2,0:0:0:0:
199,208,32496,5,6,0:0:0:0:
199,208,32660,2,0,P|207:271|225:332,1,128,2|2,0:0|0:0,0:0:0:0:
437,272,33155,1,2,0:0:0:0:
437,272,33320,2,0,P|376:254|313:246,1,128,2|2,0:0|0:0,0:0:0:0:
449,77,33814,22,0,P|444:108|435:139,1,64,2|0,0:0|0:0,0:0:0:0:
277,96,34144,2,0,P|307:87|339:82,1,64,10|0,0:0|0:0,0:0:0:0:
313,246,34474,2,0,P|249:237|188:219,1,128,2|8,0:0|0:0,0:0:0:0:
66,90,34968,6,0,P|83:151|92:214,1,128,2|2,0:0|0:0,0:0:0:0:
39,359,35463,1,10,0:0:0:0:
39,359,35627,1,2,0:0:0:0:
167,318,35792,2,0,P|228:335|291:344,1,128,2|10,0:0|0:0,0:0:0:0:
368,237,36287,1,2,0:0:0:0:
237,192,36452,21,2,0:0:0:0:
237,192,36616,1,2,0:0:0:0:
395,334,36946,1,2,0:0:0:0:
441,77,37605,1,2,0:0:0:0:
441,77,37770,6,0,P|398:89|355:96,1,88.000002685547,6|0,3:1|0:0,0:0:0:0:
201,60,38100,2,0,P|207:103|220:145,1,88.000002685547,10|0,0:0|0:0,0:0:0:0:
394,248,38430,22,0,P|386:291|374:333,1,88.000002685547,2|0,3:1|0:0,0:0:0:0:
276,372,38677,22,0,P|319:364|361:352,1,88.000002685547,2|0,0:1|0:0,0:0:0:0:
467,376,38924,22,0,P|424:363|381:357,1,88.000002685547,2|0,0:1|3:2,0:0:0:0:
176,384,39254,21,2,0:0:0:0:
274,262,39419,1,10,0:0:0:0:
152,147,39583,1,2,0:0:0:0:
83,336,39748,6,0,P|90:292|101:250,1,88.000002685547,2|0,3:1|0:0,0:0:0:0:
211,210,39996,6,0,P|168:222|125:228,1,88.000002685547,2|0,0:1|0:0,0:0:0:0:
8,201,40243,6,0,P|49:214|93:220,1,88.000002685547,2|0,0:1|3:2,0:0:0:0:
326,84,40573,5,2,0:0:0:0:
211,210,40737,1,10,0:0:0:0:
119,65,40902,1,2,0:0:0:0:
128,62,40985,2,0,P|171:67|213:80,1,88.000002685547,2|0,0:0|0:0,0:0:0:0:
222,83,41232,1,2,0:0:0:0:
387,170,41397,1,10,0:0:0:0:
454,25,41562,1,2,0:0:0:0:
299,113,41726,22,0,P|286:155|280:199,1,88.000002685547,2|0,3:1|0:0,0:0:0:0:
179,243,41974,22,0,P|223:236|265:223,1,88.000002685547,2|0,0:1|0:0,0:0:0:0:
384,246,42221,22,0,P|342:235|299:228,1,88.000002685547,2|0,0:1|3:2,0:0:0:0:
278,359,42551,1,8,0:0:0:0:
275,350,42633,1,8,0:0:0:0:
272,341,42715,1,8,0:0:0:0:
447,264,42880,1,10,0:0:0:0:
450,255,42962,1,8,0:0:0:0:
453,244,43045,22,0,P|447:202|438:161,1,83.9999974365235,6|0,0:3|0:0,0:0:0:0:
429,158,43375,6,0,P|386:170|343:177,1,88.000002685547,14|0,0:0|0:0,0:0:0:0:
120,92,43704,22,0,P|163:99|205:111,1,88.000002685547,2|0,3:1|0:0,0:0:0:0:
245,220,43952,22,0,P|231:178|225:134,1,88.000002685547,2|0,0:1|0:0,0:0:0:0:
322,86,44199,22,0,P|280:99|236:106,1,88.000002685547,2|0,0:1|3:2,0:0:0:0:
245,304,44529,21,2,0:0:0:0:
132,174,44693,1,14,0:0:0:0:
315,176,44858,1,2,0:0:0:0:
178,358,45023,6,0,P|165:315|158:272,1,88.000002685547,2|0,3:1|0:0,0:0:0:0:
266,230,45270,6,0,P|223:242|180:249,1,88.000002685547,2|0,0:1|0:0,0:0:0:0:
64,220,45518,6,0,P|106:232|149:238,1,88.000002685547,10|4,0:1|3:2,0:0:0:0:
301,168,45847,5,2,0:0:0:0:
355,384,46012,1,10,0:0:0:0:
512,290,46177,1,2,3:2:0:0:
301,283,46342,2,0,P|288:240|281:197,1,88.000002685547,10|2,0:0|3:2,0:0:0:0:
512,166,46671,1,10,0:0:0:0:
383,309,46836,1,2,3:2:0:0:
256,82,47001,22,0,P|342:95|427:120,1,176.000005371094,6|8,3:2|0:0,0:0:0:0:
430,129,47413,1,8,0:0:0:0:
433,138,47496,2,0,P|439:159|442:180,1,44.0000013427735,10|8,0:0|0:0,0:0:0:0:
324,309,47660,1,10,0:0:0:0:
285,329,47742,1,8,0:0:0:0:
242,327,47824,1,8,0:0:0:0:
206,302,47907,1,8,0:0:0:0:
189,263,47989,1,8,0:0:0:0:
171,223,48072,1,8,0:3:0:0:
135,198,48155,1,6,0:3:0:0:
92,196,48237,1,4,0:3:0:0:
54,217,48319,5,6,3:2:0:0:
191,103,48485,2,0,P|179:60|172:17,1,88.000002685547,2|8,3:2|0:0,0:0:0:0:
307,34,48813,1,2,0:0:0:0:
257,207,48979,1,2,3:2:0:0:
444,158,49144,2,0,P|401:145|358:139,1,88.000002685547,2|8,3:2|0:0,0:0:0:0:
226,347,49474,22,0,P|269:340|311:328,1,88.000002685547,2|0,0:0|3:2,0:0:0:0:
143,154,49802,1,2,3:2:0:0:
108,337,49967,1,10,0:0:0:0:
245,228,50132,1,2,0:0:0:0:
49,226,50298,1,2,3:2:0:0:
83,79,50463,2,0,P|125:66|168:62,1,88.000002685547,2|8,3:2|0:0,0:0:0:0:
245,228,50792,6,0,P|201:220|159:207,1,88.000002685547,2|0,0:0|3:2,0:0:0:0:
313,125,51122,1,2,3:2:0:0:
280,339,51287,1,10,0:0:0:0:
376,187,51451,1,2,0:0:0:0:
223,137,51616,1,2,3:2:0:0:
187,276,51781,1,2,3:2:0:0:
378,283,51946,2,0,P|391:325|398:368,1,88.000002685547,10|2,0:0|0:0,0:0:0:0:
474,163,52276,22,0,P|390:137|304:123,1,176.000005371094,2|8,3:2|0:0,0:0:0:0:
158,229,52770,1,2,0:0:0:0:
273,301,52935,2,0,P|315:288|359:281,1,88.000002685547,2|0,3:2|3:2,0:0:0:0:
491,219,53265,2,0,P|503:176|510:133,1,88.000002685547,8|10,0:0|0:0,0:0:0:0:
506,124,53512,1,8,0:0:0:0:
503,115,53595,6,0,P|460:103|417:96,1,88.000002685547,6|0,3:2|3:2,0:0:0:0:
300,232,53924,2,0,P|257:244|214:251,1,88.000002685547,10|0,0:0|0:0,0:0:0:0:
23,96,54254,22,0,P|66:104|108:115,1,88.000002685547,2|0,3:1|3:2,0:0:0:0:
140,221,54501,22,0,P|132:178|121:136,1,88.000002685547,2|0,0:1|0:0,0:0:0:0:
216,91,54748,22,0,P|174:105|130:111,1,88.000002685547,2|0,0:1|3:2,0:0:0:0:
35,203,55078,21,2,3:2:0:0:
223,181,55243,1,10,0:0:0:0:
119,312,55408,1,2,0:0:0:0:
308,311,55573,6,0,P|321:269|328:226,1,88.000002685547,2|0,3:1|3:2,0:0:0:0:
232,178,55820,6,0,P|274:191|317:197,1,88.000002685547,2|0,0:1|0:0,0:0:0:0:
435,182,56067,6,0,P|392:190|350:202,1,88.000002685547,2|0,0:1|3:2,0:0:0:0:
168,337,56397,5,2,3:2:0:0:
232,178,56562,1,10,0:0:0:0:
66,97,56727,1,2,0:0:0:0:
101,272,56891,2,0,P|144:259|187:252,1,88.000002685547,2|2,3:2|3:2,0:0:0:0:
351,384,57221,2,0,P|308:377|266:364,1,88.000002685547,10|2,0:0|3:2,0:0:0:0:
252,139,57551,21,6,3:2:0:0:
329,299,57715,1,6,0:3:0:0:
498,238,57880,1,10,0:0:0:0:
355,125,58045,1,6,0:3:0:0:
346,122,58127,1,8,0:0:0:0:
337,119,58210,2,0,P|294:125|252:138,1,88.000002685547,6|8,0:3|0:0,0:0:0:0:
307,347,58540,2,0,P|320:304|327:261,1,88.000002685547,8|8,0:0|0:3,0:0:0:0:
324,252,58787,1,4,0:3:0:0:
321,243,58869,5,6,3:2:0:0:
91,219,59034,1,10,0:0:0:0:
231,384,59199,1,10,0:0:0:0:
85,357,59364,1,10,0:0:0:0:
251,138,59528,1,10,0:0:0:0:
