osu file format v14

[General]
AudioFilename: audio.mp3
AudioLeadIn: 0
PreviewTime: 37441
Countdown: 0
SampleSet: Soft
StackLeniency: 0.3
Mode: 0
LetterboxInBreaks: 0
WidescreenStoryboard: 1

[Editor]
DistanceSpacing: 1.6
BeatDivisor: 4
GridSize: 32
TimelineZoom: 1.4

[Metadata]
Title:Telecaster B-boy
TitleUnicode:テレキャスタービーボーイ
Artist:Three feat. Kagamine Len
ArtistUnicode:すりぃ feat.鏡音レン
Creator:Wanpachi
Version:Hard
Source:
Tags:surii 3 パラドックス paradox vocaloid japanese pop j-pop jpop cycopton cut short ver. version edit pandemic パンデミック
BeatmapID:2598028
BeatmapSetID:1250030

[Difficulty]
HPDrainRate:5
CircleSize:3.5
OverallDifficulty:6.5
ApproachRate:7.5
SliderMultiplier:1.3
SliderTickRate:1

[Events]
//Background and Video events
0,0,"wo ai ni.jpg",0,0
//Break Periods
//Storyboard Layer 0 (Background)
//Storyboard Layer 1 (Fail)
//Storyboard Layer 2 (Pass)
//Storyboard Layer 3 (Foreground)
//Storyboard Layer 4 (Overlay)
//Storyboard Sound Samples

[TimingPoints]
-4427,329.67032967033,4,2,1,50,1,0
847,-100,4,2,1,70,0,0
11397,-111.111111111111,4,2,1,60,0,0
21946,-100,4,2,1,70,0,0
32496,-117.647058823529,4,2,2,50,0,0
37770,-90.9090909090909,4,2,2,80,0,1
37853,-90.9090909090909,4,2,1,80,0,1
43045,-111.111111111111,4,2,1,80,0,0
43292,-111.111111111111,4,2,1,5,0,0
43375,-90.9090909090909,4,2,1,80,0,1
47990,-90.9090909090909,4,2,1,80,0,0
48320,-90.9090909090909,4,2,1,80,0,1
58869,-90.9090909090909,4,2,1,80,0,0

[Colours]
Combo1 : 40,172,119
Combo2 : 237,205,107

[HitObjects]
38,259,518,5,2,3:2:0:0:
71,81,847,6,0,P|132:60|197:52,1,130,6|8,3:2|0:0,0:0:0:0:
261,117,1342,2,0,P|291:127|324:131,1,65,2|0,0:0|3:2,0:0:0:0:
399,79,1671,1,2,0:0:0:0:
456,149,1836,2,0,P|451:181|441:212,1,65,10|2,0:0|0:0,0:0:0:0:
458,302,2166,6,0,P|396:281|331:273,1,130,2|8,3:2|0:0,0:0:0:0:
249,235,2660,2,0,P|216:239|185:249,1,65,2|0,0:0|3:2,0:0:0:0:
114,306,2990,1,2,0:0:0:0:
36,258,3155,2,0,P|25:227|21:194,1,65,10|2,0:0|0:0,0:0:0:0:
0,105,3485,6,0,P|64:96|126:76,1,130,2|8,3:2|0:0,0:0:0:0:
196,19,3979,2,0,P|226:29|259:33,1,65,2|0,0:0|3:2,0:0:0:0:
346,6,4309,1,2,0:0:0:0:
412,67,4474,2,0,P|422:97|426:130,1,65,10|2,0:0|0:0,0:0:0:0:
490,194,4803,6,0,P|481:258|461:320,1,130,2|8,3:2|0:0,0:0:0:0:
380,361,5298,2,0,P|349:350|316:346,1,65,2|0,0:0|3:2,0:0:0:0:
229,372,5627,1,2,0:0:0:0:
220,375,5710,1,2,0:0:0:0:
211,378,5792,1,10,0:0:0:0:
141,318,5957,1,10,0:0:0:0:
65,368,6122,6,0,P|44:306|36:241,1,130,6|8,3:2|0:0,0:0:0:0:
125,226,6616,2,0,P|157:230|188:240,1,65,2|0,0:0|3:2,0:0:0:0:
277,259,6946,1,2,0:0:0:0:
348,202,7111,2,0,P|344:169|333:139,1,65,10|2,0:0|0:0,0:0:0:0:
260,84,7441,6,0,P|199:104|134:112,1,130,2|8,3:2|0:0,0:0:0:0:
47,86,7935,2,0,P|43:118|33:149,1,65,2|0,0:0|3:2,0:0:0:0:
2,228,8265,1,2,0:0:0:0:
63,295,8430,2,0,P|96:290|127:280,1,65,10|2,0:0|0:0,0:0:0:0:
207,237,8759,6,0,P|272:245|334:265,1,130,2|8,3:2|0:0,0:0:0:0:
424,277,9254,2,0,P|420:244|410:213,1,65,2|0,0:0|3:2,0:0:0:0:
474,149,9583,1,2,0:0:0:0:
420,75,9748,2,0,P|388:70|357:60,1,65,10|2,0:0|0:0,0:0:0:0:
278,15,10078,6,0,P|258:76|250:141,1,130,2|8,3:2|0:0,0:0:0:0:
168,182,10573,1,2,0:0:0:0:
100,123,10737,1,8,0:0:0:0:
97,132,10820,1,8,0:0:0:0:
94,141,10902,1,10,0:0:0:0:
45,217,11067,2,0,P|30:211|14:209,3,32.5,10|8|6|4,0:0|0:3|0:3|0:3,0:0:0:0:
54,220,11397,6,0,P|64:247|68:276,1,58.4999982147217,6|2,3:2|0:0,0:0:0:0:
143,305,11726,1,10,3:2:0:0:
143,305,11891,2,0,P|201:295|257:277,1,116.999996429443,2|2,0:0|0:0,0:0:0:0:
293,204,12386,2,0,P|284:176|280:147,1,58.4999982147217,10|2,3:2|0:0,0:0:0:0:
332,91,12715,5,2,3:2:0:0:
332,91,12880,2,0,P|360:100|389:104,1,58.4999982147217,2|8,0:0|3:2,0:0:0:0:
467,77,13210,2,0,P|486:132|495:190,1,116.999996429443,2|0,0:0|0:0,0:0:0:0:
472,268,13704,1,8,3:2:0:0:
330,348,14034,6,0,P|303:338|274:334,1,58.4999982147217,2|2,3:2|0:0,0:0:0:0:
216,275,14364,1,10,3:2:0:0:
216,275,14529,2,0,P|159:284|103:302,1,116.999996429443,2|2,0:0|0:0,0:0:0:0:
43,247,15023,2,0,P|48:218|57:190,1,58.4999982147217,10|2,3:2|0:0,0:0:0:0:
108,126,15353,5,2,3:2:0:0:
108,126,15518,2,0,P|136:116|165:112,1,58.4999982147217,2|8,0:0|3:2,0:0:0:0:
228,162,15847,2,0,P|246:106|255:48,1,116.999996429443,2|2,0:0|0:0,0:0:0:0:
252,39,16259,1,2,0:0:0:0:
249,30,16342,1,8,3:2:0:0:
106,109,16671,6,0,P|110:137|119:165,1,58.4999982147217,2|2,3:2|0:0,0:0:0:0:
84,239,17001,1,10,3:2:0:0:
84,239,17166,2,0,P|141:247|196:266,1,116.999996429443,2|2,0:0|0:0,0:0:0:0:
259,320,17661,6,0,P|287:310|316:306,1,58.4999982147217,10|2,3:2|0:0,0:0:0:0:
387,355,17990,1,2,3:2:0:0:
387,355,18155,2,0,P|397:327|401:298,1,58.4999982147217,2|8,0:0|3:2,0:0:0:0:
459,240,18485,2,0,P|450:182|431:127,1,116.999996429443,2|0,0:0|0:0,0:0:0:0:
373,69,18979,1,8,3:2:0:0:
215,113,19309,6,0,P|186:108|158:99,1,58.4999982147217,2|0,3:2|0:0,0:0:0:0:
100,156,19638,2,0,P|109:183|113:212,1,58.4999982147217,10|0,3:2|0:0,0:0:0:0:
71,283,19968,2,0,P|98:292|127:296,1,58.4999982147217,2|0,3:2|0:0,0:0:0:0:
200,334,20298,2,0,P|227:324|256:320,1,58.4999982147217,10|2,3:2|0:0,0:0:0:0:
330,366,20627,5,2,3:2:0:0:
330,366,20792,2,0,P|339:338|343:309,1,58.4999982147217,2|8,0:0|3:2,0:0:0:0:
418,276,21122,1,2,0:0:0:0:
476,122,21452,1,8,0:0:0:0:
393,118,21616,2,0,P|395:103|399:89,4,19.4999994049072,10|2|2|2|2,0:0|0:0|0:0|0:0|0:0,0:0:0:0:
373,59,21946,6,0,P|342:48|310:43,1,65,6|2,3:2|0:0,0:0:0:0:
228,2,22276,1,10,3:2:0:0:
205,90,22441,2,0,P|143:111|79:120,1,130,2|2,0:0|0:0,0:0:0:0:
20,189,22935,2,0,P|24:221|35:251,1,65,10|2,3:2|0:0,0:0:0:0:
105,312,23265,5,2,3:2:0:0:
196,312,23430,2,0,P|228:307|258:296,1,65,2|8,0:0|3:2,0:0:0:0:
323,232,23759,2,0,P|301:170|292:106,1,130,2|2,0:0|0:0,0:0:0:0:
295,97,24171,1,2,0:0:0:0:
298,88,24254,2,0,P|330:92|360:103,1,65,8|2,3:2|0:0,0:0:0:0:
433,49,24583,6,0,P|444:79|449:111,1,65,2|2,3:2|0:0,0:0:0:0:
495,190,24913,1,10,3:2:0:0:
414,230,25078,2,0,P|392:291|383:355,1,130,2|2,0:0|0:0,0:0:0:0:
294,379,25573,2,0,P|261:374|231:363,1,65,10|2,3:2|0:0,0:0:0:0:
142,382,25902,5,2,3:2:0:0:
88,308,26067,2,0,P|77:277|72:245,1,65,2|8,0:0|3:2,0:0:0:0:
7,180,26397,2,0,P|16:115|36:54,1,130,2|2,0:0|0:0,0:0:0:0:
45,51,26809,1,2,0:0:0:0:
54,48,26891,2,0,P|86:53|116:63,1,65,8|2,3:2|0:0,0:0:0:0:
181,128,27221,6,0,P|213:122|243:112,1,65,2|2,3:2|0:0,0:0:0:0:
308,47,27551,1,10,3:2:0:0:
372,111,27715,2,0,P|361:175|340:236,1,130,2|2,0:0|0:0,0:0:0:0:
248,228,28210,2,0,P|215:234|185:244,1,65,10|2,3:2|0:0,0:0:0:0:
163,332,28540,5,2,3:2:0:0:
253,329,28704,2,0,P|286:334|316:344,1,65,2|8,0:0|3:2,0:0:0:0:
390,291,29034,2,0,P|401:226|422:165,1,130,2|2,0:0|0:0,0:0:0:0:
431,162,29446,1,2,0:0:0:0:
440,159,29529,2,0,P|435:126|425:96,1,65,8|2,3:2|0:0,0:0:0:0:
353,38,29858,6,0,P|322:49|290:54,1,65,2|0,3:2|0:0,0:0:0:0:
199,51,30188,2,0,P|205:83|215:113,1,65,10|0,3:2|0:0,0:0:0:0:
159,186,30518,2,0,P|190:197|222:202,1,65,2|0,3:2|0:0,0:0:0:0:
313,199,30848,2,0,P|308:231|298:261,1,65,10|2,3:2|0:0,0:0:0:0:
259,344,31177,5,2,3:2:0:0:
345,375,31342,2,0,P|378:369|408:359,1,65,2|8,0:0|3:2,0:0:0:0:
498,344,31671,2,0,P|476:282|466:218,1,130,2|10,0:0|0:0,0:0:0:0:
468,209,32083,1,2,0:0:0:0:
471,200,32166,2,0,P|440:189|408:184,1,65,10|2,0:0|0:0,0:0:0:0:
346,137,32496,5,6,0:0:0:0:
346,137,32660,2,0,P|326:85|314:31,1,110.50000210762,2|2,0:0|0:0,0:0:0:0:
236,12,33155,1,2,0:0:0:0:
236,12,33319,2,0,P|224:65|205:117,1,110.50000210762,2|2,0:0|0:0,0:0:0:0:
246,183,33814,6,0,P|221:192|194:198,1,55.2500010538101,2|0,0:0|0:0,0:0:0:0:
160,268,34144,2,0,P|153:294|144:320,1,55.2500010538101,10|0,0:0|0:0,0:0:0:0:
71,294,34474,2,0,P|52:242|40:188,1,110.50000210762,2|8,0:0|0:0,0:0:0:0:
2,120,34968,6,0,P|56:107|108:88,1,110.50000210762,2|2,0:0|0:0,0:0:0:0:
152,23,35463,2,0,P|179:29|205:38,1,55.2500010538101,10|2,0:0|0:0,0:0:0:0:
262,91,35792,2,0,P|314:71|368:59,1,110.50000210762,2|10,0:0|0:0,0:0:0:0:
446,53,36287,1,2,0:0:0:0:
446,53,36452,6,0,P|440:79|431:105,1,55.2500010538101,2|2,0:0|0:0,0:0:0:0:
501,244,36946,1,2,0:0:0:0:
202,321,37605,1,2,0:0:0:0:
260,221,37770,6,0,P|273:187|281:152,1,71.5000021820069,6|0,3:1|0:0,0:0:0:0:
280,52,38100,2,0,P|246:59|212:72,1,71.5000021820069,10|0,0:0|0:0,0:0:0:0:
169,163,38430,2,0,P|120:143|67:131,1,107.25000327301,2|2,3:1|0:1,0:0:0:0:
59,134,38759,1,8,0:0:0:0:
93,231,38924,2,0,P|86:265|73:299,1,71.5000021820069,2|0,0:1|3:2,0:0:0:0:
141,375,39254,5,2,0:0:0:0:
232,331,39419,2,0,P|267:338|301:351,1,71.5000021820069,10|2,0:0|0:0,0:0:0:0:
399,330,39748,2,0,P|419:280|431:227,1,107.25000327301,2|2,3:1|0:1,0:0:0:0:
428,219,40078,1,8,0:0:0:0:
425,118,40243,2,0,P|391:125|357:138,1,71.5000021820069,2|0,0:1|3:2,0:0:0:0:
286,49,40573,5,2,0:0:0:0:
199,100,40737,2,0,P|166:87|131:79,1,71.5000021820069,10|2,0:0|0:0,0:0:0:0:
122,75,40985,2,0,P|70:86|20:106,1,107.25000327301,2|2,0:0|0:0,0:0:0:0:
6,205,41397,2,0,P|19:238|27:273,1,71.5000021820069,10|2,0:0|0:0,0:0:0:0:
21,373,41726,6,0,P|71:353|124:341,1,107.25000327301,2|2,3:1|0:1,0:0:0:0:
132,344,42056,1,8,0:0:0:0:
209,279,42221,2,0,P|279:294|346:321,1,143.000004364014,2|8,0:1|0:0,0:0:0:0:
425,258,42715,1,8,0:0:0:0:
375,155,42880,1,10,0:0:0:0:
378,146,42963,1,8,0:0:0:0:
381,137,43045,6,0,P|422:120|464:109,1,87.7499973220826,6|0,0:3|0:0,0:0:0:0:
467,100,43375,6,0,P|460:65|446:31,1,71.5000021820069,14|0,0:0|0:0,0:0:0:0:
347,20,43704,2,0,P|298:40|245:50,1,107.25000327301,2|2,3:1|0:1,0:0:0:0:
236,47,44034,1,8,0:0:0:0:
136,49,44199,2,0,P|143:84|157:118,1,71.5000021820069,2|0,0:1|3:2,0:0:0:0:
99,199,44529,5,2,0:0:0:0:
119,297,44693,2,0,P|153:310|188:317,1,71.5000021820069,14|2,0:0|0:0,0:0:0:0:
274,368,45023,2,0,P|327:357|378:336,1,107.25000327301,2|2,3:1|0:1,0:0:0:0:
380,327,45353,1,8,0:0:0:0:
446,250,45518,2,0,P|433:216|426:181,1,71.5000021820069,10|4,0:1|3:2,0:0:0:0:
461,72,45847,5,2,0:0:0:0:
365,43,46012,2,0,P|330:50|296:64,1,71.5000021820069,10|2,0:0|3:2,0:0:0:0:
215,5,46342,2,0,P|202:38|195:73,1,71.5000021820069,10|2,0:0|3:2,0:0:0:0:
95,67,46671,2,0,P|103:102|116:135,1,71.5000021820069,10|2,0:0|3:2,0:0:0:0:
41,202,47001,6,0,P|15:268|1:338,1,143.000004364014,6|8,3:2|0:0,0:0:0:0:
97,308,47496,1,10,0:0:0:0:
192,340,47660,1,10,0:0:0:0:
287,274,47825,1,8,0:0:0:0:
296,277,47908,1,8,0:0:0:0:
305,280,47990,2,0,P|322:286|340:290,3,35.7500010910034,8|8|6|4,0:0|0:3|0:3|0:3,0:0:0:0:
349,286,48320,5,6,3:2:0:0:
375,189,48485,2,0,P|361:118|335:52,1,143.000004364014,2|2,3:2|0:0,0:0:0:0:
235,64,48979,1,2,3:2:0:0:
216,162,49144,2,0,P|252:154|285:141,1,71.5000021820069,2|8,3:2|0:0,0:0:0:0:
336,52,49474,6,0,P|407:66|473:93,1,143.000004364014,2|2,0:0|3:2,0:0:0:0:
484,192,49968,2,0,P|498:225|505:260,1,71.5000021820069,10|2,0:0|0:0,0:0:0:0:
429,324,50298,1,2,3:2:0:0:
337,284,50463,2,0,P|302:291|269:304,1,71.5000021820069,2|8,3:2|0:0,0:0:0:0:
177,372,50792,6,0,P|163:301|136:235,1,143.000004364014,2|2,0:0|3:2,0:0:0:0:
54,175,51287,1,10,0:0:0:0:
38,76,51452,1,2,0:0:0:0:
125,25,51616,2,0,P|161:17|194:4,1,71.5000021820069,2|2,3:2|3:2,0:0:0:0:
276,63,51946,2,0,P|312:70|345:83,1,71.5000021820069,10|2,0:0|0:0,0:0:0:0:
418,13,52276,6,0,P|445:79|459:149,1,143.000004364014,2|8,3:2|0:0,0:0:0:0:
512,230,52770,1,2,0:0:0:0:
478,324,52935,2,0,P|408:309|342:283,1,143.000004364014,2|8,3:2|0:0,0:0:0:0:
270,212,53430,1,10,0:0:0:0:
176,275,53594,6,0,P|143:261|108:254,1,71.5000021820069,6|0,3:2|3:2,0:0:0:0:
50,172,53924,2,0,P|84:158|119:151,1,71.5000021820069,10|0,0:0|0:0,0:0:0:0:
190,80,54254,2,0,P|243:90|293:110,1,107.25000327301,2|2,3:1|0:1,0:0:0:0:
296,118,54583,1,8,0:0:0:0:
397,118,54748,2,0,P|390:153|377:186,1,71.5000021820069,2|0,0:1|3:2,0:0:0:0:
420,279,55078,5,2,3:2:0:0:
337,335,55243,2,0,P|304:321|269:314,1,71.5000021820069,10|2,0:0|0:0,0:0:0:0:
174,348,55573,2,0,P|154:298|144:245,1,107.25000327301,2|2,3:1|0:1,0:0:0:0:
148,236,55902,1,8,0:0:0:0:
146,135,56067,2,0,P|182:142|215:155,1,71.5000021820069,2|0,0:1|3:2,0:0:0:0:
299,77,56397,5,2,3:2:0:0:
388,125,56562,2,0,P|402:158|409:193,1,71.5000021820069,10|2,0:0|0:0,0:0:0:0:
509,197,56891,2,0,P|502:232|489:265,1,71.5000021820069,2|2,3:2|3:2,0:0:0:0:
494,365,57221,2,0,P|459:357|426:344,1,71.5000021820069,10|2,0:0|3:2,0:0:0:0:
352,276,57551,5,6,3:2:0:0:
263,320,57715,1,6,0:3:0:0:
181,263,57880,2,0,P|168:229|161:194,1,71.5000021820069,10|6,0:0|0:3,0:0:0:0:
84,130,58210,2,0,P|155:115|221:88,1,143.000004364014,6|8,0:3|0:0,0:0:0:0:
319,31,58704,1,8,0:3:0:0:
328,28,58787,1,4,0:3:0:0:
337,25,58869,5,6,3:2:0:0:
445,62,59034,1,10,0:0:0:0:
445,176,59199,1,10,0:0:0:0:
337,213,59364,1,10,0:0:0:0:
374,321,59529,1,10,0:0:0:0:
