osu file format v14

[General]
AudioFilename: audio.mp3
AudioLeadIn: 0
PreviewTime: 37588
Countdown: 0
SampleSet: Normal
StackLeniency: 0.7
Mode: 0
LetterboxInBreaks: 0
WidescreenStoryboard: 1

[Editor]
Bookmarks: 522,851,11400,21949,32519,37801,48351,59903
DistanceSpacing: 0.4
BeatDivisor: 4
GridSize: 8
TimelineZoom: 1.3

[Metadata]
Title:Telecaster B-boy
TitleUnicode:テレキャスタービーボーイ
Artist:Three feat. Kagamine Len
ArtistUnicode:すりぃ feat.鏡音レン
Creator:Ryuusei Aika
Version:Taeyang's Wo Ai Ni
Source:
Tags:パラドックス Paradox 3 Surii VOCALOID ボーカロイド Japanese Male vocal rock j-rock jrock pop j-pop jpop pappl e 104 pappl_e_104 papple papple104 Sodarose Noffy gary00737 _lai Remapper [Hatsune Miku] Crystal Momochikun Nao Tomori Nao_Tomori Naotoshi Nevo DTM9 Nowa DTM9_Nowa Tokiko Koiyuki Minakami Yuki Minakami_Yuki Taeyang CoLouRed GlazeE CoLouRed_GlazeE Irohas MugiwaraSekai Lasse Riana Doormat Acyl Acylica Little CloudSplash16 AirinCat Hanazawa Kana Hanazawa_Kana Reillia Curi C_u_r_i [C_u_r_i]
BeatmapID:2077771
BeatmapSetID:972025

[Difficulty]
HPDrainRate:6
CircleSize:4
OverallDifficulty:9.2
ApproachRate:9.4
SliderMultiplier:1.85
SliderTickRate:1

[Events]
//Background and Video events
Video,140,"boy.mp4"
0,0,"boy.jpg",0,0
//Break Periods
//Storyboard Layer 0 (Background)
//Storyboard Layer 1 (Fail)
//Storyboard Layer 2 (Pass)
//Storyboard Layer 3 (Foreground)
//Storyboard Layer 4 (Overlay)
//Storyboard Sound Samples

[TimingPoints]
-467,329.67032967033,4,1,1,45,1,0
522,-200,4,1,1,45,0,0
851,329.67032967033,4,1,1,60,1,0
11401,-100,4,1,1,45,0,0
11565,-111.111111111111,4,1,1,45,0,0
21620,-83.3333333333333,4,1,1,60,0,0
22115,-100,4,1,1,60,0,0
30109,-100,4,1,1,5,0,0
30192,-100,4,1,1,60,0,0
32500,-100,4,1,1,45,0,0
32664,-111.111111111111,4,1,1,45,0,0
37774,-76.9230769230769,4,1,1,75,0,1
41894,-76.9230769230769,4,1,1,5,0,1
41977,-76.9230769230769,4,1,1,75,0,1
43049,-200,4,1,1,75,0,1
43296,-200,4,1,1,5,0,1
43379,-66.6666666666667,4,1,1,75,0,1
43626,-66.6666666666667,4,1,1,5,0,1
43708,-66.6666666666667,4,1,1,75,0,1
43956,-76.9230769230769,4,1,1,75,0,1
59532,-76.9230769230769,4,1,1,75,0,0

[Colours]
Combo1 : 248,216,105
Combo2 : 90,197,154
Combo3 : 179,112,51
Combo4 : 249,104,17

[HitObjects]
46,174,522,6,0,L|37:166|32:176,1,23.125,0|0,1:0|2:0,1:0:0:0:
46,174,851,6,0,B|87:150|134:175|134:175|182:199|222:176,1,185,4|8,1:2|1:2,1:0:0:0:
453,47,1346,1,0,1:0:0:0:
447,61,1675,1,0,1:0:0:0:
389,213,1840,1,8,1:2:0:0:
244,167,2005,1,0,1:0:0:0:
470,177,2170,6,0,P|479:224|463:264,1,92.5,0|0,1:0|1:0,1:0:0:0:
391,302,2417,1,0,1:0:0:0:
391,302,2500,1,8,1:2:0:0:
120,260,2664,1,0,1:0:0:0:
120,277,2994,2,0,L|120:323,1,46.25,0|0,1:0|1:0,1:0:0:0:
181,196,3159,1,8,1:2:0:0:
36,113,3324,1,0,1:0:0:0:
192,203,3489,6,0,B|236:219|236:219|279:204,1,92.5,0|0,1:0|1:0,1:0:0:0:
354,172,3736,1,0,0:0:0:0:
354,172,3818,1,8,1:2:0:0:
36,113,3983,1,0,1:0:0:0:
44,129,4313,1,0,1:0:0:0:
120,277,4478,1,8,1:2:0:0:
279,204,4642,1,0,1:0:0:0:
49,221,4807,6,0,P|35:309|103:365,1,185,0|8,1:0|1:2,1:0:0:0:
358,319,5302,1,0,1:0:0:0:
347,307,5631,1,0,1:0:0:0:
243,203,5796,1,8,1:0:0:0:
120,277,5961,1,0,1:0:0:0:
120,277,6043,1,0,1:0:0:0:
120,277,6126,6,0,B|82:307|82:307|218:299,1,185,4|8,1:2|1:2,1:0:0:0:
318,93,6620,1,0,1:0:0:0:
327,75,6950,1,0,1:0:0:0:
375,238,7115,1,8,1:2:0:0:
176,135,7280,1,0,1:0:0:0:
407,39,7445,6,0,P|416:83|399:126,1,92.5,0|0,1:0|1:0,1:0:0:0:
327,163,7692,1,0,1:0:0:0:
327,163,7774,1,8,1:2:0:0:
427,368,7939,1,0,1:0:0:0:
428,348,8269,2,0,L|431:301,1,46.25,0|0,1:0|1:0,1:0:0:0:
286,339,8434,1,8,1:2:0:0:
435,215,8598,1,0,1:0:0:0:
273,350,8763,6,0,P|227:358|183:348,1,92.5,0|0,1:0|1:0,1:0:0:0:
119,298,9010,1,0,0:0:0:0:
119,298,9093,1,8,1:2:0:0:
177,64,9258,1,0,1:0:0:0:
182,48,9587,1,0,1:0:0:0:
39,192,9752,1,8,1:2:0:0:
231,153,9917,1,0,1:0:0:0:
42,67,10082,6,0,B|4:42|4:42|33:178,1,185,0|8,1:0|3:2,1:0:0:0:
276,248,10576,1,0,1:0:0:0:
78,266,10741,1,0,1:0:0:0:
78,266,10824,1,0,1:0:0:0:
78,266,10906,2,0,L|31:270,1,46.25,0|0,1:0|1:0,1:0:0:0:
120,187,11071,2,0,P|127:165|128:142,1,46.25,8|0,1:0|1:0,1:0:0:0:
133,337,11236,2,0,P|144:357|149:379,1,46.25,0|0,1:0|1:0,1:0:0:0:
11,271,11401,5,4,1:2:0:0:
260,250,11565,2,0,L|177:257,1,83.2499974594117,0|8,1:0|1:0,1:0:0:0:
330,168,11895,2,0,B|365:243|365:243|338:325,1,166.499994918823,0|0,1:0|1:0,1:0:0:0:
177,257,12390,2,0,L|260:250,1,83.2499974594117,8|0,1:0|1:0,1:0:0:0:
127,347,12719,5,0,1:0:0:0:
230,167,12884,2,0,P|245:130|239:89,1,83.2499974594117,0|8,2:0|1:0,2:0:0:0:
75,185,13214,1,0,1:0:0:0:
88,199,13543,1,0,1:0:0:0:
167,270,13708,2,0,L|250:263,1,83.2499974594117,8|0,1:0|1:0,2:0:0:0:
127,347,14038,5,0,1:0:0:0:
323,221,14203,2,0,P|337:260|326:300,1,83.2499974594117,0|8,1:0|1:0,1:0:0:0:
403,185,14533,2,0,P|424:266|400:345,1,166.499994918823,0|0,1:0|1:0,1:0:0:0:
167,270,15027,2,0,L|173:183,1,83.2499974594117,8|0,1:0|1:0,1:0:0:0:
95,326,15357,5,0,1:0:0:0:
259,260,15522,1,2,1:2:0:0:
259,260,15604,2,0,L|256:218,1,41.6249987297059,0|8,1:0|1:0,1:0:0:0:
182,90,15851,2,0,B|124:99|76:75|76:75|98:98|98:126,1,166.499994918823,0|0,1:0|1:0,1:0:0:0:
14,134,16263,1,0,1:0:0:0:
14,134,16346,1,8,1:0:0:0:
202,86,16511,1,0,1:0:0:0:
65,205,16675,5,0,1:0:0:0:
216,77,16840,2,0,P|256:62|298:73,1,83.2499974594117,0|8,1:0|1:0,1:0:0:0:
417,210,17170,2,0,B|419:244|367:266|367:266|324:232|338:192,1,166.499994918823,0|0,1:0|1:0,1:0:0:0:
466,108,17664,1,8,1:0:0:0:
261,149,17829,1,0,1:0:0:0:
367,22,17994,5,0,1:0:0:0:
427,194,18159,2,0,P|428:236|420:277,1,83.2499974594117,0|8,1:0|1:0,1:0:0:0:
218,323,18489,1,0,1:0:0:0:
201,315,18818,1,0,1:0:0:0:
90,252,18983,1,8,1:0:0:0:
285,220,19148,1,0,1:0:0:0:
69,259,19313,6,0,B|45:225|45:225|58:132,1,124.874996189118,0|0,1:0|1:0,1:0:0:0:
8,74,19642,2,0,P|45:58|86:63,1,83.2499974594117,8|0,1:0|1:0,1:0:0:0:
234,130,19972,2,0,P|193:135|156:119,1,83.2499974594117,0|0,1:0|1:0,1:0:0:0:
308,61,20302,1,8,1:0:0:0:
282,204,20467,1,0,1:0:0:0:
313,45,20631,5,0,1:0:0:0:
277,220,20796,2,0,L|369:219,1,83.2499974594117,0|8,1:0|1:0,1:0:0:0:
234,130,21126,1,0,1:0:0:0:
218,125,21456,5,0,1:0:0:0:
435,173,21620,2,0,P|450:214|423:277,1,110.999996612549,8|0,1:2|1:0,1:0:0:0:
242,308,21950,5,4,1:2:0:0:
351,318,22115,2,0,L|258:309,1,92.5,0|8,1:0|1:0,1:0:0:0:
21,227,22445,2,0,B|30:358|30:358|52:311,1,185,0|0,1:0|1:0,1:0:0:0:
121,122,22939,1,8,1:0:0:0:
170,273,23104,1,0,1:0:0:0:
19,205,23269,5,0,1:0:0:0:
196,75,23434,2,0,P|212:117|202:161,1,92.5,8|0,1:2|1:0,1:0:0:0:
42,50,23763,1,8,1:2:0:0:
40,67,24093,2,0,L|36:113,1,46.25,0|2,1:0|3:2,1:0:0:0:
182,61,24258,1,8,1:0:0:0:
109,219,24423,1,0,1:0:0:0:
188,45,24587,5,0,1:0:0:0:
212,271,24752,1,0,1:0:0:0:
24,131,24917,1,8,1:0:0:0:
270,47,25082,2,0,B|303:80|303:80|287:217,1,185,0|0,1:0|1:0,1:0:0:0:
105,107,25576,2,0,L|112:199,1,92.5,8|0,1:0|1:0,2:0:0:0:
188,65,25906,6,0,L|195:157,1,92.5,0|0,1:0|1:0,2:0:0:0:
203,238,26153,1,2,2:0:0:0:
203,238,26236,1,8,1:0:0:0:
268,25,26401,1,0,1:0:0:0:
287,29,26730,2,0,L|332:33,1,46.25,0|0,1:0|1:0,1:0:0:0:
411,201,26895,1,8,1:0:0:0:
291,131,27060,1,0,1:0:0:0:
502,62,27225,5,0,1:0:0:0:
455,274,27390,2,0,P|413:289|369:277,1,92.5,0|8,1:0|1:0,1:0:0:0:
182,140,27719,2,0,B|176:125|188:104|223:91|257:116|253:167|208:226,1,185,0|0,1:0|1:0,1:0:0:0:
105,319,28214,2,0,L|1:312,1,92.5,8|0,1:0|1:0,1:0:0:0:
254,310,28543,5,0,1:0:0:0:
104,181,28708,2,0,P|91:138|105:95,1,92.5,8|0,1:2|1:0,1:0:0:0:
298,20,29038,1,8,1:2:0:0:
296,39,29368,2,0,L|293:85,1,46.25,0|0,1:0|1:0,1:0:0:0:
283,238,29533,1,8,1:0:0:0:
182,140,29697,1,0,1:0:0:0:
363,181,29862,6,0,B|382:247|382:247|350:309,1,138.75,0|0,1:0|2:0,1:0:0:0:
266,332,30192,2,0,P|220:325|174:323,1,92.5,8|0,1:0|2:0,1:0:0:0:
4,363,30522,1,0,1:0:0:0:
100,191,30686,1,0,2:0:0:0:
100,191,30851,2,0,L|91:305,1,92.5,8|0,1:0|1:0,2:0:0:0:
16,141,31181,5,0,1:0:0:0:
179,93,31346,1,0,2:0:0:0:
179,93,31428,2,0,L|182:140,1,46.25,0|8,1:0|1:0,1:0:0:0:
94,30,31675,1,0,1:0:0:0:
92,49,32005,2,0,L|89:96,1,46.25,0|0,1:0|1:0,1:0:0:0:
137,210,32170,2,0,P|180:224|223:212,1,92.5,8|0,1:0|1:0,1:0:0:0:
314,51,32500,5,4,1:2:0:0:
410,230,32664,2,0,P|360:281|361:217,1,166.499994918823,0|0,1:0|1:0,1:0:0:0:
491,165,33159,5,0,1:0:0:0:
451,348,33324,2,0,P|372:371|297:340,1,166.499994918823,0|0,1:0|1:0,1:0:0:0:
198,208,33818,6,0,L|206:119,1,83.2499974594117,0|0,1:0|1:0,1:0:0:0:
73,260,34148,2,0,L|65:171,1,83.2499974594117,0|0,1:0|1:0,1:0:0:0:
181,309,34478,2,0,L|189:220,1,83.2499974594117,0|0,1:0|1:0,1:0:0:0:
83,351,34807,1,0,1:0:0:0:
198,208,34971,6,0,B|278:185|278:185|356:211,1,166.499994918823,0|0,1:0|1:0,1:0:0:0:
281,357,35467,2,0,P|267:319|273:279,1,83.2499974594117,0|0,1:0|1:0,1:0:0:0:
439,180,35796,2,0,P|445:220|430:258,1,83.2499974594117,0|0,1:0|1:0,1:0:0:0:
269,180,36126,1,0,1:0:0:0:
374,63,36291,1,0,1:0:0:0:
356,211,36456,5,0,1:0:0:0:
180,152,36620,1,0,1:0:0:0:
161,147,36950,5,0,1:0:0:0:
142,142,37609,5,0,1:0:0:0:
40,350,37774,6,0,L|34:224,1,120.249994495392,4|0,1:0|1:0,1:0:0:0:
207,82,38104,2,0,P|231:135|215:192,1,120.249994495392,8|0,1:0|1:0,1:0:0:0:
27,69,38434,1,0,1:0:0:0:
126,280,38598,1,2,1:2:0:0:
126,280,38681,2,0,L|202:276,1,60.1249972476961,2|8,1:2|1:0,1:0:0:0:
416,224,38928,6,0,B|428:277|338:310|288:226|363:132,1,240.499988990784,2|0,1:2|1:0,1:0:0:0:
437,339,39423,2,0,P|374:356|317:340,1,120.249994495392,8|0,1:0|1:0,1:0:0:0:
204,139,39752,2,0,B|146:120|146:120|91:138,1,120.249994495392,2|0,1:2|1:0,1:0:0:0:
24,195,40000,1,2,2:0:0:0:
14,213,40082,2,0,L|20:333,1,120.249994495392,8|0,1:0|1:0,1:0:0:0:
145,210,40412,5,0,1:0:0:0:
10,347,40576,1,0,1:0:0:0:
268,270,40741,1,8,1:0:0:0:
62,176,40906,2,0,P|54:205|58:234,1,60.1249972476961,0|0,1:0|1:0,2:0:0:0:
180,344,41071,1,0,1:0:0:0:
259,134,41236,1,0,1:0:0:0:
173,362,41401,1,8,1:0:0:0:
118,103,41565,1,0,1:0:0:0:
386,158,41730,6,0,B|418:200|418:200|399:326,1,180.374991743088,2|2,1:2|1:2,1:0:0:0:
314,358,42060,2,0,P|314:327|308:298,1,60.1249972476961,8|0,1:0|1:0,1:0:0:0:
247,118,42225,1,2,1:2:0:0:
173,362,42390,1,2,1:3:0:0:
421,324,42554,1,2,1:3:0:0:
421,324,42637,1,2,1:3:0:0:
421,324,42719,1,8,1:0:0:0:
136,207,42884,1,0,3:0:0:0:
400,43,43049,6,0,P|406:78|396:111,1,69.375,8|0,1:0|2:0,1:0:0:0:
355,185,43379,6,0,P|278:214|253:109,1,208.125007939339,12|0,1:0|2:0,1:0:0:0:
323,73,43708,1,2,1:2:0:0:
401,325,43873,1,0,1:0:0:0:
401,325,43956,2,0,L|328:320,1,60.1249972476961,2|8,1:2|1:0,1:0:0:0:
46,280,44203,6,0,B|113:279|137:213|137:213|163:270|233:269,1,240.499988990784,2|0,1:2|1:0,1:0:0:0:
52,191,44697,1,8,1:0:0:0:
327,313,44862,1,0,1:0:0:0:
115,129,45027,2,0,B|171:107|171:107|228:126,1,120.249994495392,2|0,1:2|1:0,1:0:0:0:
305,152,45274,1,2,1:2:0:0:
305,152,45357,1,0,1:0:0:0:
154,376,45522,1,2,1:2:0:0:
101,115,45686,5,4,1:0:0:0:
366,208,45851,1,0,1:0:0:0:
85,313,46016,1,8,1:0:0:0:
382,202,46181,1,0,1:0:0:0:
88,100,46346,5,8,1:0:0:0:
228,370,46511,1,0,1:0:0:0:
205,58,46675,5,8,1:0:0:0:
112,360,46840,1,0,1:0:0:0:
398,196,47005,5,4,1:0:0:0:
33,215,47170,1,0,1:0:0:0:
296,24,47335,1,8,1:0:0:0:
309,358,47500,2,0,P|279:358|250:350,1,60.1249972476961,2|2,1:3|1:3,1:0:0:0:
14,206,47664,5,8,1:0:0:0:
63,173,47747,1,8,1:0:0:0:
121,158,47829,1,8,1:0:0:0:
180,164,47912,1,8,1:0:0:0:
234,191,47994,2,0,P|261:203|291:204,1,60.1249972476961,8|8,1:2|1:0,1:0:0:0:
429,149,48159,2,0,L|432:88,1,60.1249972476961,8|8,1:0|1:0,1:0:0:0:
133,24,48324,5,4,1:0:0:0:
209,298,48489,2,0,P|268:303|326:287,1,120.249994495392,0|8,1:0|1:2,1:0:0:0:
141,39,48818,1,0,1:0:0:0:
84,320,48983,1,0,1:0:0:0:
388,346,49148,2,0,P|413:294|396:238,1,120.249994495392,0|8,1:0|1:2,1:0:0:0:
84,139,49478,6,0,B|52:126|0:154|5:238|97:242|167:202,1,240.499988990784,0|0,1:0|1:0,1:0:0:0:
418,99,49972,1,8,1:0:0:0:
185,304,50137,1,0,1:0:0:0:
257,48,50302,1,0,1:0:0:0:
474,163,50467,2,0,P|419:185|364:165,1,120.249994495392,2|8,1:2|1:0,2:0:0:0:
144,48,50796,6,0,B|101:5|101:5|114:185,1,240.499988990784,0|0,1:0|1:0,2:0:0:0:
388,282,51291,1,8,1:0:0:0:
231,121,51456,1,0,1:0:0:0:
97,301,51620,1,0,1:0:0:0:
320,225,51785,1,0,1:0:0:0:
77,308,51950,1,8,1:0:0:0:
357,365,52115,1,0,1:0:0:0:
57,315,52280,5,0,1:0:0:0:
390,172,52445,2,0,P|410:227|388:282,1,120.249994495392,0|8,1:0|1:0,1:0:0:0:
66,187,52774,1,0,1:0:0:0:
66,187,52857,1,0,1:0:0:0:
66,187,52939,5,10,1:2:0:0:
408,291,53104,1,0,1:0:0:0:
236,33,53269,1,8,1:0:0:0:
150,345,53434,2,0,L|210:351,1,60.1249972476961,8|8,1:0|1:0,2:0:0:0:
468,352,53598,6,0,P|493:299|477:242,1,120.249994495392,12|2,1:0|1:2,1:0:0:0:
235,54,53928,2,0,L|228:175,1,120.249994495392,8|0,1:0|1:0,1:0:0:0:
221,256,54175,1,0,3:0:0:0:
221,256,54258,1,0,1:0:0:0:
382,114,54423,1,2,1:2:0:0:
382,114,54505,2,0,P|352:108|323:112,1,60.1249972476961,0|8,1:0|1:0,1:0:0:0:
79,189,54752,6,0,B|91:363|91:363|123:305,1,240.499988990784,2|0,1:2|1:0,1:0:0:0:
316,250,55247,2,0,B|259:229|259:229|201:246,1,120.249994495392,8|0,1:0|1:0,1:0:0:0:
397,359,55576,2,0,L|408:237,1,120.249994495392,0|0,1:0|1:0,1:0:0:0:
414,158,55824,1,0,1:0:0:0:
414,158,55906,1,8,1:0:0:0:
254,334,56071,1,0,1:0:0:0:
183,97,56236,5,8,1:0:0:0:
430,156,56401,1,0,1:0:0:0:
151,221,56565,1,8,1:0:0:0:
446,154,56730,1,0,1:0:0:0:
446,154,56813,1,0,1:0:0:0:
446,154,56895,5,8,1:0:0:0:
210,14,57060,1,0,1:0:0:0:
224,300,57225,1,8,1:0:0:0:
462,152,57390,1,0,1:0:0:0:
117,143,57554,5,12,1:0:0:0:
426,265,57719,1,0,1:0:0:0:
74,290,57884,5,8,1:0:0:0:
380,190,58049,1,0,1:0:0:0:
380,190,58131,1,0,1:0:0:0:
380,190,58214,5,0,1:0:0:0:
146,32,58379,1,8,1:0:0:0:
217,346,58543,1,8,1:0:0:0:
443,123,58708,1,0,1:0:0:0:
443,123,58791,1,8,1:0:0:0:
443,123,58873,5,12,1:0:0:0:
51,205,59038,1,0,1:0:0:0:
416,293,59203,5,8,1:0:0:0:
29,200,59368,1,0,1:0:0:0:
274,17,59533,1,8,1:0:0:0:
