osu file format v14

[General]
AudioFilename: audio.mp3
AudioLeadIn: 0
PreviewTime:37588
Countdown: 0
SampleSet: Normal
StackLeniency: 0.5
Mode: 0
LetterboxInBreaks: 0
WidescreenStoryboard: 1

[Editor]
Bookmarks: 521,850,11400,21959,32518,37802,48351,59899
DistanceSpacing: 0.4
BeatDivisor: 4
GridSize: 8
TimelineZoom: 2.1

[Metadata]
Title:Telecaster B-boy
TitleUnicode:テレキャスタービーボーイ
Artist:Three feat. Kagamine Len
ArtistUnicode:すりぃ feat.鏡音レン
Creator:Ryuusei Aika
Version:Riana's Extra
Source:
Tags:パラドックス Paradox 3 Surii VOCALOID ボーカロイド Japanese Male vocal rock j-rock jrock pop j-pop jpop pappl e 104 pappl_e_104 papple papple104 Sodarose Noffy gary00737 _lai Remapper [Hatsune Miku] Crystal Momochikun Nao Tomori Nao_Tomori Naotoshi Nevo DTM9 Nowa DTM9_Nowa Tokiko Koiyuki Minakami Yuki Minakami_Yuki Taeyang CoLouRed GlazeE CoLouRed_GlazeE Irohas MugiwaraSekai Lasse Riana Doormat Acyl Acylica Little CloudSplash16 AirinCat Hanazawa Kana Hanazawa_Kana Reillia Curi C_u_r_i [C_u_r_i]
BeatmapID:2040264
BeatmapSetID:972025

[Difficulty]
HPDrainRate:6
CircleSize:4
OverallDifficulty:9
ApproachRate:9.3
SliderMultiplier:1.8
SliderTickRate:1

[Events]
//Background and Video events
Video,140,"boy.mp4"
0,0,"boy.jpg",0,0
//Break Periods
//Storyboard Layer 0 (Background)
//Storyboard Layer 1 (Fail)
//Storyboard Layer 2 (Pass)
//Storyboard Layer 3 (Foreground)
//Storyboard Layer 4 (Overlay)
//Storyboard Sound Samples

[TimingPoints]
-467,329.67032967033,4,1,1,45,1,0
520,-133.333333333333,4,1,1,45,0,0
769,-133.333333333333,4,1,1,5,0,0
850,-100,4,1,1,60,0,0
851,329.67032967033,4,1,1,60,1,0
1098,-100,4,1,1,5,0,0
1181,-100,4,1,1,60,0,0
2417,-100,4,1,1,5,0,0
2500,-100,4,1,1,60,0,0
3736,-100,4,1,1,5,0,0
3818,-100,4,1,1,60,0,0
5054,-100,4,1,1,5,0,0
5137,-100,4,1,1,60,0,0
6373,-100,4,1,1,5,0,0
6456,-100,4,1,1,60,0,0
7692,-100,4,1,1,5,0,0
7774,-100,4,1,1,60,0,0
9010,-100,4,1,1,5,0,0
9093,-100,4,1,1,60,0,0
10329,-100,4,1,1,5,0,0
10412,-100,4,1,1,60,0,0
11399,-100,4,1,1,45,0,0
21619,-100,4,1,1,60,0,0
32500,-100,4,1,1,45,0,0
32664,-100,4,1,1,60,0,0
32829,-100,4,1,1,45,0,0
33159,-100,4,1,1,60,0,0
33324,-100,4,1,1,45,0,0
33653,-100,4,1,1,60,0,0
33818,-100,4,1,1,45,0,0
33982,-100,4,1,1,60,0,0
34148,-100,4,1,1,45,0,0
34478,-100,4,1,1,60,0,0
34642,-100,4,1,1,45,0,0
34971,-100,4,1,1,60,0,0
35137,-100,4,1,1,45,0,0
35301,-100,4,1,1,60,0,0
35467,-100,4,1,1,45,0,0
35796,-100,4,1,1,60,0,0
35961,-100,4,1,1,45,0,0
36290,-100,4,1,1,60,0,0
36456,-100,4,1,1,45,0,0
37774,-50,4,1,1,75,0,1
38103,-66.6666666666667,4,1,1,75,0,1
41894,-66.6666666666667,4,1,1,5,0,1
41978,-66.6666666666667,4,1,1,75,0,1
43048,-333.333333333333,4,1,1,75,0,1
43295,-333.333333333333,4,2,1,5,0,1
43377,-50,4,1,1,75,0,1
43626,-50,4,1,1,5,0,1
43707,-66.6666666666667,4,1,1,75,0,1
47004,-333.333333333333,4,1,1,75,0,1
47333,-66.6666666666667,4,1,1,75,0,1
47663,-57.1428571428571,4,1,1,75,0,1
47993,-50,4,1,1,75,0,1
48487,-66.6666666666667,4,1,1,75,0,1
49476,-45.4545454545455,4,1,1,75,0,1
49641,-66.6666666666667,4,1,1,75,0,1
53598,-50,4,1,1,75,0,1
53927,-66.6666666666667,4,1,1,75,0,1
54175,-66.6666666666667,4,1,1,5,0,1
54258,-66.6666666666667,4,1,1,75,0,1
54751,-66.6666666666667,4,1,1,75,0,1
59532,-100,4,1,1,75,0,0

[Colours]
Combo1 : 255,192,1
Combo2 : 255,255,128
Combo3 : 255,165,121
Combo4 : 255,168,81

[HitObjects]
83,74,522,6,0,P|59:111|71:171,1,101.250003862381
107,186,851,6,0,B|173:168|173:168|252:195,1,135,4|0,1:2|2:0,1:0:0:0:
236,189,1181,1,8,1:2:0:0:
281,341,1346,2,0,L|295:226,1,90,0|0,1:0|1:0,0:0:0:0:
444,142,1675,5,0,1:0:0:0:
452,232,1840,1,8,1:2:0:0:
460,323,2005,1,0,1:0:0:0:
291,243,2170,6,0,B|232:225|232:225|145:268,1,135,0|0,1:0|2:0,1:0:0:0:
166,257,2500,1,8,1:2:0:0:
95,325,2664,2,0,L|81:210,1,90,0|0,1:0|1:0,0:0:0:0:
218,124,2994,5,0,1:0:0:0:
214,136,3076,1,0,1:0:0:0:
210,148,3159,1,8,1:2:0:0:
247,41,3324,5,0,1:0:0:0:
453,134,3489,2,0,B|389:149|389:149|311:112,1,135,0|0,1:0|2:0,1:0:0:0:
326,119,3818,1,8,1:2:0:0:
247,41,3983,2,0,L|236:156,1,90,0|0,1:0|1:0,0:0:0:0:
405,285,4313,5,0,1:0:0:0:
315,293,4478,1,8,1:2:0:0:
225,302,4642,1,0,1:0:0:0:
21,239,4807,6,0,B|88:221|88:221|159:253,1,135,0|0,1:0|2:0,1:0:0:0:
147,247,5137,1,8,1:2:0:0:
225,302,5302,2,0,L|237:204,1,90,0|0,1:0|1:0,0:0:0:0:
195,111,5631,5,0,1:0:0:0:
191,123,5714,1,0,1:0:0:0:
187,135,5796,1,8,1:0:0:0:
274,23,5961,6,0,L|282:80,1,45,0|0,1:0|1:0,1:0:0:0:
280,67,6126,2,0,B|338:54|338:54|427:85,1,135,4|0,1:2|2:0,1:0:0:0:
409,78,6456,1,8,1:2:0:0:
352,237,6620,2,0,L|343:142,1,90,0|0,1:0|1:0,0:0:0:0:
181,16,6950,5,0,1:0:0:0:
195,146,7115,1,8,1:2:0:0:
209,277,7280,1,0,1:0:0:0:
430,216,7445,6,0,B|446:285|446:285|407:363,1,135,0|0,1:0|2:0,1:0:0:0:
417,342,7774,1,8,1:2:0:0:
241,329,7939,2,0,L|355:323,1,90,0|0,1:0|1:0,0:0:0:0:
270,146,8269,5,0,1:0:0:0:
274,158,8351,1,0,1:0:0:0:
278,170,8434,1,8,1:2:0:0:
212,232,8598,5,0,1:0:0:0:
57,140,8763,2,0,B|121:121|121:121|195:147,1,135,0|0,1:0|2:0,1:0:0:0:
185,143,9093,1,8,1:2:0:0:
128,313,9258,2,0,L|120:210,1,90,0|0,1:0|1:0,0:0:0:0:
257,80,9587,5,0,1:0:0:0:
347,88,9752,1,8,1:2:0:0:
437,97,9917,1,0,1:0:0:0:
485,305,10082,6,0,B|504:239|504:239|471:167,1,135,0|0,1:0|2:0,1:0:0:0:
476,178,10412,1,8,1:0:0:0:
321,257,10576,2,0,L|419:245,1,90,0|0,1:0|1:0,0:0:0:0:
347,88,10906,5,0,1:0:0:0:
343,100,10989,1,0,1:0:0:0:
339,112,11071,1,8,1:0:0:0:
155,217,11236,5,0,1:0:0:0:
155,217,11318,1,0,0:0:0:0:
155,217,11401,2,0,P|108:216|66:193,1,90,4|0,1:2|0:0,1:0:0:0:
104,52,11730,2,0,P|151:53|193:76,1,90,8|0,1:0|1:0,0:0:0:0:
130,136,12060,1,0,1:0:0:0:
267,113,12225,5,0,1:0:0:0:
276,23,12390,2,0,L|267:113,1,90,8|0,1:0|1:0,0:0:0:0:
312,255,12719,5,0,1:0:0:0:
312,255,12884,2,0,P|347:237|407:240,1,90,0|8,0:0|1:0,0:0:0:0:
481,218,13214,2,0,P|446:236|386:233,1,90,0|0,1:0|1:0,1:0:0:0:
204,176,13543,5,0,1:0:0:0:
195,265,13708,2,0,L|204:175,1,90,8|0,1:0|1:0,0:0:0:0:
401,69,14038,6,0,P|425:124|411:174,1,90,0|0,1:0|0:0,1:0:0:0:
332,338,14368,2,0,P|308:283|322:233,1,90,8|0,1:0|1:0,0:0:0:0:
330,166,14697,1,0,1:0:0:0:
480,222,14862,5,0,1:0:0:0:
390,232,15027,2,0,L|479:222,1,90,8|0,1:0|1:0,0:0:0:0:
310,64,15357,6,0,P|248:64|206:104,1,90,0|0,1:0|0:0,1:0:0:0:
225,77,15604,1,0,0:0:0:0:
225,77,15686,1,8,1:0:0:0:
329,165,15851,2,0,P|289:184|245:179,1,90,0|0,1:0|1:0,1:0:0:0:
117,38,16181,5,0,1:0:0:0:
117,38,16263,1,0,1:0:0:0:
117,38,16346,1,8,1:0:0:0:
225,77,16511,1,0,1:0:0:0:
43,272,16675,6,0,P|101:226|184:246,1,135,0|0,1:0|0:0,1:0:0:0:
158,230,17005,1,8,1:0:0:0:
43,272,17170,2,0,P|57:210|93:182,1,90,0|0,1:0|1:0,1:0:0:0:
243,217,17500,2,0,P|182:235|140:218,2,90,0|8|0,1:0|1:0|1:0,0:0:0:0:
349,91,17994,6,0,P|359:164|301:226,1,135,0|0,1:0|0:0,1:0:0:0:
326,212,18324,1,8,1:0:0:0:
349,91,18489,2,0,P|395:134|401:179,1,90,0|0,1:0|1:0,1:0:0:0:
376,317,18818,2,0,P|393:275|429:250,2,90,0|8|0,1:0|1:0|1:0,0:0:0:0:
326,211,19313,6,0,P|260:175|182:209,1,135,0|0,1:0|0:0,1:0:0:0:
205,188,19642,1,8,1:0:0:0:
326,211,19807,2,0,P|301:152|261:131,1,90,0|0,1:0|1:0,1:0:0:0:
120,192,20137,2,0,P|183:200|221:175,2,90,0|8|0,1:0|1:0|1:0,1:0:0:0:
158,34,20631,6,0,P|173:93|159:127,1,90,0|0,1:0|0:0,1:0:0:0:
73,123,20961,2,0,P|58:64|72:30,1,90,8|0,1:0|1:0,0:0:0:0:
205,189,21456,5,0,1:0:0:0:
172,267,21620,2,0,P|196:275|215:274,5,30,8|0|0|0|0|0,1:2|0:0|0:0|1:0|0:0|0:0,1:0:0:0:
172,267,21950,5,4,1:2:0:0:
286,166,22115,1,0,1:0:0:0:
210,383,22280,1,8,1:0:0:0:
320,276,22445,2,0,P|370:269|417:291,1,90,0|0,1:0|1:0,1:0:0:0:
499,296,22774,6,0,P|480:342|437:372,2,90,0|8|0,1:0|1:0|1:0,0:0:0:0:
501,58,23269,5,0,1:0:0:0:
501,58,23434,2,0,P|467:79|440:132,1,90,8|0,1:2|1:0,1:0:0:0:
380,185,23763,2,0,P|420:204|464:203,1,90,8|0,1:2|1:0,1:0:0:0:
317,42,24093,5,0,1:0:0:0:
317,42,24175,1,0,1:0:0:0:
317,42,24258,1,8,1:0:0:0:
216,166,24423,1,0,1:0:0:0:
37,89,24587,5,0,1:0:0:0:
218,62,24752,1,0,1:0:0:0:
56,116,24917,5,8,1:0:0:0:
235,86,25082,2,0,L|125:105,1,90,0|0,1:0|1:0,1:0:0:0:
2,276,25412,6,0,P|20:322|63:352,2,90,0|8|0,1:0|1:0|1:0,0:0:0:0:
214,217,25906,6,0,P|211:262|184:297,1,90,0|0,1:0|0:0,1:0:0:0:
184,296,26153,1,2,2:0:0:0:
184,296,26236,1,8,1:0:0:0:
117,183,26401,2,0,P|91:218|87:262,1,90,0|0,1:0|1:0,0:0:0:0:
293,184,26730,5,0,1:0:0:0:
335,190,26813,1,0,1:0:0:0:
359,222,26895,2,0,P|363:244|360:265,5,30,8|0|0|0|0|0,1:0|0:0|0:0|1:0|0:0|0:0,0:0:0:0:
362,251,27225,5,0,1:0:0:0:
389,109,27390,1,0,1:0:0:0:
478,345,27554,1,8,1:0:0:0:
512,179,27719,2,0,P|462:172|415:194,1,90,0|0,1:0|0:0,0:0:0:0:
275,265,28049,6,0,P|293:311|336:341,2,90,0|8|0,1:0|1:0|1:0,0:0:0:0:
277,96,28543,5,0,1:0:0:0:
277,96,28708,2,0,P|242:77|182:81,1,90,8|0,1:2|1:0,1:0:0:0:
61,87,29038,2,0,P|64:131|87:169,1,90,8|0,1:2|1:0,1:0:0:0:
331,173,29368,5,0,1:0:0:0:
331,173,29450,1,0,1:0:0:0:
331,173,29533,1,8,1:0:0:0:
275,265,29697,1,0,1:0:0:0:
52,293,29862,6,0,P|108:295|183:370,1,135,0|0,1:0|0:0,1:0:0:0:
169,340,30192,2,0,P|118:298|52:293,1,135,8|0,1:0|0:0,1:0:0:0:
52,293,30522,6,0,P|108:295|183:370,1,135,0|0,1:0|0:0,1:0:0:0:
169,340,30851,1,8,1:0:0:0:
72,164,31016,1,0,1:0:0:0:
293,162,31181,6,0,P|289:206|262:241,1,90,0|0,1:0|1:0,0:0:0:0:
261,241,31428,1,0,0:0:0:0:
261,241,31511,1,8,1:0:0:0:
195,127,31675,2,0,P|168:162|164:206,1,90,0|0,1:0|1:0,1:0:0:0:
345,347,32005,5,0,1:0:0:0:
399,335,32087,1,0,1:0:0:0:
450,326,32170,1,8,1:0:0:0:
395,131,32500,6,0,L|411:239,1,90,4|0,1:2|0:0,1:0:0:0:
298,104,32829,2,0,L|314:212,1,90,0|0,1:0|1:0,0:0:0:0:
201,287,33159,5,2,0:3:0:0:
201,287,33324,1,0,1:0:0:0:
214,197,33489,2,0,L|200:286,1,90,0|0,1:0|0:0,1:0:0:0:
29,168,33818,6,0,L|13:60,1,90,2|0,1:3|0:0,1:0:0:0:
126,195,34148,2,0,L|110:87,1,90,2|0,1:3|1:0,0:0:0:0:
223,12,34477,5,2,0:3:0:0:
223,12,34642,1,0,1:0:0:0:
210,102,34807,2,0,L|223:12,1,90,2|0,1:3|0:0,1:0:0:0:
399,128,35137,6,0,L|415:236,1,90,0|0,1:0|0:0,1:0:0:0:
302,101,35467,2,0,L|318:209,1,90,2|0,1:3|1:0,0:0:0:0:
205,284,35796,5,2,0:3:0:0:
205,284,35961,1,0,1:0:0:0:
218,194,36126,2,0,L|204:283,1,90,2|0,1:3|0:0,1:0:0:0:
52,345,36456,6,0,P|127:339|168:371,1,90,2|0,1:0|1:0,1:0:0:0:
138,344,36950,5,0,1:0:0:0:
396,102,37609,5,0,1:0:0:0:
140,113,37774,6,0,B|270:41|269:169|397:102,1,270.000010299683,4|0,1:0|0:0,1:0:0:0:
326,40,38103,1,8,1:0:0:0:
326,40,38186,2,0,P|304:106|353:184,1,135.000005149842
463,164,38434,2,0,P|485:98|436:20,1,135.000005149842,0|2,1:0|1:2,0:0:0:0:
396,102,38681,1,2,0:2:0:0:
396,102,38763,1,8,1:0:0:0:
209,86,38928,6,0,P|265:39|335:46,1,135.000005149842,2|0,1:2|1:0,1:0:0:0:
255,295,39258,1,0,1:0:0:0:
123,58,39423,1,8,1:0:0:0:
327,163,39587,1,0,1:0:0:0:
55,290,39752,6,0,P|21:214|45:144,1,135.000005149842,2|0,1:2|0:0,1:0:0:0:
154,270,40000,1,2,2:2:0:0:
154,270,40082,2,0,P|145:339|52:395,2,135.000005149842,8|2|0,1:0|1:2|1:0,1:0:0:0:
101,0,40576,5,0,1:0:0:0:
240,232,40741,1,8,1:0:0:0:
258,53,40906,1,0,1:0:0:0:
258,53,40989,1,0,1:0:0:0:
258,53,41071,5,0,1:0:0:0:
76,190,41236,1,0,1:0:0:0:
416,105,41401,1,8,1:0:0:0:
101,0,41565,1,0,1:0:0:0:
187,300,41730,6,0,P|266:313|335:229,1,135.000005149842,2|0,1:2|2:0,1:0:0:0:
348,221,41978,1,2,1:2:0:0:
348,221,42060,1,8,0:0:0:0:
42,72,42225,1,2,1:2:0:0:
170,384,42390,5,2,1:3:0:0:
395,134,42554,1,2,1:3:0:0:
395,134,42637,1,2,1:3:0:0:
395,134,42719,1,8,0:0:0:0:
98,233,42884,1,8,1:0:0:0:
251,62,43049,6,0,P|243:87|242:106,1,40.4999987640381,8|0,1:0|0:0,0:0:0:0:
305,160,43379,6,0,P|170:187|277:286,1,270,12|0,1:0|2:0,1:0:0:0:
248,214,43708,5,2,1:2:0:0:
248,214,43791,2,0,P|179:203|116:271,1,135.000005149842,2|2,0:2|0:2,0:0:0:0:
97,315,44038,1,8,1:0:0:0:
8,97,44203,2,0,P|76:86|139:154,1,135.000005149842,2|0,1:2|1:0,1:0:0:0:
246,293,44533,1,0,1:0:0:0:
58,177,44697,1,8,1:0:0:0:
196,67,44862,1,0,1:0:0:0:
97,294,45027,1,2,1:2:0:0:
23,12,45192,1,0,1:0:0:0:
23,12,45274,1,2,0:2:0:0:
23,12,45357,5,8,1:0:0:0:
179,182,45522,2,0,P|113:204|39:148,1,135.000005149842,2|4,1:2|1:0,1:0:0:0:
286,43,45851,1,0,1:0:0:0:
198,309,46016,1,8,1:0:0:0:
123,119,46181,1,0,1:0:0:0:
338,251,46346,5,8,1:0:0:0:
106,366,46511,1,0,1:0:0:0:
370,252,46675,1,8,1:0:0:0:
39,157,46840,1,0,1:0:0:0:
312,35,47005,6,0,P|310:47|320:69,1,26.9999991760254,4|0,1:0|1:0,1:0:0:0:
511,129,47335,6,0,P|502:104|474:70,1,67.5000025749208,8|0,1:0|1:0,0:0:0:0:
392,79,47500,2,0,P|366:79|325:96,1,67.5000025749208,2|2,1:3|1:3,1:0:0:0:
160,134,47664,5,8,1:0:0:0:
160,134,47747,1,8,1:0:0:0:
160,134,47829,2,0,P|230:161|260:150,1,78.7500007510185,8|8,1:0|1:0,1:0:0:0:
510,128,47994,6,0,P|509:195|476:249,1,90,8|8,1:2|0:0,1:0:0:0:
361,360,48159,2,0,P|342:280|375:214,1,90,8|8,0:0|1:0,0:0:0:0:
391,79,48324,5,4,1:0:0:0:
203,47,48489,1,0,1:0:0:0:
391,79,48653,1,8,1:2:0:0:
154,275,48818,5,0,1:0:0:0:
423,238,48983,1,0,1:0:0:0:
154,275,49148,1,0,1:0:0:0:
283,8,49313,5,8,1:2:0:0:
23,133,49478,6,0,P|90:82|214:142,1,198.000006042481,0|0,1:0|1:0,0:0:0:0:
85,365,49807,1,0,1:0:0:0:
0,35,49972,1,8,1:0:0:0:
314,221,50137,1,0,1:0:0:0:
116,179,50302,5,0,1:0:0:0:
389,40,50467,2,0,P|422:98|408:163,1,135.000005149842,0|8,1:0|1:0,0:0:0:0:
217,297,50796,6,0,P|250:240|313:220,1,135.000005149842,0|0,1:0|1:0,0:0:0:0:
457,372,51126,1,0,1:0:0:0:
306,314,51291,1,8,1:0:0:0:
508,179,51456,1,0,1:0:0:0:
368,374,51620,5,0,1:0:0:0:
329,114,51785,1,0,1:0:0:0:
448,266,51950,1,8,1:0:0:0:
225,227,52115,1,0,1:0:0:0:
389,40,52280,6,0,P|422:98|408:163,1,135.000005149842,0|0,1:0|0:0,1:0:0:0:
238,140,52609,1,8,1:0:0:0:
503,42,52774,1,0,1:0:0:0:
355,374,52939,5,0,1:0:0:0:
238,140,53104,1,0,1:0:0:0:
238,140,53186,1,0,0:0:0:0:
242,142,53269,1,8,1:0:0:0:
444,264,53434,1,8,1:0:0:0:
444,264,53516,1,8,1:0:0:0:
444,264,53598,6,0,B|314:192|315:320|187:253,1,270.000010299683,12|0,1:0|0:0,1:0:0:0:
249,193,53927,1,8,1:0:0:0:
249,193,54011,2,0,P|271:259|222:337,1,135.000005149842,0|0,0:0|2:0,0:0:0:0:
120,311,54258,2,0,P|98:245|147:167,1,135.000005149842,0|2,1:0|1:2,1:0:0:0:
188,253,54505,1,2,0:2:0:0:
188,253,54587,1,8,1:0:0:0:
58,124,54752,6,0,P|146:103|212:160,1,135.000005149842,2|0,1:2|1:0,1:0:0:0:
120,311,55082,1,0,1:0:0:0:
0,54,55247,1,8,1:0:0:0:
182,121,55412,1,0,1:0:0:0:
120,311,55576,6,0,P|70:236|100:158,1,135.000005149842,0|0,1:0|0:0,1:0:0:0:
182,121,55823,1,2,2:0:0:0:
182,121,55906,2,0,P|245:142|278:199,2,135.000005149842,8|0|8,1:0|1:0|1:0,1:0:0:0:
292,333,56401,5,0,1:0:0:0:
175,225,56565,1,8,1:0:0:0:
292,333,56730,1,0,1:0:0:0:
292,333,56813,1,0,1:0:0:0:
292,333,56895,5,8,1:0:0:0:
344,110,57060,1,0,1:0:0:0:
117,315,57225,1,8,1:0:0:0:
388,222,57390,1,0,1:0:0:0:
95,50,57554,5,12,1:0:0:0:
286,343,57719,1,0,1:0:0:0:
361,13,57884,1,8,1:0:0:0:
138,271,58049,1,0,1:0:0:0:
138,271,58131,1,0,1:0:0:0:
138,271,58214,5,0,1:0:0:0:
394,133,58379,1,8,1:0:0:0:
171,47,58543,1,8,1:0:0:0:
434,237,58708,1,0,1:0:0:0:
434,237,58791,1,8,1:0:0:0:
434,237,58873,5,12,1:0:0:0:
50,213,59038,1,0,1:0:0:0:
366,0,59203,1,8,1:0:0:0:
237,359,59368,1,0,1:0:0:0:
132,3,59533,1,8,1:0:0:0:
