osu file format v14

[General]
AudioFilename: audio.mp3
AudioLeadIn: 0
PreviewTime: 37588
Countdown: 0
SampleSet: Soft
StackLeniency: 0.3
Mode: 0
LetterboxInBreaks: 0
WidescreenStoryboard: 1

[Editor]
Bookmarks: 521,850,11400,21959,32518,37802,48351,59899
DistanceSpacing: 0.4
BeatDivisor: 8
GridSize: 8
TimelineZoom: 2.999999

[Metadata]
Title:Telecaster B-boy
TitleUnicode:テレキャスタービーボーイ
Artist:Three feat. Kagamine Len
ArtistUnicode:すりぃ feat.鏡音レン
Creator:Ryuusei Aika
Version:Reillia's Extra
Source:
Tags:パラドックス Paradox 3 Surii VOCALOID ボーカロイド Japanese Male vocal rock j-rock jrock pop j-pop jpop pappl e 104 pappl_e_104 papple papple104 Sodarose Noffy gary00737 _lai Remapper [Hatsune Miku] Crystal Momochikun Nao Tomori Nao_Tomori Naotoshi Nevo DTM9 Nowa DTM9_Nowa Tokiko Koiyuki Minakami Yuki Minakami_Yuki Taeyang CoLouRed GlazeE CoLouRed_GlazeE Irohas MugiwaraSekai Lasse Riana Doormat Acyl Acylica Little CloudSplash16 AirinCat Hanazawa Kana Hanazawa_Kana Reillia Curi C_u_r_i [C_u_r_i]
BeatmapID:2046385
BeatmapSetID:972025

[Difficulty]
HPDrainRate:7
CircleSize:5
OverallDifficulty:8.3
ApproachRate:9.2
SliderMultiplier:1.67
SliderTickRate:1

[Events]
//Background and Video events
Video,140,"boy.mp4"
0,0,"boy.jpg",0,0
//Break Periods
//Storyboard Layer 0 (Background)
//Storyboard Layer 1 (Fail)
//Storyboard Layer 2 (Pass)
//Storyboard Layer 3 (Foreground)
//Storyboard Layer 4 (Overlay)
//Storyboard Sound Samples

[TimingPoints]
-467,329.67032967033,4,1,1,45,1,0
520,-71.4285714285714,4,1,1,45,0,0
604,-71.4285714285714,4,1,1,45,0,0
851,329.67032967033,4,1,1,60,1,0
851,-83.3333333333333,4,1,1,60,0,0
1097,-83.3333333333333,4,2,1,5,0,0
1180,-83.3333333333333,4,1,1,60,0,0
1756,-83.3333333333333,4,2,1,5,0,0
1839,-83.3333333333333,4,1,1,60,0,0
1921,-83.3333333333333,4,2,1,5,0,0
2004,-83.3333333333333,4,1,1,60,0,0
2086,-83.3333333333333,4,2,1,5,0,0
2169,-83.3333333333333,4,1,1,60,0,0
2416,-83.3333333333333,4,2,1,5,0,0
2498,-83.3333333333333,4,1,1,60,0,0
2994,-83.3333333333333,4,1,1,60,0,0
3034,-83.3333333333333,4,2,1,5,0,0
3075,-83.3333333333333,4,1,1,60,0,0
3116,-83.3333333333333,4,2,1,5,0,0
3158,-83.3333333333333,4,1,1,60,0,0
3240,-83.3333333333333,4,1,1,60,0,0
3322,-83.3333333333333,4,1,1,60,0,0
3405,-83.3333333333333,4,1,1,60,0,0
3487,-83.3333333333333,4,1,1,60,0,0
3734,-83.3333333333333,4,1,1,5,0,0
3817,-83.3333333333333,4,1,1,60,0,0
4394,-83.3333333333333,4,2,1,5,0,0
4476,-83.3333333333333,4,1,1,60,0,0
4559,-83.3333333333333,4,2,1,5,0,0
4641,-83.3333333333333,4,1,1,60,0,0
4723,-83.3333333333333,4,2,1,5,0,0
4806,-83.3333333333333,4,1,1,60,0,0
5053,-83.3333333333333,4,2,1,5,0,0
5136,-83.3333333333333,4,1,1,60,0,0
5466,-83.3333333333333,4,1,1,60,0,0
5671,-83.3333333333333,4,2,1,5,0,0
5712,-83.3333333333333,4,1,1,60,0,0
5754,-83.3333333333333,4,2,1,5,0,0
5795,-83.3333333333333,4,1,1,60,0,0
5878,-83.3333333333333,4,2,1,5,0,0
5961,-83.3333333333333,4,1,1,60,0,0
6372,-83.3333333333333,4,1,1,60,0,0
6454,-83.3333333333333,4,1,1,60,0,0
7031,-83.3333333333333,4,2,1,5,0,0
7114,-83.3333333333333,4,1,1,60,0,0
7196,-83.3333333333333,4,2,1,5,0,0
7278,-83.3333333333333,4,1,1,60,0,0
7361,-83.3333333333333,4,2,1,5,0,0
7432,-83.3333333333333,4,1,1,60,0,0
7445,-83.3333333333333,4,1,1,60,0,0
7692,-83.3333333333333,4,2,1,5,0,0
7762,-83.3333333333333,4,1,1,60,0,0
7774,-83.3333333333333,4,1,1,60,0,0
7939,-83.3333333333333,4,1,1,60,0,0
8310,-83.3333333333333,4,2,1,5,0,0
8351,-83.3333333333333,4,1,1,60,0,0
8392,-83.3333333333333,4,2,1,5,0,0
8432,-83.3333333333333,4,1,1,60,0,0
8515,-83.3333333333333,4,2,1,5,0,0
8597,-83.3333333333333,4,1,1,60,0,0
8680,-83.3333333333333,4,2,1,5,0,0
8762,-83.3333333333333,4,1,1,60,0,0
9009,-83.3333333333333,4,1,1,5,0,0
9092,-83.3333333333333,4,1,1,60,0,0
9669,-83.3333333333333,4,2,1,5,0,0
9751,-83.3333333333333,4,1,1,60,0,0
9833,-83.3333333333333,4,2,1,5,0,0
9916,-83.3333333333333,4,1,1,60,0,0
9998,-83.3333333333333,4,2,1,5,0,0
10081,-83.3333333333333,4,1,1,60,0,0
10328,-83.3333333333333,4,2,1,5,0,0
10410,-83.3333333333333,4,2,1,60,0,0
11318,-83.3333333333333,4,1,1,60,0,0
11399,-83.3333333333333,4,1,1,45,0,0
12884,-83.3333333333333,4,2,1,45,0,0
14203,-83.3333333333333,4,1,1,45,0,0
19311,-100,4,1,1,45,0,0
19559,-100,4,1,1,45,0,0
19641,-100,4,1,1,45,0,0
19888,-100,4,1,1,45,0,0
19971,-100,4,1,1,45,0,0
20218,-100,4,1,1,45,0,0
20300,-100,4,1,1,45,0,0
21538,-100,4,1,1,45,0,0
21620,-100,4,1,1,60,0,0
21784,-100,4,1,1,60,0,0
21839,-100,4,1,1,45,0,0
21949,-83.3333333333333,4,1,1,60,0,0
22197,-83.3333333333333,4,1,1,60,0,0
22280,-83.3333333333333,4,1,1,60,0,0
23516,-83.3333333333333,4,1,1,60,0,0
23598,-83.3333333333333,4,1,1,60,0,0
24175,-83.3333333333333,4,2,1,60,0,0
26070,-83.3333333333333,4,1,1,60,0,0
27003,-83.3333333333333,4,2,1,60,0,0
27060,-83.3333333333333,4,1,1,60,0,0
27114,-83.3333333333333,4,1,1,60,0,0
27225,-83.3333333333333,4,1,1,60,0,0
28542,-83.3333333333333,4,1,1,60,0,0
30108,-83.3333333333333,4,1,1,5,0,0
30191,-83.3333333333333,4,1,1,60,0,0
30438,-83.3333333333333,4,1,1,5,0,0
30520,-83.3333333333333,4,1,1,60,0,0
30767,-83.3333333333333,4,1,1,60,0,0
30850,-83.3333333333333,4,1,1,60,0,0
32498,-100,4,1,1,45,0,0
32993,-100,4,2,1,45,0,0
33159,-100,4,1,1,45,0,0
37773,-76.9230769230769,4,1,1,75,0,1
38021,-76.9230769230769,4,1,1,75,0,1
38104,-76.9230769230769,4,1,1,75,0,1
40412,-76.9230769230769,4,2,1,75,0,1
40659,-76.9230769230769,4,1,1,75,0,1
41894,-76.9230769230769,4,1,1,5,0,1
41978,-76.9230769230769,4,1,1,75,0,1
42142,-76.9230769230769,4,1,1,75,0,1
42225,-76.9230769230769,4,1,1,75,0,1
42884,-76.9230769230769,4,2,1,75,0,1
43048,-166.666666666667,4,1,1,75,0,1
43295,-166.666666666667,4,1,1,5,0,1
43377,-76.9230769230769,4,1,1,75,0,1
43625,-76.9230769230769,4,1,1,5,0,1
43707,-76.9230769230769,4,1,1,75,0,1
49641,-76.9230769230769,4,1,1,75,0,1
50467,-76.9230769230769,4,2,1,75,0,1
52856,-76.9230769230769,4,1,1,75,0,1
52939,-76.9230769230769,4,2,1,75,0,1
53844,-76.9230769230769,4,1,1,75,0,1
53927,-76.9230769230769,4,1,1,75,0,1
54175,-76.9230769230769,4,2,1,5,0,1
54258,-76.9230769230769,4,1,1,75,0,1
59531,-76.9230769230769,4,1,1,75,0,0

[Colours]
Combo1 : 248,216,105
Combo2 : 90,197,154
Combo3 : 179,112,51
Combo4 : 249,104,17

[HitObjects]
68,275,522,6,0,B|65:245|65:245|89:262,1,58.4499982162476
88,261,851,6,0,B|54:305|54:305|35:178,1,150.299995413208,4|0,1:2|0:0,1:0:0:0:
38,196,1181,1,8,1:2:0:0:
127,37,1346,2,0,B|158:73|158:73|147:129,1,100.199996942139,0|0,1:0|0:0,0:0:0:0:
18,111,1675,6,0,L|72:98,1,50.0999984710694,0|0,1:0|0:0,0:0:0:0:
196,136,1840,2,0,L|142:123,1,50.0999984710694,8|0,1:2|0:0,0:0:0:0:
38,196,2005,2,0,L|92:183,1,50.0999984710694,0|0,1:0|0:0,0:0:0:0:
228,263,2170,6,0,B|134:241|134:241|104:270|141:308,1,150.299995413208,0|0,1:0|0:0,1:0:0:0:
136,301,2500,1,8,1:2:0:0:
308,299,2664,2,0,P|314:245|287:206,1,100.199996942139,0|0,1:0|0:0,0:0:0:0:
389,58,2994,6,0,P|380:79|380:89,1,25.0499992355347,0|0,0:0|0:0,0:0:0:0:
379,80,3076,2,0,P|385:101|392:109,1,25.0499992355347
386,103,3159,6,0,L|451:94,1,50.0999984710694,8|0,1:2|0:0,0:0:0:0:
305,19,3324,2,0,L|255:26,1,50.0999984710694,0|0,1:0|0:0,0:0:0:0:
289,208,3489,6,0,L|442:191,1,150.299995413208,0|0,1:0|2:0,1:0:0:0:
452,186,3818,1,8,1:2:0:0:
417,350,3983,2,0,L|317:338,1,100.199996942139,0|0,1:0|0:0,0:0:0:0:
119,264,4313,6,0,L|189:255,1,50.0999984710694,0|0,1:0|0:0,0:0:0:0:
289,208,4478,2,0,L|239:201,1,50.0999984710694,8|0,1:2|0:0,0:0:0:0:
102,179,4642,2,0,L|172:170,1,50.0999984710694,0|0,1:0|0:0,0:0:0:0:
367,242,4807,6,0,P|316:293|244:287,1,150.299995413208,0|0,1:0|0:0,1:0:0:0:
238,274,5137,1,8,1:2:0:0:
63,107,5302,2,0,L|177:91,1,100.199996942139,0|0,1:0|0:0,0:0:0:0:
456,43,5631,6,0,L|448:86,1,25.0499992355347,0|0,1:0|0:0,0:0:0:0:
451,67,5714,2,0,L|443:110,1,25.0499992355347
446,91,5796,2,0,L|440:142,1,50.0999984710694,8|0,1:0|0:0,0:0:0:0:
423,262,5961,1,0,1:0:0:0:
423,262,6043,1,0,0:0:0:0:
423,262,6126,6,0,B|458:305|458:305|477:178,1,150.299995413208,4|0,1:2|0:0,1:0:0:0:
474,196,6456,1,8,1:2:0:0:
371,30,6620,2,0,B|340:66|340:66|351:122,1,100.199996942139,0|0,1:0|1:0,0:0:0:0:
494,102,6950,6,0,L|440:89,1,50.0999984710694,0|0,1:0|0:0,0:0:0:0:
301,129,7115,2,0,L|355:116,1,50.0999984710694,8|0,1:2|0:0,0:0:0:0:
474,196,7280,2,0,L|420:183,1,50.0999984710694,0|0,1:0|0:0,0:0:0:0:
284,263,7445,6,0,B|378:241|378:241|408:270|371:308,1,150.299995413208,0|0,1:0|0:0,1:0:0:0:
376,301,7774,1,8,1:2:0:0:
204,299,7939,2,0,P|198:245|225:206,1,100.199996942139,0|0,0:0|1:0,0:0:0:0:
123,58,8269,6,0,P|132:79|132:89,1,25.0499992355347,0|0,1:0|0:0,0:0:0:0:
133,80,8351,2,0,P|127:101|120:109,1,25.0499992355347
126,103,8434,6,0,L|61:94,1,50.0999984710694,8|0,1:2|0:0,0:0:0:0:
207,19,8598,2,0,L|257:26,1,50.0999984710694,0|0,1:0|0:0,0:0:0:0:
223,208,8763,6,0,L|70:191,1,150.299995413208,0|0,1:0|2:0,1:0:0:0:
60,186,9093,1,8,1:2:0:0:
95,350,9258,2,0,L|195:338,1,100.199996942139,0|0,1:0|1:0,0:0:0:0:
393,264,9587,6,0,L|323:255,1,50.0999984710694,0|0,1:0|0:0,0:0:0:0:
223,208,9752,2,0,L|273:201,1,50.0999984710694,8|0,1:2|0:0,0:0:0:0:
410,179,9917,2,0,L|340:170,1,50.0999984710694,0|0,1:0|0:0,0:0:0:0:
142,242,10082,6,0,P|193:293|265:287,1,150.299995413208,0|0,1:0|0:0,1:0:0:0:
274,274,10412,1,8,3:2:0:0:
449,107,10576,2,0,L|335:91,1,100.199996942139,0|0,1:0|1:0,0:0:0:0:
285,46,10824,1,0,1:0:0:0:
285,46,10906,1,0,1:0:0:0:
260,48,10989,1,0,1:0:0:0:
235,50,11071,2,0,L|244:101,3,50.0999984710694,8|0|0|0,1:0|1:0|1:0|0:0,0:0:0:0:
183,147,11401,5,4,1:2:0:0:
111,172,11565,1,0,0:0:0:0:
48,127,11730,1,8,1:0:0:0:
39,51,11895,2,0,P|68:101|84:254,1,200.399993884278,0|0,1:0|1:0,1:0:0:0:
0,351,12390,1,8,1:0:0:0:
71,317,12554,1,0,1:0:0:0:
246,350,12719,5,0,1:0:0:0:
314,308,12883,2,0,P|370:318|421:333,1,100.199996942139,0|8,0:0|1:0,0:0:0:0:
245,269,13214,1,0,1:0:0:0:
240,274,13873,1,0,1:0:0:0:
382,180,14038,5,0,1:0:0:0:
368,100,14203,1,0,0:0:0:0:
286,115,14368,1,8,1:0:0:0:
300,195,14533,2,0,B|178:171|223:252|88:217,1,200.399993884278,0|0,1:0|1:0,1:0:0:0:
17,78,15027,1,8,1:0:0:0:
78,138,15192,1,0,1:0:0:0:
204,29,15357,6,0,P|155:44|81:58,1,100.199996942139,0|2,1:0|1:2,0:0:0:0:
92,50,15604,1,0,0:0:0:0:
92,50,15686,1,8,1:0:0:0:
0,157,15851,1,0,1:0:0:0:
231,374,16181,1,0,1:0:0:0:
235,324,16263,1,0,1:0:0:0:
240,274,16346,1,8,1:0:0:0:
176,210,16511,1,0,1:0:0:0:
367,43,16675,5,0,1:0:0:0:
429,85,16840,1,0,0:0:0:0:
453,156,17005,1,8,1:0:0:0:
447,231,17170,2,0,P|450:176|480:16,1,200.399993884278,0|0,1:0|1:0,1:0:0:0:
204,29,17664,1,8,1:0:0:0:
249,103,17829,1,0,1:0:0:0:
165,274,17994,5,0,1:0:0:0:
234,329,18159,2,0,P|284:312|334:306,1,100.199996942139,0|8,0:0|1:0,0:0:0:0:
156,365,18489,1,0,1:0:0:0:
152,370,19148,1,0,1:0:0:0:
30,251,19313,6,0,P|9:201|7:101,1,125.25,0|0,1:0|0:0,1:0:0:0:
124,279,19642,2,0,P|91:322|5:373,1,125.25,8|0,1:0|0:0,0:0:0:0:
105,182,19972,2,0,P|158:188|246:237,1,125.25,0|0,1:0|0:0,0:0:0:0:
233,224,20302,1,8,1:0:0:0:
283,289,20467,1,0,1:0:0:0:
509,331,20631,5,0,1:0:0:0:
447,278,20796,2,0,P|398:287|357:318,1,83.5,0|8,0:0|1:0,0:0:0:0:
233,224,21126,1,0,1:0:0:0:
233,224,21456,2,0,P|237:205|242:174,1,41.75,0|0,1:0|0:0,0:0:0:0:
235,107,21620,2,0,B|193:93|193:93|158:128,1,83.5,8|0,1:2|1:0,1:0:0:0:
1,318,21950,5,4,1:2:0:0:
75,349,22115,1,0,1:0:0:0:
89,346,22197,1,0,0:0:0:0:
100,355,22280,1,8,1:0:0:0:
173,329,22445,2,0,B|240:310|240:310|296:334|296:334|368:315,1,200.399993884278,0|0,1:0|1:0,1:0:0:0:
448,356,22939,1,8,1:0:0:0:
482,283,23104,1,0,1:0:0:0:
389,150,23269,5,0,1:0:0:0:
453,72,23434,2,0,B|469:98|469:98|462:124,2,50.0999984710694,8|0|0,1:2|0:0|1:0,1:0:0:0:
278,24,23763,2,0,L|382:40,1,100.199996942139,8|0,1:2|1:0,1:0:0:0:
481,204,24093,1,0,1:0:0:0:
466,200,24175,1,2,3:2:0:0:
454,209,24258,1,8,1:0:0:0:
372,236,24423,1,0,1:0:0:0:
185,334,24587,5,0,1:0:0:0:
103,307,24752,1,0,1:0:0:0:
128,224,24917,1,8,1:0:0:0:
210,251,25082,2,0,B|86:243|144:314|14:297,1,200.399993884278,0|0,1:0|1:0,1:0:0:0:
23,99,25576,1,8,1:0:0:0:
109,130,25741,1,0,1:0:0:0:
170,16,25906,6,0,B|105:9|105:9|86:56,1,100.199996942139,0|0,1:0|0:0,0:0:0:0:
92,56,26153,1,2,2:0:0:0:
92,56,26236,1,8,1:0:0:0:
44,185,26401,1,0,1:0:0:0:
326,339,26730,5,0,1:0:0:0:
315,328,26813,1,0,0:0:0:0:
311,342,26894,2,0,P|328:342|350:323,2,33.3999989807129,8|0|0,1:0|0:0|0:0,0:0:0:0:
243,374,27060,2,0,P|228:366|212:367,2,33.3999989807129,0|0|0,1:0|0:0|0:0,0:0:0:0:
302,254,27225,5,0,1:0:0:0:
388,260,27390,1,0,1:0:0:0:
454,311,27554,1,8,1:0:0:0:
491,382,27719,2,0,P|470:321|466:179,1,200.399993884278,0|0,1:0|1:0,0:0:0:0:
345,23,28214,1,8,1:0:0:0:
297,93,28379,1,0,1:0:0:0:
381,200,28543,5,0,1:0:0:0:
464,186,28708,2,0,B|463:157|463:157|441:138,2,50.0999984710694,8|0|0,1:2|0:0|1:0,1:0:0:0:
362,272,29038,2,0,L|256:254,1,100.199996942139,8|0,1:2|1:0,1:0:0:0:
125,192,29368,1,0,1:0:0:0:
115,183,29450,1,0,1:0:0:0:
102,185,29533,1,8,1:0:0:0:
33,236,29697,1,0,1:0:0:0:
107,104,29862,6,0,P|179:98|225:154,1,150.299995413208,0|0,1:0|2:0,1:0:0:0:
37,143,30192,2,0,P|-3:83|21:15,1,150.299995413208,8|0,1:0|2:0,1:0:0:0:
102,184,30522,2,0,P|71:249|0:262,1,150.299995413208,0|0,1:0|0:0,1:0:0:0:
7,249,30851,1,8,1:0:0:0:
74,337,31016,1,0,1:0:0:0:
227,273,31181,5,0,1:0:0:0:
291,325,31346,2,0,P|285:350|288:375,2,50.0999984710694
404,209,31675,1,0,1:0:0:0:
132,37,32005,5,0,1:0:0:0:
123,86,32087,1,0,1:0:0:0:
167,74,32170,1,8,1:0:0:0:
56,49,32335,2,0,B|26:49|26:49|14:76,1,50.0999984710694
15,216,32500,5,4,0:2:0:0:
15,216,32664,2,0,B|69:205|69:205|101:239|101:239|184:223,1,167,0|0,0:0|1:0,0:0:0:0:
292,109,33159,1,0,0:0:0:0:
292,109,33324,2,0,B|234:137|234:137|267:255,1,167
196,384,33818,6,0,B|219:369|219:369|201:296,1,83.5
285,148,34148,2,0,B|262:163|262:163|280:236,1,83.5
347,288,34478,2,0,B|399:266|399:266|451:286|451:286|528:256,1,167
502,47,34972,1,0,0:0:0:0:
494,37,35054,1,0,0:0:0:0:
482,32,35137,6,0,P|409:33|376:131,1,167
421,178,35631,1,0,0:0:0:0:
456,348,35796,5,0,0:0:0:0:
363,331,35961,1,0,0:0:0:0:
465,354,36126,1,0,0:0:0:0:
369,339,36291,1,0,0:0:0:0:
212,362,36456,5,0,0:0:0:0:
116,347,36620,1,0,0:0:0:0:
412,258,36950,1,0,0:0:0:0:
80,77,37609,6,0,B|63:66|63:66|66:106,1,41.75,0|0,1:0|0:0,0:0:0:0:
64,87,37774,6,0,B|123:75|123:75|159:93|159:93|232:79,1,162.824992546463,4|0,1:0|0:0,1:0:0:0:
234,71,38104,1,8,1:0:0:0:
479,121,38269,2,0,B|448:107|448:107|419:124,1,54.2749975154878
430,117,38434,2,0,L|443:228,1,108.549995030976,0|2,1:0|1:2,0:0:0:0:
449,239,38681,1,2,0:2:0:0:
449,239,38763,1,8,1:0:0:0:
301,369,38928,2,0,B|246:380|246:380|190:340,1,108.549995030976,2|0,1:2|1:0,0:0:0:0:
13,108,39258,5,0,1:0:0:0:
99,95,39423,1,8,1:0:0:0:
169,148,39587,1,0,0:0:0:0:
91,339,39752,2,0,L|75:215,1,108.549995030976,2|0,1:2|0:0,1:0:0:0:
80,215,40000,1,2,2:2:0:0:
80,215,40082,1,8,1:0:0:0:
0,17,40247,2,0,P|23:33|57:28,1,54.2749975154878
99,95,40412,6,0,P|151:96|202:51,1,108.549995030976,8|0,0:0|1:0,0:0:0:0:
48,32,40659,1,0,0:0:0:0:
48,32,40741,2,0,P|20:77|34:143,1,108.549995030976,8|0,1:0|1:0,1:0:0:0:
128,22,40989,1,0,1:0:0:0:
128,22,41071,5,0,1:0:0:0:
26,130,41236,1,0,1:0:0:0:
97,260,41401,1,8,1:0:0:0:
243,232,41565,1,0,1:0:0:0:
261,85,41730,6,0,L|196:77,1,54.2749975154878,2|0,1:2|0:0,1:0:0:0:
207,78,41895,1,0,2:0:0:0:
207,78,41977,2,0,B|250:113|250:113|336:75,1,108.549995030976,2|0,1:2|0:0,0:0:0:0:
360,46,42225,1,2,1:2:0:0:
499,267,42390,6,0,B|456:232|456:232|370:270,1,108.549995030976,2|2,1:3|1:3,1:0:0:0:
407,253,42637,2,0,L|420:364,1,108.549995030976,2|0,1:3|0:0,0:0:0:0:
258,367,42884,1,0,3:0:0:0:
258,367,42967,1,0,0:0:0:0:
258,367,43049,6,0,B|233:376|233:376|242:326,1,75.1499977066041,8|0,1:0|2:0,0:0:0:0:
280,271,43379,5,12,1:0:0:0:
216,67,43543,2,0,B|188:60|188:60|159:77,1,54.2749975154878,0|0,0:0|2:0,0:0:0:0:
166,72,43708,2,0,L|180:190,1,108.549995030976,2|0,1:2|1:0,1:0:0:0:
183,196,43956,1,2,0:2:0:0:
183,196,44038,1,8,1:0:0:0:
5,276,44203,2,0,B|57:263|57:263|108:298,1,108.549995030976,2|0,1:2|1:0,0:0:0:0:
114,304,44449,5,0,0:0:0:0:
114,304,44532,2,0,L|104:358,1,54.2749975154878,0|0,1:0|0:0,0:0:0:0:
37,384,44697,1,8,1:0:0:0:
178,350,44862,1,0,1:0:0:0:
304,323,45027,2,0,B|332:318|332:318|361:340,1,54.2749975154878,2|0,1:2|0:0,0:0:0:0:
352,333,45192,1,0,0:0:0:0:
352,333,45274,2,0,L|342:223,1,108.549995030976,2|0,0:2|0:0,0:0:0:0:
305,164,45522,1,2,1:2:0:0:
305,164,45604,1,0,0:0:0:0:
305,164,45686,5,4,1:0:0:0:
414,207,45851,1,0,1:0:0:0:
299,155,46016,1,8,1:0:0:0:
408,198,46181,1,0,1:0:0:0:
301,84,46346,5,8,1:0:0:0:
256,235,46511,1,0,1:0:0:0:
93,347,46675,5,8,1:0:0:0:
48,196,46840,1,0,1:0:0:0:
161,66,47005,6,0,B|228:54|228:54|278:78|278:78|376:57,1,217.099990061951,4|8,1:0|1:0,1:0:0:0:
429,14,47417,1,0,1:0:0:0:
446,18,47500,1,2,1:3:0:0:
464,22,47582,1,2,1:3:0:0:
501,83,47664,5,8,1:0:0:0:
478,131,47747,1,8,1:0:0:0:
434,162,47829,1,8,1:0:0:0:
380,165,47912,1,8,1:0:0:0:
332,142,47994,1,8,1:2:0:0:
309,93,48076,1,8,0:0:0:0:
265,63,48159,1,8,0:0:0:0:
212,59,48241,1,8,1:0:0:0:
164,83,48324,5,4,1:0:0:0:
46,281,48489,2,0,B|95:307|95:307|154:286,1,108.549995030976,0|8,1:0|1:2,0:0:0:0:
2,218,48818,1,0,1:0:0:0:
2,218,48901,1,0,0:0:0:0:
2,218,48983,1,0,1:0:0:0:
151,168,49148,2,0,B|102:142|102:142|43:163,1,108.549995030976,0|8,1:0|1:2,0:0:0:0:
190,233,49478,1,0,1:0:0:0:
51,159,49642,6,0,L|44:97,1,54.2749975154878,0|0,1:0|0:0,0:0:0:0:
36,36,49807,1,0,1:0:0:0:
221,14,49972,1,8,1:0:0:0:
344,95,50137,1,0,1:0:0:0:
381,170,50302,1,0,1:0:0:0:
381,170,50467,2,0,B|325:183|325:183|263:135,1,108.549995030976,2|8,1:2|1:0,0:0:0:0:
37,48,50796,1,0,1:0:0:0:
37,48,50961,6,0,B|106:34|106:34|167:68|167:68|247:50,1,217.099990061951,0|8,1:0|1:0,0:0:0:0:
387,20,51456,1,0,1:0:0:0:
462,150,51620,1,0,1:0:0:0:
361,261,51785,1,0,1:0:0:0:
223,199,51950,1,8,1:0:0:0:
241,51,52115,1,0,1:0:0:0:
220,209,52280,6,0,P|125:246|73:153,1,217.099990061951,0|8,1:0|1:0,0:0:0:0:
71,163,52774,2,0,P|92:195|92:236,1,54.2749975154878,0|0,1:0|0:0,0:0:0:0:
29,359,52939,5,10,1:2:0:0:
13,216,53104,1,0,1:0:0:0:
171,198,53269,1,8,1:0:0:0:
187,341,53434,2,0,B|156:347|156:347|127:324,1,54.2749975154878,8|8,1:0|1:0,0:0:0:0:
138,332,53598,6,0,B|197:324|197:324|232:352|232:352|309:341,1,162.824992546463,12|0,1:0|0:0,1:0:0:0:
305,340,53928,1,8,1:0:0:0:
466,224,54093,2,0,B|448:239|448:239|417:233,1,54.2749975154878,0|0,0:0|3:0,0:0:0:0:
418,234,54258,2,0,L|430:125,1,108.549995030976,0|2,1:0|1:2,0:0:0:0:
433,111,54505,1,0,0:0:0:0:
433,111,54587,1,8,1:0:0:0:
274,20,54752,2,0,B|220:9|220:9|170:51,1,108.549995030976,2|0,1:2|1:0,0:0:0:0:
19,224,55082,5,0,1:0:0:0:
93,268,55247,1,8,1:0:0:0:
177,248,55412,1,0,1:0:0:0:
87,64,55576,2,0,L|102:182,1,108.549995030976,0|0,1:0|0:0,0:0:0:0:
106,187,55824,1,0,0:0:0:0:
106,187,55906,1,8,1:0:0:0:
50,332,56071,2,0,P|73:346|107:344,1,54.2749975154878,0|0,1:0|0:0,0:0:0:0:
181,329,56236,5,8,1:0:0:0:
274,300,56401,1,0,1:0:0:0:
409,217,56565,5,8,1:0:0:0:
316,181,56730,1,0,1:0:0:0:
319,196,56813,1,0,1:0:0:0:
332,188,56895,1,8,1:0:0:0:
377,95,57060,1,0,1:0:0:0:
303,23,57225,1,8,1:0:0:0:
211,71,57390,1,0,1:0:0:0:
255,338,57554,5,12,1:0:0:0:
377,95,57719,1,0,1:0:0:0:
136,221,57884,1,8,1:0:0:0:
406,261,58049,1,0,1:0:0:0:
406,261,58131,1,0,0:0:0:0:
406,261,58214,5,0,1:0:0:0:
377,95,58379,1,8,1:0:0:0:
211,71,58543,1,8,1:0:0:0:
136,221,58708,1,0,1:0:0:0:
136,221,58791,1,8,0:0:0:0:
136,221,58873,5,12,1:0:0:0:
406,261,59038,1,0,1:0:0:0:
211,71,59203,1,8,1:0:0:0:
255,338,59368,1,0,1:0:0:0:
377,95,59533,1,8,1:0:0:0:
