osu file format v14

[General]
AudioFilename: audio.mp3
AudioLeadIn: 0
PreviewTime:37588
Countdown: 0
SampleSet: Normal
StackLeniency: 0.7
Mode: 0
LetterboxInBreaks: 0
WidescreenStoryboard: 1

[Editor]
Bookmarks: 521,11400,21959,32518,37802,43077,48352,53636,59899
DistanceSpacing: 1.2
BeatDivisor: 4
GridSize: 4
TimelineZoom: 1.299999

[Metadata]
Title:Telecaster B-boy
TitleUnicode:テレキャスタービーボーイ
Artist:Three feat. Kagamine Len
ArtistUnicode:すりぃ feat.鏡音レン
Creator:Ryuusei Aika
Version:Noffy's Hard
Source:
Tags:パラドックス Paradox 3 Surii VOCALOID ボーカロイド Japanese Male vocal rock j-rock jrock pop j-pop jpop pappl e 104 pappl_e_104 papple papple104 Sodarose Noffy gary00737 _lai Remapper [Hatsune Miku] Crystal Momochikun Nao Tomori Nao_Tomori Naotoshi Nevo DTM9 Nowa DTM9_Nowa Tokiko Koiyuki Minakami Yuki Minakami_Yuki Taeyang CoLouRed GlazeE CoLouRed_GlazeE Irohas MugiwaraSekai Lasse Riana Doormat Acyl Acylica Little CloudSplash16 AirinCat Hanazawa Kana Hanazawa_Kana Reillia Curi C_u_r_i [C_u_r_i]
BeatmapID:2051089
BeatmapSetID:972025

[Difficulty]
HPDrainRate:5
CircleSize:3.6
OverallDifficulty:6
ApproachRate:8
SliderMultiplier:1.4
SliderTickRate:1

[Events]
//Background and Video events
Video,140,"boy.mp4"
0,0,"noffy.jpg",0,0
//Break Periods
//Storyboard Layer 0 (Background)
//Storyboard Layer 1 (Fail)
//Storyboard Layer 2 (Pass)
//Storyboard Layer 3 (Foreground)
//Storyboard Layer 4 (Overlay)
//Storyboard Sound Samples

[TimingPoints]
-467,329.67032967033,4,2,1,75,1,0
191,-100,4,1,1,45,0,0
521,-100,4,1,1,60,0,0
604,-100,4,1,1,5,0,0
851,329.67032967033,4,1,1,60,1,0
10905,-117.647058823529,4,1,1,45,0,0
21125,-100,4,1,1,45,0,0
21304,-100,4,1,1,60,0,0
21456,-100,4,1,1,45,0,0
21600,-100,4,1,1,60,0,0
29779,-100,4,1,1,20,0,0
29842,-100,4,1,1,60,0,0
30108,-100,4,1,1,20,0,0
30172,-100,4,1,1,60,0,0
30438,-100,4,1,1,20,0,0
30502,-100,4,1,1,60,0,0
32480,-100,4,1,1,45,0,0
33737,-100,4,1,1,20,0,0
33818,-100,4,1,1,45,0,0
34065,-100,4,1,1,20,0,0
34148,-100,4,1,1,45,0,0
34394,-100,4,1,1,20,0,0
34477,-100,4,1,1,45,0,0
37609,-80,4,1,1,45,0,1
37774,-80,4,1,1,75,0,1
41894,-80,4,1,1,5,0,1
41978,-80,4,1,1,75,0,1
42142,-80,4,1,1,5,0,1
42225,-80,4,1,1,75,0,1
58543,-100,4,1,1,75,0,0
59696,-100,4,1,1,5,0,0

[Colours]
Combo1 : 248,216,105
Combo2 : 90,197,154
Combo3 : 179,112,51
Combo4 : 249,104,17

[HitObjects]
262,14,522,6,0,L|270:74,1,35
179,237,851,6,0,P|156:147|162:89,1,140,4|8,1:2|1:2,1:0:0:0:
52,174,1346,2,0,P|72:107|71:37,1,140,0|0,1:0|1:0,0:0:0:0:
175,19,1840,1,8,1:2:0:0:
218,114,2005,1,0,1:0:0:0:
249,214,2170,2,0,P|236:283|180:341,1,140,0|8,1:0|1:2,1:0:0:0:
145,240,2664,2,0,P|198:195|266:183,1,140,0|0,1:0|1:0,0:0:0:0:
348,248,3159,1,8,1:2:0:0:
369,350,3324,1,0,1:0:0:0:
450,284,3489,6,0,P|437:215|381:157,1,140,0|8,1:0|1:2,1:0:0:0:
346,258,3983,2,0,P|399:303|467:315,1,140,0|0,1:0|1:0,0:0:0:0:
508,218,4478,1,8,1:2:0:0:
492,114,4642,1,0,1:0:0:0:
446,20,4807,2,0,P|400:72|388:140,1,140,0|8,1:0|1:2,1:0:0:0:
492,114,5302,1,0,1:0:0:0:
492,114,5631,1,0,1:0:0:0:
463,215,5796,1,8,1:0:0:0:
432,315,5961,1,0,1:0:0:0:
337,269,6125,6,0,P|277:256|174:280,1,140,4|8,1:2|1:2,1:0:0:0:
262,352,6620,2,0,P|275:292|251:189,1,140,0|0,1:0|1:0,0:0:0:0:
183,145,7115,1,8,1:2:0:0:
89,193,7280,1,0,1:0:0:0:
183,145,7445,2,0,P|169:76|181:8,1,140,0|8,1:0|1:2,1:0:0:0:
252,91,7939,2,0,P|183:103|115:89,1,140,0|0,1:0|1:0,0:0:0:0:
35,21,8434,1,8,1:2:0:0:
9,123,8598,1,0,1:0:0:0:
53,218,8763,6,0,P|121:230|189:216,1,140,0|8,1:0|1:2,1:0:0:0:
186,111,9258,2,0,P|172:179|184:247,1,140,0|0,1:0|1:0,0:0:0:0:
259,321,9752,1,8,1:2:0:0:
330,243,9917,1,0,1:0:0:0:
259,321,10082,2,0,P|350:336|418:315,1,140,0|8,1:0|1:0,1:0:0:0:
493,277,10576,1,0,1:0:0:0:
462,69,10906,1,0,1:0:0:0:
462,69,10989,1,0,1:0:0:0:
462,69,11071,1,8,1:0:0:0:
261,41,11401,6,0,P|262:92|244:175,1,119.000002269745,4|8,1:2|1:0,1:0:0:0:
173,70,11895,2,0,P|167:144|150:197,1,119.000002269745,0|0,1:0|1:0,1:0:0:0:
87,99,12390,2,0,P|84:132|70:183,1,59.5000011348725,8|0,1:0|1:0,0:0:0:0:
18,223,12719,5,0,1:0:0:0:
78,157,12884,1,0,0:0:0:0:
211,38,13214,1,0,1:0:0:0:
251,41,14038,6,0,P|250:92|268:175,1,119.000002269745,0|8,1:0|1:0,1:0:0:0:
339,70,14533,2,0,P|345:144|362:197,1,119.000002269745,0|0,1:0|1:0,1:0:0:0:
425,99,15027,2,0,P|428:132|442:183,1,59.5000011348725,8|0,1:0|1:0,0:0:0:0:
494,223,15357,5,0,1:0:0:0:
434,157,15522,1,0,0:0:0:0:
301,38,15851,1,0,1:0:0:0:
224,199,16181,1,0,1:0:0:0:
234,210,16263,1,0,1:0:0:0:
228,232,16346,2,0,P|207:264|204:292,1,59.5000011348725,8|0,1:0|1:0,0:0:0:0:
292,291,16675,6,0,P|317:239|325:175,1,119.000002269745,0|8,1:0|1:0,1:0:0:0:
377,324,17170,2,0,P|402:272|410:208,1,119.000002269745,0|0,1:0|1:0,1:0:0:0:
487,277,17664,2,0,P|493:240|490:217,1,59.5000011348725,8|0,1:0|1:0,0:0:0:0:
454,136,17994,5,0,1:0:0:0:
410,211,18159,1,0,0:0:0:0:
401,32,18489,2,0,B|329:5|308:66|224:23,1,178.500003404617,0|8,1:0|1:0,1:0:0:0:
91,70,19313,6,0,P|147:87|192:126,1,119.000002269745,0|8,1:0|1:0,1:0:0:0:
316,279,19972,2,0,P|257:260|206:210,1,119.000002269745,0|8,1:0|1:0,0:0:0:0:
285,167,20467,1,0,1:0:0:0:
370,193,20631,1,0,1:0:0:0:
413,270,20796,1,0,0:0:0:0:
258,360,21126,1,0,1:0:0:0:
322,194,21456,1,0,1:0:0:0:
331,109,21620,1,8,1:2:0:0:
123,72,21950,6,0,P|120:146|149:228,1,140,4|8,1:2|1:0,0:0:0:0:
39,147,22445,2,0,P|64:250|89:285,1,140,0|0,1:0|1:0,1:0:0:0:
158,339,22939,1,8,1:0:0:0:
255,327,23104,1,0,1:0:0:0:
272,231,23269,5,0,1:0:0:0:
206,158,23434,2,0,P|201:131|209:74,1,70,8|0,1:2|1:0,1:0:0:0:
138,208,23763,2,0,P|119:141|123:72,1,140,8|0,1:2|1:0,1:0:0:0:
132,54,24175,1,0,1:0:0:0:
143,35,24258,1,8,1:0:0:0:
389,72,24587,6,0,P|392:146|363:228,1,140,0|8,1:0|1:0,0:0:0:0:
473,147,25082,2,0,P|448:250|423:285,1,140,0|0,1:0|1:0,1:0:0:0:
354,339,25576,1,8,1:0:0:0:
257,327,25741,1,0,1:0:0:0:
240,231,25906,5,0,1:0:0:0:
329,191,26071,2,0,P|332:225|327:260,1,70,0|8,0:0|1:0,0:0:0:0:
240,231,26401,2,0,P|235:157|255:85,1,140,0|0,1:0|1:0,0:0:0:0:
260,78,26813,1,0,1:0:0:0:
269,63,26895,1,8,1:0:0:0:
82,122,27225,6,0,P|79:196|108:278,1,140,0|8,1:0|1:0,0:0:0:0:
166,188,27719,2,0,P|199:258|271:297,1,140,0|0,1:0|1:0,0:0:0:0:
331,236,28214,1,8,1:0:0:0:
400,304,28379,1,0,1:0:0:0:
469,236,28543,5,0,1:0:0:0:
400,158,28708,2,0,P|395:131|403:74,1,70,8|0,1:2|1:0,1:0:0:0:
332,208,29038,2,0,P|313:141|317:72,1,140,8|0,1:2|1:0,1:0:0:0:
326,54,29450,1,0,1:0:0:0:
337,35,29533,1,8,1:0:0:0:
241,16,29697,5,0,1:0:0:0:
188,98,29862,2,0,P|143:125|78:134,1,105,0|0,1:0|2:0,1:0:0:0:
42,134,30192,2,0,P|86:161|151:170,1,105,8|0,1:0|2:0,1:0:0:0:
186,176,30522,2,0,P|141:203|76:212,1,105,0|0,1:0|0:0,1:0:0:0:
61,213,30851,1,8,1:0:0:0:
69,310,31016,5,0,1:0:0:0:
166,300,31181,1,0,1:0:0:0:
252,253,31346,1,0,1:0:0:0:
275,58,31675,1,0,1:0:0:0:
411,199,32005,5,0,1:0:0:0:
401,188,32087,1,0,1:0:0:0:
407,166,32170,2,0,P|428:132|431:103,1,70,8|0,1:0|1:0,1:0:0:0:
347,28,32500,5,4,1:2:0:0:
263,77,32664,1,0,0:0:0:0:
94,77,32994,1,0,1:0:0:0:
178,126,33159,5,2,0:3:0:0:
94,175,33324,1,0,1:0:0:0:
230,233,33653,1,0,0:0:0:0:
327,237,33818,6,0,L|389:321,1,105,2|0,1:3|2:0,1:0:0:0:
361,364,34148,2,0,L|256:364,1,105,2|0,1:3|2:0,0:0:0:0:
230,322,34478,2,0,L|309:206,1,140,2|2,0:3|1:3,0:0:0:0:
296,60,34972,6,0,L|208:195,1,140
171,263,35467,1,2,1:3:0:0:
117,181,35631,1,0,1:0:0:0:
68,95,35796,1,2,0:3:0:0:
273,95,36126,1,2,1:3:0:0:
171,263,36456,1,2,1:0:0:0:
224,181,36620,1,0,1:0:0:0:
68,95,36950,1,0,1:0:0:0:
257,343,37609,5,0,1:0:0:0:
367,289,37774,2,0,L|380:186,1,87.5,4|2,1:0|0:2,1:0:0:0:
272,198,38104,2,0,L|259:95,1,87.5,8|2,1:0|1:2,1:0:0:0:
156,123,38434,2,0,L|169:20,1,87.5,0|2,1:0|1:2,0:0:0:0:
71,80,38763,1,8,1:0:0:0:
22,173,38928,2,0,P|95:244|188:235,1,175,2|0,1:2|1:0,1:0:0:0:
127,138,39423,5,8,1:0:0:0:
22,173,39587,1,0,1:0:0:0:
11,299,39752,2,0,P|61:333|136:339,2,131.25,2|2|2,1:2|0:2|1:2,1:0:0:0:
22,173,40411,1,0,1:0:0:0:
258,211,40741,5,8,1:0:0:0:
336,281,40906,1,0,1:0:0:0:
336,281,40989,1,0,1:0:0:0:
336,281,41071,2,0,L|361:378,1,87.5,0|0,1:0|1:0,0:0:0:0:
460,340,41401,1,8,1:0:0:0:
486,239,41565,1,0,1:0:0:0:
497,134,41730,6,0,P|461:143|418:183,1,87.5,2|0,1:2|2:0,1:0:0:0:
403,224,41978,2,0,P|370:194|329:183,1,87.5,2|0,1:2|2:0,1:0:0:0:
276,184,42225,1,2,1:2:0:0:
261,79,42390,2,0,B|325:67|325:67|406:104,2,131.25,2|2|8,1:3|1:3|1:0,1:0:0:0:
158,102,43049,5,8,1:0:0:0:
91,258,43379,2,0,L|78:155,1,87.5,12|0,1:0|0:0,1:0:0:0:
158,102,43708,2,0,L|171:-1,1,87.5,2|0,1:2|1:0,1:0:0:0:
267,54,44038,1,8,1:0:0:0:
282,157,44203,2,0,P|229:222|120:220,1,175,2|0,1:2|1:0,1:0:0:0:
184,132,44697,5,8,1:0:0:0:
270,73,44862,1,0,1:0:0:0:
360,126,45027,2,0,P|413:127|485:92,2,131.25,2|2|2,1:2|1:2|0:2,0:0:0:0:
310,229,45686,1,4,1:0:0:0:
260,338,45851,5,0,1:0:0:0:
158,308,46016,2,0,L|61:279,1,87.5,8|0,1:0|1:0,0:0:0:0:
157,218,46346,2,0,L|254:189,1,87.5,8|0,1:0|1:0,0:0:0:0:
339,156,46675,1,8,1:0:0:0:
250,98,46840,1,0,1:0:0:0:
349,64,47005,2,0,P|432:125|431:219,1,175,4|8,1:0|1:0,1:0:0:0:
339,156,47500,1,2,1:3:0:0:
348,52,47664,2,0,P|454:32|522:68,1,175,8|8,1:0|1:2,1:0:0:0:
448,143,48159,5,8,0:0:0:0:
411,241,48324,1,4,1:0:0:0:
430,343,48489,1,0,1:0:0:0:
327,159,48818,1,0,1:0:0:0:
294,258,48983,1,0,1:0:0:0:
329,356,49148,1,0,1:0:0:0:
227,171,49478,6,0,P|133:192|25:164,1,175,0|0,1:0|1:0,0:0:0:0:
46,68,49972,1,8,1:0:0:0:
143,28,50137,1,0,1:0:0:0:
237,73,50302,1,0,1:0:0:0:
139,113,50467,2,0,P|90:105|44:69,1,87.5,0|8,1:0|1:0,0:0:0:0:
163,196,50796,6,0,P|76:194|-3:146,1,175,0|0,1:0|1:0,0:0:0:0:
1,261,51291,1,8,1:0:0:0:
89,318,51456,1,0,1:0:0:0:
193,307,51620,1,0,1:0:0:0:
252,227,51785,2,0,P|296:219|339:225,1,87.5,0|8,1:0|1:0,0:0:0:0:
424,287,52115,1,0,1:0:0:0:
468,191,52280,6,0,P|403:142|301:124,1,175,0|8,1:0|1:0,1:0:0:0:
272,220,52774,1,0,1:0:0:0:
377,220,52939,2,0,P|389:174|341:20,1,175,0|8,1:0|1:0,0:0:0:0:
255,41,53434,5,8,1:0:0:0:
145,95,53598,2,0,L|132:198,1,87.5,12|2,1:0|1:2,1:0:0:0:
240,186,53928,2,0,L|253:289,1,87.5,8|2,1:0|0:2,1:0:0:0:
356,261,54258,2,0,L|343:364,1,87.5,0|2,1:0|1:2,1:0:0:0:
441,304,54587,1,8,1:0:0:0:
490,211,54752,2,0,P|417:140|324:149,1,175,2|0,1:2|1:0,1:0:0:0:
375,241,55247,5,8,1:0:0:0:
343,141,55412,1,0,1:0:0:0:
285,228,55576,2,0,P|294:288|355:338,2,131.25,2|2|2,1:2|0:2|1:2,1:0:0:0:
375,241,56236,1,8,1:0:0:0:
377,136,56401,5,0,1:0:0:0:
290,50,56565,2,0,L|281:159,1,87.5,8|0,1:0|1:0,1:0:0:0:
187,182,56895,2,0,L|194:94,1,87.5,8|0,1:0|1:0,0:0:0:0:
107,34,57225,2,0,L|99:121,1,87.5,8|0,1:0|1:0,0:0:0:0:
91,226,57554,6,0,P|129:258|168:268,1,87.5,12|0,1:0|1:0,0:0:0:0:
261,223,57884,2,0,P|224:192|184:181,1,87.5,8|0,1:0|1:0,0:0:0:0:
158,79,58214,2,0,P|243:92|317:138,1,175,0|8,1:0|1:0,0:0:0:0:
386,291,58873,6,0,P|357:315|326:323,1,70,12|0,1:0|1:0,0:0:0:0:
257,274,59203,2,0,P|285:249|316:241,1,70,8|0,1:0|1:0,0:0:0:0:
330,158,59533,2,0,P|274:162|240:179,1,70,8|0,1:0|0:0,0:0:0:0:
