osu file format v14

[General]
AudioFilename: audio.mp3
AudioLeadIn: 0
PreviewTime: 37588
Countdown: 0
SampleSet: Soft
StackLeniency: 0.7
Mode: 0
LetterboxInBreaks: 0
WidescreenStoryboard: 1

[Editor]
Bookmarks: 522,59903
DistanceSpacing: 0.4
BeatDivisor: 4
GridSize: 4
TimelineZoom: 2.3

[Metadata]
Title:Telecaster B-boy
TitleUnicode:テレキャスタービーボーイ
Artist:Three feat. Kagamine Len
ArtistUnicode:すりぃ feat.鏡音レン
Creator:Ryuusei Aika
Version:Nevo's Insane
Source:
Tags:パラドックス Paradox 3 Surii VOCALOID ボーカロイド Japanese Male vocal rock j-rock jrock pop j-pop jpop pappl e 104 pappl_e_104 papple papple104 Sodarose Noffy gary00737 _lai Remapper [Hatsune Miku] Crystal Momochikun Nao Tomori Nao_Tomori Naotoshi Nevo DTM9 Nowa DTM9_Nowa Tokiko Koiyuki Minakami Yuki Minakami_Yuki Taeyang CoLouRed GlazeE CoLouRed_GlazeE Irohas MugiwaraSekai Lasse Riana Doormat Acyl Acylica Little CloudSplash16 AirinCat Hanazawa Kana Hanazawa_Kana Reillia Curi C_u_r_i [C_u_r_i]
BeatmapID:2065892
BeatmapSetID:972025

[Difficulty]
HPDrainRate:6
CircleSize:4
OverallDifficulty:8
ApproachRate:9
SliderMultiplier:1.8
SliderTickRate:1

[Events]
//Background and Video events
Video,140,"boy.mp4"
0,0,"boy.jpg",0,0
//Break Periods
//Storyboard Layer 0 (Background)
//Storyboard Layer 1 (Fail)
//Storyboard Layer 2 (Pass)
//Storyboard Layer 3 (Foreground)
//Storyboard Layer 4 (Overlay)
//Storyboard Sound Samples

[TimingPoints]
-467,329.67032967033,4,2,1,45,1,0
522,-66.6666666666667,4,2,1,45,0,0
851,329.67032967033,4,2,1,60,1,0
851,-83.3333333333333,4,2,1,60,0,0
11401,-100,4,2,1,45,0,0
21620,-100,4,2,1,60,0,0
30108,-100,4,2,1,5,0,0
30191,-100,4,2,1,60,0,0
30438,-100,4,2,1,5,0,0
30521,-100,4,2,1,60,0,0
32500,-100,4,2,1,45,0,0
32829,-66.6666666666667,4,2,1,45,0,0
33159,-100,4,2,1,45,0,0
33489,-66.6666666666667,4,2,1,45,0,0
33818,-100,4,2,1,45,0,0
37774,-71.4285714285714,4,2,1,75,0,0
41894,-71.4285714285714,4,2,1,5,0,0
41978,-71.4285714285714,4,2,1,75,0,0
43049,-222.222222222221,4,2,1,75,0,0
43296,-222.222222222221,4,2,1,5,0,0
43379,-71.4285714285714,4,2,1,75,0,0

[Colours]
Combo1 : 248,216,105
Combo2 : 90,197,154
Combo3 : 179,112,51
Combo4 : 249,104,17

[HitObjects]
279,330,522,6,0,P|295:291|238:336,1,202.500007724762,0|0,1:0|2:0,1:0:0:0:
375,327,851,6,0,P|377:264|350:214,1,107.999996704102,4|0,1:2|1:0,1:0:0:0:
194,92,1181,1,8,1:2:0:0:
467,27,1346,1,0,1:0:0:0:
478,45,1675,5,0,1:0:0:0:
465,130,1840,1,8,1:2:0:0:
453,215,2005,1,0,1:0:0:0:
276,185,2170,6,0,P|318:139|392:138,1,107.999996704102,0|0,1:0|1:0,1:0:0:0:
309,279,2500,1,8,1:2:0:0:
88,210,2664,1,0,1:0:0:0:
72,222,2993,5,0,1:0:0:0:
52,138,3159,1,8,1:2:0:0:
29,53,3324,1,0,1:0:0:0:
237,81,3489,6,0,P|186:99|131:83,1,107.999996704102,0|0,1:0|1:0,1:0:0:0:
323,0,3818,1,8,1:2:0:0:
296,226,3983,1,0,1:0:0:0:
282,244,4313,5,0,1:0:0:0:
375,211,4478,1,8,1:2:0:0:
475,177,4642,1,0,1:0:0:0:
384,6,4807,6,0,L|377:124,1,107.999996704102,0|0,1:0|1:0,1:0:0:0:
362,312,5137,1,8,1:2:0:0:
195,174,5302,2,0,P|244:137|314:143,1,107.999996704102,0|0,1:0|1:0,1:0:0:0:
458,269,5631,1,0,1:0:0:0:
300,121,5796,1,8,1:0:0:0:
287,351,5961,1,0,1:0:0:0:
287,351,6043,1,0,1:0:0:0:
287,351,6126,6,0,L|281:237,1,107.999996704102,4|0,1:2|1:0,1:0:0:0:
204,21,6456,1,8,1:2:0:0:
50,144,6620,1,0,1:0:0:0:
43,165,6950,5,0,1:0:0:0:
67,251,7115,1,8,1:2:0:0:
88,337,7280,1,0,1:0:0:0:
262,199,7445,6,0,B|210:175|210:175|110:188,1,107.999996704102,0|0,1:0|1:0,1:0:0:0:
310,311,7774,1,8,1:2:0:0:
349,111,7939,1,0,1:0:0:0:
362,94,8269,5,0,1:0:0:0:
437,139,8434,1,8,1:2:0:0:
512,180,8598,1,0,1:0:0:0:
368,294,8763,6,0,L|357:170,1,107.999996704102,0|0,1:0|1:0,1:0:0:0:
227,14,9093,1,8,1:2:0:0:
117,202,9258,1,0,1:0:0:0:
110,215,9587,5,0,1:0:0:0:
200,191,9752,1,8,1:2:0:0:
293,168,9917,1,0,1:0:0:0:
134,23,10082,6,0,P|119:82|138:129,1,107.999996704102,0|0,1:0|1:0,1:0:0:0:
375,218,10412,2,0,P|390:159|371:112,1,107.999996704102,8|0,3:2|1:0,1:0:0:0:
200,191,10741,1,0,1:0:0:0:
203,206,10824,1,0,1:0:0:0:
207,222,10906,1,0,1:0:0:0:
210,238,10989,1,0,1:0:0:0:
214,254,11071,1,8,1:0:0:0:
218,269,11153,1,0,1:0:0:0:
221,287,11236,2,0,L|235:348,1,53.9999983520508,0|0,1:0|1:0,1:0:0:0:
313,384,11401,6,0,P|377:328|480:346,1,180,4|8,1:2|1:0,1:0:0:0:
512,175,11895,2,0,P|445:231|358:222,1,180,0|0,1:0|1:0,1:0:0:0:
398,51,12390,2,0,B|420:77|420:77|417:164,1,90,8|0,1:0|1:0,1:0:0:0:
287,119,12719,6,0,L|343:107,1,45,0|0,1:0|2:0,1:0:0:0:
273,110,12884,2,0,L|329:98,1,45,0|0,2:0|2:0,2:0:0:0:
512,50,13049,1,8,1:0:0:0:
257,100,13214,2,0,L|438:68,1,180,0|0,1:0|1:0,1:0:0:0:
85,36,13708,2,0,P|129:34|172:48,1,90,8|0,1:0|1:0,1:0:0:0:
151,204,14038,5,0,1:0:0:0:
118,122,14203,1,0,1:0:0:0:
237,229,14368,1,8,1:0:0:0:
237,229,14533,2,0,L|217:336,1,90,0|0,1:0|1:0,1:0:0:0:
88,273,14862,1,0,1:0:0:0:
214,135,15027,5,8,1:0:0:0:
314,291,15192,1,0,1:0:0:0:
45,354,15357,6,0,P|1:297|5:250,1,90,0|2,1:0|1:2,1:0:0:0:
9,274,15604,2,0,P|21:316|54:346,1,90,0|0,1:0|2:0,1:0:0:0:
88,273,15851,1,0,1:0:0:0:
376,357,16181,1,0,1:0:0:0:
376,357,16263,1,0,1:0:0:0:
376,357,16346,1,8,1:0:0:0:
425,277,16511,1,0,1:0:0:0:
299,92,16675,6,0,P|316:148|332:284,1,180,0|8,1:0|1:0,1:0:0:0:
390,33,17170,2,0,P|373:89|357:225,1,180,0|0,1:0|1:0,1:0:0:0:
507,309,17664,2,0,P|430:277|390:274,1,90,8|0,1:0|1:0,1:0:0:0:
160,283,17994,5,0,1:0:0:0:
56,323,18159,1,0,1:0:0:0:
357,209,18489,1,0,1:0:0:0:
144,156,18818,5,0,1:0:0:0:
250,182,18983,1,8,1:0:0:0:
357,209,19148,1,0,1:0:0:0:
326,31,19313,6,0,P|315:86|325:129,1,90,0|0,1:0|1:0,1:0:0:0:
483,129,19642,2,0,P|440:91|398:79,1,90,8|0,1:0|1:0,1:0:0:0:
171,221,19972,2,0,P|224:203|256:172,1,90,0|0,1:0|1:0,1:0:0:0:
177,36,20302,2,0,P|165:90|176:134,1,90,8|0,1:0|1:0,1:0:0:0:
413,260,20631,6,0,P|370:222|328:210,1,90,0|0,1:0|1:0,1:0:0:0:
249,347,20961,1,8,1:0:0:0:
327,307,21126,1,0,1:0:0:0:
73,105,21456,5,0,1:0:0:0:
455,174,21620,1,8,1:2:0:0:
97,281,21950,6,0,P|71:156|76:82,2,180,4|8|0,1:2|1:0|1:0,1:0:0:0:
209,367,22774,1,0,1:0:0:0:
209,367,22939,2,0,P|210:308|221:268,1,90,8|0,1:0|1:0,1:0:0:0:
350,79,23269,5,0,1:0:0:0:
308,309,23434,1,8,1:2:0:0:
137,21,23763,1,8,1:2:0:0:
354,204,24093,1,0,1:0:0:0:
372,199,24175,1,2,3:2:0:0:
391,192,24258,2,0,L|487:167,1,90,8|0,1:0|1:0,2:0:0:0:
276,16,24587,6,0,P|254:63|257:109,1,90,0|0,1:0|1:0,2:0:0:0:
400,289,24917,1,8,1:0:0:0:
200,234,25082,2,0,L|99:229,1,90,0|0,1:0|2:0,1:0:0:0:
83,48,25412,5,0,1:0:0:0:
99,144,25576,1,8,1:0:0:0:
110,229,25741,1,0,1:0:0:0:
311,109,25905,6,0,P|261:86|181:81,2,135,0|2|0,1:0|2:0|1:0,2:0:0:0:
442,199,26565,1,0,1:0:0:0:
318,295,26730,1,0,1:0:0:0:
318,295,26813,1,0,2:0:0:0:
318,295,26895,2,0,L|309:204,1,90,8|0,1:0|1:0,2:0:0:0:
62,272,27225,5,0,1:0:0:0:
145,318,27390,1,0,1:0:0:0:
220,262,27554,1,8,1:0:0:0:
51,367,27719,6,0,P|53:295|13:174,1,180,0|0,1:0|1:0,2:0:0:0:
98,95,28214,2,0,L|91:168,1,45,8|0,1:0|2:0,2:0:0:0:
186,53,28379,2,0,L|193:126,1,45,0|0,1:0|2:0,1:0:0:0:
258,172,28543,5,0,1:0:0:0:
490,65,28708,1,8,1:2:0:0:
344,331,29038,1,8,1:2:0:0:
366,98,29368,1,0,1:0:0:0:
358,83,29450,1,0,1:0:0:0:
345,65,29533,2,0,P|289:31|253:31,1,90,8|0,1:0|1:0,1:0:0:0:
105,161,29862,6,0,B|237:158|237:158|286:115,2,180,0|8|0,1:0|1:0|1:0,1:0:0:0:
3,15,30686,1,0,1:0:0:0:
3,15,30851,2,0,P|32:57|40:101,1,90,8|0,1:0|1:0,1:0:0:0:
92,295,31181,6,0,L|108:128,2,135,0|0|0,1:0|1:0|1:0,1:0:0:0:
153,384,31840,1,0,1:0:0:0:
300,241,32005,1,0,1:0:0:0:
300,241,32087,1,0,1:0:0:0:
300,241,32170,1,8,1:0:0:0:
466,354,32335,1,0,1:0:0:0:
414,92,32500,6,0,P|422:148|496:128,1,135,4|0,1:2|2:0,1:0:0:0:
487,143,32829,2,0,P|434:137|359:178,1,135.000005149842,0|0,1:0|1:0,1:0:0:0:
262,287,33159,6,0,P|270:343|344:323,1,135,0|0,1:0|1:0,1:0:0:0:
335,338,33489,2,0,P|281:331|206:372,1,135.000005149842,0|0,1:0|1:0,1:0:0:0:
51,112,33818,6,0,L|39:255,1,135,0|0,1:0|2:0,1:0:0:0:
113,325,34148,2,0,L|124:190,1,135,0|0,1:0|2:0,1:0:0:0:
214,124,34478,2,0,L|202:267,1,135,0|0,1:0|2:0,1:0:0:0:
256,334,34807,1,0,1:0:0:0:
411,125,35137,6,0,P|392:91|389:151,1,135,0|0,1:0|2:0,1:0:0:0:
418,208,35467,2,0,L|406:325,1,90,0|0,1:0|1:0,1:0:0:0:
256,334,35796,2,0,L|246:244,1,90,0|0,1:0|1:0,1:0:0:0:
79,121,36126,1,0,1:0:0:0:
65,214,36291,1,0,1:0:0:0:
176,82,36456,5,0,1:0:0:0:
0,156,36620,1,0,1:0:0:0:
351,277,36950,1,0,1:0:0:0:
351,277,37609,6,0,L|358:227,1,45,0|0,1:0|1:0,1:0:0:0:
384,140,37774,6,0,L|401:280,1,125.999996154785,4|0,1:0|1:0,1:0:0:0:
176,82,38104,2,0,L|159:222,1,125.999996154785,8|0,1:0|1:0,1:0:0:0:
463,79,38434,2,0,P|366:40|313:68,1,125.999996154785,0|2,1:0|1:2,1:0:0:0:
264,123,38681,2,0,P|346:58|348:-1,1,125.999996154785,2|0,1:2|1:0,1:0:0:0:
249,20,38928,1,2,1:2:0:0:
389,199,39258,5,0,1:0:0:0:
359,289,39423,1,8,1:0:0:0:
331,383,39587,1,0,1:0:0:0:
137,320,39752,6,0,B|198:297|198:297|257:312,1,125.999996154785,2|0,1:2|1:0,1:0:0:0:
181,270,40000,2,0,B|120:293|120:293|61:278,1,125.999996154785,2|0,2:0|1:0,1:0:0:0:
114,201,40247,1,0,1:0:0:0:
271,90,40576,5,0,1:0:0:0:
367,108,40741,1,8,1:0:0:0:
464,127,40906,1,0,1:0:0:0:
468,144,40989,1,0,1:0:0:0:
474,163,41071,1,0,1:0:0:0:
426,276,41236,1,0,1:0:0:0:
302,190,41401,1,8,1:0:0:0:
156,244,41565,1,0,1:0:0:0:
232,384,41730,6,0,L|245:249,1,125.999996154785,2|0,1:2|2:0,1:0:0:0:
289,315,41978,2,0,L|302:180,1,125.999996154785,2|0,1:2|1:0,1:0:0:0:
346,246,42225,2,0,L|359:111,1,125.999996154785,2|2,1:2|1:3,1:0:0:0:
178,41,42554,1,2,1:3:0:0:
178,41,42637,1,2,1:3:0:0:
178,41,42719,1,8,1:0:0:0:
253,132,42884,1,0,3:0:0:0:
95,244,43049,6,0,L|87:170,1,60.7499981460572,8|0,1:0|2:0,1:0:0:0:
64,104,43379,6,0,L|54:262,1,125.999996154785,12|0,1:0|1:0,1:0:0:0:
275,337,43708,1,2,1:2:0:0:
253,132,43955,1,2,1:2:0:0:
119,362,44202,2,0,P|40:341|-8:266,1,125.999996154785,2|0,1:2|1:0,1:0:0:0:
157,101,44533,5,0,1:0:0:0:
177,202,44697,1,8,1:0:0:0:
197,301,44862,1,0,1:0:0:0:
59,167,45027,5,2,1:2:0:0:
317,248,45274,1,2,1:2:0:0:
75,378,45522,1,2,1:2:0:0:
75,378,45604,1,0,1:0:0:0:
75,378,45686,2,0,P|62:297|80:247,1,125.999996154785,4|0,1:0|1:0,1:0:0:0:
182,97,46016,5,8,1:0:0:0:
367,195,46181,1,0,1:0:0:0:
177,265,46346,1,8,1:0:0:0:
297,32,46511,1,0,1:0:0:0:
474,178,46675,1,8,1:0:0:0:
225,180,46840,1,0,1:0:0:0:
443,18,47005,6,0,L|414:219,1,188.999994232178,4|0,1:0|1:0,1:0:0:0:
366,270,47335,2,0,L|377:342,3,62.9999980773926,8|0|2|2,1:0|1:0|1:3|1:3,1:0:0:0:
279,220,47664,2,0,L|268:292,3,62.9999980773926,8|8|8|8,1:0|1:0|1:0|1:0,1:0:0:0:
214,161,47994,1,8,1:2:0:0:
176,138,48076,1,8,1:0:0:0:
133,132,48159,1,8,1:0:0:0:
90,142,48241,1,8,1:0:0:0:
55,168,48324,5,4,1:0:0:0:
248,246,48489,1,0,1:0:0:0:
8,368,48653,2,0,L|-1:235,1,125.999996154785,8|0,1:2|1:0,1:0:0:0:
68,34,48983,5,0,1:0:0:0:
151,243,49148,1,0,1:0:0:0:
326,72,49313,2,0,L|194:51,1,125.999996154785,8|0,1:2|1:0,1:0:0:0:
345,284,49642,6,0,P|360:203|339:149,1,125.999996154785,0|0,1:0|1:0,1:0:0:0:
135,93,49972,1,8,1:0:0:0:
268,221,50137,1,0,1:0:0:0:
58,293,50302,1,0,1:0:0:0:
286,346,50467,1,2,1:2:0:0:
160,191,50631,2,0,P|145:272|166:326,1,125.999996154785,8|0,1:0|1:0,2:0:0:0:
470,164,50961,6,0,L|323:153,1,125.999996154785,0|0,1:0|1:0,2:0:0:0:
40,83,51291,1,8,1:0:0:0:
272,52,51456,1,0,1:0:0:0:
51,189,51620,1,0,1:0:0:0:
188,113,51785,1,0,1:0:0:0:
102,299,51950,1,8,1:0:0:0:
157,213,52115,1,0,1:0:0:0:
180,362,52280,6,0,L|310:335,1,125.999996154785,0|0,1:0|1:0,2:0:0:0:
447,249,52609,1,8,1:0:0:0:
251,203,52774,1,0,1:0:0:0:
251,203,52857,1,0,1:0:0:0:
251,203,52939,1,10,1:2:0:0:
377,132,53104,1,0,1:0:0:0:
377,132,53186,1,0,1:0:0:0:
377,132,53269,1,8,1:0:0:0:
234,60,53434,1,8,1:0:0:0:
234,60,53516,1,8,1:0:0:0:
234,60,53598,6,0,L|78:74,1,125.999996154785,12|2,1:0|1:2,1:0:0:0:
231,287,53928,2,0,L|387:301,1,125.999996154785,8|0,1:0|1:0,1:0:0:0:
46,148,54258,1,0,1:0:0:0:
98,279,54423,1,2,1:2:0:0:
258,180,54587,2,0,L|102:194,1,125.999996154785,8|2,1:0|1:2,1:0:0:0:
316,25,54917,6,0,L|472:39,1,125.999996154785,0|0,1:0|1:0,1:0:0:0:
324,246,55247,1,8,1:0:0:0:
289,94,55412,1,0,1:0:0:0:
485,196,55576,2,0,P|409:165|341:168,1,125.999996154785,0|0,1:0|1:0,1:0:0:0:
324,246,55824,2,0,L|333:91,1,125.999996154785,0|0,1:0|1:0,1:0:0:0:
373,38,56071,2,0,L|365:163,1,125.999996154785,0|8,1:0|1:0,1:0:0:0:
369,335,56401,5,0,1:0:0:0:
186,303,56565,1,8,1:0:0:0:
186,134,56730,1,0,1:0:0:0:
186,134,56813,1,0,1:0:0:0:
186,134,56895,1,8,1:0:0:0:
295,226,57060,1,0,1:0:0:0:
58,217,57225,1,8,1:0:0:0:
275,81,57390,1,0,1:0:0:0:
90,321,57554,5,12,1:0:0:0:
59,108,57719,1,0,1:0:0:0:
201,286,57884,1,8,1:0:0:0:
187,22,58049,1,0,1:0:0:0:
187,22,58131,1,0,1:0:0:0:
187,22,58214,1,0,1:0:0:0:
58,217,58379,2,0,L|234:185,1,125.999996154785,8|8,1:0|1:0,1:0:0:0:
364,241,58708,1,0,1:0:0:0:
364,241,58791,1,8,1:0:0:0:
364,241,58873,5,12,1:0:0:0:
250,99,59038,1,0,1:0:0:0:
463,145,59203,1,8,1:0:0:0:
180,272,59368,1,0,1:0:0:0:
354,127,59533,5,8,1:0:0:0:
