osu file format v14

[General]
AudioFilename: audio.mp3
AudioLeadIn: 0
PreviewTime: 37588
Countdown: 0
SampleSet: Normal
StackLeniency: 0.4
Mode: 0
LetterboxInBreaks: 0
WidescreenStoryboard: 1

[Editor]
Bookmarks: 521
DistanceSpacing: 0.4
BeatDivisor: 4
GridSize: 4
TimelineZoom: 2.699999

[Metadata]
Title:Telecaster B-boy
TitleUnicode:テレキャスタービーボーイ
Artist:Three feat. Kagamine Len
ArtistUnicode:すりぃ feat.鏡音レン
Creator:Ryuusei Aika
Version:Nao's Insane
Source:
Tags:パラドックス Paradox 3 Surii VOCALOID ボーカロイド Japanese Male vocal rock j-rock jrock pop j-pop jpop pappl e 104 pappl_e_104 papple papple104 Sodarose Noffy gary00737 _lai Remapper [Hatsune Miku] Crystal Momochikun Nao Tomori Nao_Tomori Naotoshi Nevo DTM9 Nowa DTM9_Nowa Tokiko Koiyuki Minakami Yuki Minakami_Yuki Taeyang CoLouRed GlazeE CoLouRed_GlazeE Irohas MugiwaraSekai Lasse Riana Doormat Acyl Acylica Little CloudSplash16 AirinCat Hanazawa Kana Hanazawa_Kana Reillia Curi C_u_r_i [C_u_r_i]
BeatmapID:2046274
BeatmapSetID:972025

[Difficulty]
HPDrainRate:5
CircleSize:3.5
OverallDifficulty:7.4
ApproachRate:9
SliderMultiplier:1.6
SliderTickRate:1

[Events]
//Background and Video events
Video,140,"boy.mp4"
0,0,"boy.jpg",0,0
//Break Periods
//Storyboard Layer 0 (Background)
//Storyboard Layer 1 (Fail)
//Storyboard Layer 2 (Pass)
//Storyboard Layer 3 (Foreground)
//Storyboard Layer 4 (Overlay)
//Storyboard Sound Samples

[TimingPoints]
-467,329.67032967033,4,1,1,45,1,0
520,-400,4,1,1,45,0,0
767,-100,4,1,1,5,0,0
851,329.67032967033,4,1,1,60,1,0
851,-83.3333333333333,4,1,1,60,0,0
2169,-76.9230769230769,4,1,1,60,0,0
3487,-71.4285714285714,4,1,1,60,0,0
3736,-71.4285714285714,4,1,1,5,0,0
3818,-71.4285714285714,4,1,1,60,0,0
4806,-83.3333333333333,4,1,1,60,0,0
7443,-76.9230769230769,4,1,1,60,0,0
8762,-71.4285714285714,4,1,1,60,0,0
10081,-83.3333333333333,4,1,1,60,0,0
11399,-125,4,1,1,45,0,0
15355,-83.3333333333333,4,1,1,45,0,0
16674,-125,4,1,1,45,0,0
20630,-71.4285714285714,4,1,1,45,0,0
20960,-35.7142857142857,4,1,1,45,0,0
21139,-41.6666666666667,4,1,1,45,0,0
21454,-100,4,1,1,45,0,0
21619,-41.6666666666667,4,1,1,60,0,0
21949,-111.111111111111,4,1,1,60,0,0
23267,-71.4285714285714,4,1,1,60,0,0
24586,-111.111111111111,4,1,1,60,0,0
25905,-83.3333333333333,4,1,1,60,0,0
27223,-111.111111111111,4,1,1,60,0,0
28542,-71.4285714285714,4,1,1,60,0,0
29861,-100,4,1,1,60,0,0
31180,-76.9230769230769,4,1,1,60,0,0
32498,-125,4,1,1,45,0,0
33817,-100,4,1,1,45,0,0
37774,-62.5,4,1,1,75,0,1
38021,-62.5,4,1,1,5,0,1
38104,-62.5,4,1,1,75,0,1
38432,-83.3333333333333,4,1,1,75,0,1
41729,-62.5,4,1,1,75,0,1
41894,-62.5,4,1,1,5,0,1
41978,-62.5,4,1,1,75,0,1
42388,-66.6666666666667,4,1,1,75,0,1
43048,-500,4,1,1,75,0,1
43377,-55.5555555555556,4,1,1,75,0,1
43626,-55.5555555555556,4,1,1,5,0,1
43707,-83.3333333333333,4,1,1,75,0,1
47004,-50,4,1,1,75,0,1
48322,-71.4285714285714,4,1,1,75,0,1
53597,-62.5,4,1,1,75,0,1
53927,-55.5555555555556,4,1,1,75,0,1
54257,-71.4285714285714,4,1,1,75,0,1
59532,-100,4,1,1,75,0,0

[Colours]
Combo1 : 255,228,147
Combo2 : 187,255,187
Combo3 : 189,219,255
Combo4 : 251,174,186

[HitObjects]
89,155,522,6,0,L|94:185,1,30
74,223,851,6,0,B|170:176|163:275|276:215,1,191.999994140625,4|8,1:2|1:2,1:0:0:0:
397,149,1346,2,0,B|383:137|365:113|365:113|382:292,1,191.999994140625,0|0,1:0|1:0,0:0:0:0:
451,332,1840,1,8,1:2:0:0:
451,332,2005,1,0,1:0:0:0:
442,69,2170,6,0,P|385:26|268:107,1,207.999990478516,0|8,1:0|1:2,1:0:0:0:
105,144,2664,2,0,B|125:168|136:193|136:193|170:42,1,207.999990478516,0|0,1:0|1:0,0:0:0:0:
58,52,3076,1,0,1:0:0:0:
58,52,3159,1,8,1:2:0:0:
230,176,3324,1,0,1:0:0:0:
77,318,3489,6,0,P|21:290|84:213,1,167.999994873047,0|0,1:0|2:0,1:0:0:0:
78,216,3818,1,8,1:2:0:0:
271,266,3983,2,0,B|222:282|222:282|150:269,1,111.999996582031,0|0,1:0|1:0,0:0:0:0:
379,260,4313,2,0,B|319:249|319:249|270:265,1,111.999996582031,0|8,1:0|1:2,0:0:0:0:
432,346,4642,1,0,1:0:0:0:
401,156,4807,6,0,B|326:144|326:144|190:177,1,191.999994140625,0|8,1:0|1:2,1:0:0:0:
473,228,5302,2,0,P|502:159|440:64,1,191.999994140625,0|0,1:0|1:0,0:0:0:0:
213,171,5796,1,8,1:0:0:0:
401,156,5961,1,0,1:0:0:0:
381,134,6043,1,0,1:0:0:0:
349,135,6125,6,0,L|336:332,1,191.999994140625,4|8,1:2|1:2,1:0:0:0:
200,362,6620,2,0,L|212:170,1,191.999994140625,0|0,1:0|1:0,0:0:0:0:
60,50,7115,1,8,1:2:0:0:
60,50,7280,1,0,1:0:0:0:
37,141,7445,6,0,B|91:150|129:112|129:112|195:114|223:195,1,207.999990478516,0|8,1:0|1:2,1:0:0:0:
440,250,7939,2,0,P|358:227|281:318,1,207.999990478516,0|0,1:0|1:0,0:0:0:0:
281,308,8351,1,0,1:0:0:0:
280,307,8434,1,8,1:2:0:0:
383,351,8598,1,0,1:0:0:0:
267,150,8763,6,0,B|195:143|195:143|153:170|153:170|112:148|50:161,1,223.999993164063,0|8,1:0|1:2,1:0:0:0:
231,47,9258,2,0,P|303:11|354:121,1,223.999993164063,0|0,1:0|1:0,0:0:0:0:
286,359,9752,2,0,L|261:249,1,111.999996582031,8|0,1:2|1:0,0:0:0:0:
456,205,10082,6,0,P|393:260|283:221,1,191.999994140625,0|8,1:0|1:0,1:0:0:0:
161,307,10576,1,0,1:0:0:0:
98,240,10741,1,0,1:0:0:0:
98,240,10824,1,0,1:0:0:0:
98,240,10906,2,0,L|88:162,1,47.9999985351563,0|0,1:0|1:0,1:0:0:0:
219,95,11071,2,0,L|208:171,1,47.9999985351563,8|0,1:0|1:0,1:0:0:0:
366,169,11236,1,0,1:0:0:0:
366,169,11318,1,0,0:0:0:0:
366,169,11401,5,4,1:2:0:0:
402,50,11565,1,0,0:0:0:0:
270,18,11730,1,8,1:0:0:0:
234,137,11895,2,0,P|171:143|99:151,1,128,0|0,1:0|1:0,1:0:0:0:
47,242,12390,2,0,P|91:256|131:246,1,64,8|0,1:0|1:0,0:0:0:0:
250,311,12719,5,0,1:0:0:0:
263,223,12884,2,0,P|231:223|201:235,1,64,0|8,0:0|1:0,0:0:0:0:
344,283,13214,2,0,P|356:211|326:143,1,128,0|0,1:0|1:0,1:0:0:0:
434,306,13708,2,0,L|498:313,1,64,8|0,1:0|1:0,0:0:0:0:
459,215,14038,5,0,1:0:0:0:
364,374,14203,1,0,0:0:0:0:
251,228,14368,1,8,1:0:0:0:
151,378,14533,2,0,P|89:364|7:353,1,128,0|0,1:0|1:0,1:0:0:0:
160,285,15027,2,0,P|206:293|232:324,1,64,8|0,1:0|1:0,0:0:0:0:
81,232,15357,5,0,1:0:0:0:
81,232,15521,2,0,L|73:108,1,95.9999970703126,0|8,0:0|1:0,0:0:0:0:
188,172,15851,2,0,L|196:48,1,95.9999970703126,0|0,1:0|1:0,1:0:0:0:
284,204,16181,1,0,1:0:0:0:
305,199,16263,1,0,1:0:0:0:
327,190,16346,2,0,P|341:138|327:70,1,95.9999970703126,8|0,1:0|1:0,0:0:0:0:
266,28,16675,5,0,1:0:0:0:
420,199,16840,2,0,P|498:185|513:182,1,64,0|8,0:0|1:0,0:0:0:0:
357,293,17170,2,0,P|280:271|217:309,1,128,0|0,1:0|1:0,1:0:0:0:
163,364,17664,1,8,1:0:0:0:
163,364,17829,1,0,1:0:0:0:
15,287,17994,5,0,1:0:0:0:
105,200,18159,2,0,P|111:259|115:288,1,64,0|8,0:0|1:0,0:0:0:0:
6,60,18489,2,0,L|17:208,1,128,0|0,1:0|1:0,1:0:0:0:
111,263,18983,1,8,1:0:0:0:
213,192,19148,1,0,1:0:0:0:
314,272,19313,6,0,L|402:263,1,64,0|0,1:0|0:0,1:0:0:0:
213,192,19642,2,0,L|301:183,1,64,8|0,1:0|1:0,0:0:0:0:
162,276,19972,2,0,P|202:286|240:274,1,64,0|0,1:0|1:0,0:0:0:0:
321,99,20302,2,0,P|281:89|243:101,1,64,8|0,1:0|1:0,0:0:0:0:
370,184,20631,5,0,1:0:0:0:
370,184,20796,2,0,B|426:186|426:186|511:151,1,111.999996582031,0|8,0:0|1:0,0:0:0:0:
485,159,21126,1,0,1:0:0:0:
6,358,21456,5,0,1:0:0:0:
86,300,21620,2,0,B|190:273|190:273|278:302|278:302|382:278,1,287.999991210938,8|0,1:2|0:0,1:0:0:0:
375,272,21950,5,4,1:2:0:0:
325,188,22115,1,0,1:0:0:0:
377,22,22280,1,8,1:0:0:0:
427,106,22445,2,0,P|390:107|250:95,1,143.999995605469,0|0,1:0|1:0,1:0:0:0:
214,166,22939,1,8,1:0:0:0:
214,166,23104,1,0,1:0:0:0:
36,107,23269,5,0,1:0:0:0:
112,169,23434,2,0,L|88:308,1,111.999996582031,8|0,1:2|1:0,1:0:0:0:
233,276,23763,2,0,L|213:165,1,111.999996582031,8|0,1:2|1:0,1:0:0:0:
174,348,24093,1,0,1:0:0:0:
174,348,24175,1,0,1:0:0:0:
174,348,24258,2,0,P|237:371|295:346,1,111.999996582031,8|0,1:0|1:0,0:0:0:0:
450,256,24587,5,0,1:0:0:0:
473,373,24752,1,0,1:0:0:0:
450,256,24917,1,8,1:0:0:0:
427,139,25082,2,0,P|418:80|507:46,1,143.999995605469,0|0,1:0|1:0,1:0:0:0:
335,202,25576,2,0,P|275:180|238:184,1,71.9999978027344,8|0,1:0|1:0,0:0:0:0:
41,228,25906,5,0,1:0:0:0:
130,281,26071,2,0,B|181:288|181:288|247:268,1,95.9999970703126,0|8,0:0|1:0,0:0:0:0:
231,271,26401,1,0,1:0:0:0:
495,24,26730,5,0,1:0:0:0:
495,24,26813,1,0,1:0:0:0:
495,24,26895,1,8,1:0:0:0:
405,140,27060,1,0,1:0:0:0:
132,59,27225,5,0,1:0:0:0:
219,34,27390,1,0,1:0:0:0:
199,121,27554,1,8,1:0:0:0:
356,298,27719,6,0,P|420:293|514:282,1,143.999995605469,0|0,1:0|1:0,0:0:0:0:
397,196,28214,1,8,1:0:0:0:
290,365,28379,1,0,1:0:0:0:
152,196,28543,5,0,1:0:0:0:
0,284,28708,2,0,P|54:293|108:279,1,111.999996582031,8|0,1:2|1:0,1:0:0:0:
115,273,29038,1,8,1:2:0:0:
16,10,29368,5,0,1:0:0:0:
16,10,29450,1,0,1:0:0:0:
16,10,29533,1,8,1:0:0:0:
96,111,29697,1,0,1:0:0:0:
224,40,29862,6,0,P|296:22|331:19,1,80,0|0,1:0|1:0,1:0:0:0:
299,139,30192,2,0,P|317:211|320:246,1,80,8|0,1:0|1:0,1:0:0:0:
200,214,30522,2,0,P|128:232|93:235,1,80,0|0,1:0|1:0,1:0:0:0:
125,115,30851,2,0,P|107:43|104:8,1,80,8|0,1:0|1:0,0:0:0:0:
23,258,31181,5,0,1:0:0:0:
23,258,31346,2,0,B|76:234|76:234|136:232,1,103.999995239258,0|8,1:0|1:0,1:0:0:0:
129,236,31675,1,0,1:0:0:0:
470,352,32005,5,0,1:0:0:0:
473,324,32087,1,0,1:0:0:0:
475,294,32170,1,8,1:0:0:0:
430,217,32335,1,0,1:0:0:0:
238,314,32500,5,4,1:2:0:0:
154,281,32664,2,0,P|82:274|-4:268,1,128,0|0,0:0|1:0,0:0:0:0:
241,329,33159,5,2,0:3:0:0:
159,252,33324,2,0,P|87:245|1:239,1,128,0|0,1:0|0:0,1:0:0:0:
252,342,33818,6,0,P|267:293|275:256,1,80,2|0,1:3|0:0,1:0:0:0:
391,196,34148,2,0,P|400:234|412:273,1,80,2|0,1:3|1:0,0:0:0:0:
498,338,34478,2,0,P|448:308|336:357,1,160,2|2,0:3|1:3,0:0:0:0:
132,203,34972,6,0,P|182:233|294:184,1,160
225,62,35467,2,0,L|207:153,1,80,2|0,1:3|1:0,0:0:0:0:
105,214,35796,1,2,0:3:0:0:
105,214,35961,1,0,1:0:0:0:
75,344,36126,6,0,P|38:355|-9:331,1,80,2|0,1:3|0:0,1:0:0:0:
153,290,36456,1,2,1:0:0:0:
226,357,36620,2,0,P|305:360|335:357,1,80,0|0,1:0|1:0,0:0:0:0:
404,314,36950,1,0,1:0:0:0:
505,49,37774,6,0,B|419:36|435:126|330:118,1,192,4|0,1:0|2:0,1:0:0:0:
316,107,38104,2,0,P|356:56|418:79,1,128,8|2,1:0|1:2,1:0:0:0:
260,239,38434,2,0,P|231:185|208:133,1,95.9999970703126,0|2,1:0|1:2,0:0:0:0:
193,150,38681,2,0,P|173:193|150:236,1,95.9999970703126,2|0,0:2|0:0,0:0:0:0:
0,200,38928,2,0,P|84:180|144:264,1,191.999994140625,2|0,1:2|1:0,1:0:0:0:
95,335,39423,5,8,1:0:0:0:
137,90,39587,1,0,1:0:0:0:
334,228,39752,2,0,P|381:224|438:219,1,95.9999970703126,2|0,1:2|0:0,1:0:0:0:
437,191,40000,2,0,P|409:151|382:112,1,95.9999970703126,2|0,2:2|0:0,0:0:0:0:
361,119,40247,2,0,P|340:162|320:205,1,95.9999970703126,2|0,1:2|1:0,3:0:0:0:
344,369,40576,5,0,1:0:0:0:
193,230,40741,2,0,P|180:159|175:111,1,95.9999970703126,8|0,1:0|1:0,1:0:0:0:
219,251,40989,2,0,P|213:298|204:346,1,95.9999970703126,0|0,1:0|0:0,0:0:0:0:
175,369,41236,1,0,1:0:0:0:
116,307,41401,1,8,1:0:0:0:
45,362,41565,1,0,1:0:0:0:
466,158,41730,6,0,P|473:121|415:33,1,128,2|0,1:2|2:0,1:0:0:0:
246,98,41978,1,2,1:2:0:0:
246,98,42059,2,0,P|239:135|297:223,1,128,8|2,0:0|1:2,0:0:0:0:
356,132,42307,1,0,0:0:0:0:
356,132,42390,2,0,L|323:0,1,120.000004577637,2|2,1:3|1:3,1:0:0:0:
384,247,42637,2,0,L|351:115,1,120.000004577637,2|0,1:3|0:0,1:0:0:0:
414,364,42884,2,0,L|381:232,1,120.000004577637,8|8,1:0|1:0,0:0:0:0:
384,247,43379,6,0,B|274:211|300:315|142:269,1,215.999993408203,12|0,1:0|2:0,1:0:0:0:
166,255,43708,2,0,P|244:223|284:253,1,95.9999970703126,2|0,1:2|1:0,1:0:0:0:
57,230,43956,2,0,P|135:262|175:232,1,95.9999970703126,2|0,0:2|0:0,0:0:0:0:
80,128,44203,2,0,P|46:176|46:219,1,95.9999970703126,2|0,1:2|1:0,1:0:0:0:
177,139,44533,5,0,1:0:0:0:
177,139,44697,2,0,P|177:80|175:16,1,95.9999970703126,8|0,1:0|1:0,0:0:0:0:
261,216,45027,2,0,P|290:161|284:118,1,95.9999970703126,2|0,1:2|1:0,0:0:0:0:
311,126,45274,2,0,P|312:174|338:214,1,95.9999970703126,2|0,0:2|0:0,0:0:0:0:
502,167,45522,2,0,P|444:147|357:236,1,191.999994140625,2|0,1:2|1:0,1:0:0:0:
433,288,46016,5,8,1:0:0:0:
419,58,46181,1,0,1:0:0:0:
201,189,46346,1,8,1:0:0:0:
288,249,46511,5,0,1:0:0:0:
243,47,46675,1,8,1:0:0:0:
23,88,46840,1,0,1:0:0:0:
68,290,47005,1,4,1:0:0:0:
153,204,47170,5,0,1:0:0:0:
47,168,47335,1,8,1:0:0:0:
68,290,47500,1,2,1:3:0:0:
68,290,47582,1,2,1:3:0:0:
68,290,47664,6,0,P|130:288|173:271,1,80,8|8,1:0|1:0,1:0:0:0:
298,360,47829,2,0,P|259:352|220:354,1,80,8|8,1:0|1:0,1:0:0:0:
393,364,47994,2,0,P|419:309|279:304,1,240,8|8,1:2|1:0,1:0:0:0:
300,286,48324,5,4,1:0:0:0:
235,157,48489,2,0,P|137:145|115:143,1,111.999996582031,0|8,1:0|1:2,0:0:0:0:
197,268,48818,5,0,1:0:0:0:
323,181,48983,1,0,1:0:0:0:
197,268,49148,2,0,P|99:280|77:282,1,111.999996582031,0|8,1:0|1:2,0:0:0:0:
297,316,49478,6,0,B|379:291|379:291|482:320,1,167.999994873047,0|0,1:0|0:0,0:0:0:0:
448,337,49807,1,0,1:0:0:0:
307,217,49972,1,8,1:0:0:0:
482,147,50137,1,0,1:0:0:0:
424,210,50302,5,0,1:0:0:0:
225,159,50467,2,0,L|209:29,1,111.999996582031,0|8,1:0|1:0,0:0:0:0:
53,231,50796,6,0,L|32:371,1,111.999996582031,0|0,1:0|1:0,0:0:0:0:
7,141,51126,1,0,1:0:0:0:
170,216,51291,1,8,1:0:0:0:
36,341,51456,1,0,1:0:0:0:
117,147,51620,5,0,1:0:0:0:
176,337,51785,1,0,1:0:0:0:
358,283,51950,1,8,1:0:0:0:
299,93,52115,1,0,1:0:0:0:
227,215,52280,6,0,P|300:212|383:206,1,111.999996582031,0|0,1:0|0:0,1:0:0:0:
152,268,52609,1,8,1:0:0:0:
224,78,52774,2,0,P|235:97|245:145,1,55.9999982910157,0|0,1:0|0:0,0:0:0:0:
313,294,52939,2,0,P|388:285|421:248,1,111.999996582031,0|0,1:0|1:0,0:0:0:0:
226,214,53269,2,0,P|182:182|127:184,1,111.999996582031,8|8,1:0|1:0,0:0:0:0:
64,238,53516,1,8,1:0:0:0:
64,238,53598,6,0,P|119:152|69:69,1,192,12|0,1:0|0:0,1:0:0:0:
55,75,53928,2,0,P|20:109|91:143,1,143.999995605469,8|2,1:0|0:2,1:0:0:0:
251,99,54258,2,0,P|265:59|218:-13,1,111.999996582031,0|2,1:0|1:2,1:0:0:0:
253,123,54505,2,0,P|325:148|375:126,1,111.999996582031,2|0,0:2|0:0,0:0:0:0:
230,130,54752,2,0,P|199:188|271:333,1,223.999993164063,2|0,1:2|1:0,1:0:0:0:
301,253,55247,5,8,1:0:0:0:
153,351,55412,1,0,1:0:0:0:
301,253,55576,2,0,P|388:249|447:243,1,111.999996582031,0|0,1:0|0:0,1:0:0:0:
414,228,55824,2,0,P|327:224|268:218,1,111.999996582031,2|0,2:0|0:0,0:0:0:0:
294,200,56071,2,0,P|278:105|410:103,1,223.999993164063,0|0,1:0|1:0,0:0:0:0:
382,156,56565,5,8,1:0:0:0:
197,98,56730,1,0,1:0:0:0:
146,289,56895,1,8,1:0:0:0:
331,347,57060,1,0,1:0:0:0:
277,259,57225,5,8,1:0:0:0:
201,364,57390,1,0,1:0:0:0:
201,364,57472,1,0,0:0:0:0:
201,364,57554,5,12,1:0:0:0:
132,166,57719,1,0,1:0:0:0:
341,197,57884,1,8,1:0:0:0:
277,259,58049,1,0,1:0:0:0:
324,72,58214,5,0,1:0:0:0:
349,333,58379,1,8,1:0:0:0:
67,362,58543,2,0,P|46:330|44:290,1,55.9999982910157,8|0,1:0|0:0,0:0:0:0:
42,101,58708,2,0,P|67:150|70:182,1,55.9999982910157,0|8,1:0|1:0,1:0:0:0:
50,228,58873,1,12,1:0:0:0:
264,45,59038,5,0,1:0:0:0:
324,110,59203,1,8,1:0:0:0:
237,130,59368,1,0,1:0:0:0:
504,381,59533,5,8,1:0:0:0:
