osu file format v14

[General]
AudioFilename: audio.mp3
AudioLeadIn: 0
PreviewTime: 37588
Countdown: 0
SampleSet: Normal
StackLeniency: 0.4
Mode: 0
LetterboxInBreaks: 0
WidescreenStoryboard: 1

[Editor]
Bookmarks: 522
DistanceSpacing: 0.4
BeatDivisor: 4
GridSize: 4
TimelineZoom: 2.699999

[Metadata]
Title:Telecaster B-boy
TitleUnicode:テレキャスタービーボーイ
Artist:Three feat. Kagamine Len
ArtistUnicode:すりぃ feat.鏡音レン
Creator:Ryuusei Aika
Version:Little's Extra
Source:
Tags:パラドックス Paradox 3 Surii VOCALOID ボーカロイド Japanese Male vocal rock j-rock jrock pop j-pop jpop pappl e 104 pappl_e_104 papple papple104 Sodarose Noffy gary00737 _lai Remapper [Hatsune Miku] Crystal Momochikun Nao Tomori Nao_Tomori Naotoshi Nevo DTM9 Nowa DTM9_Nowa Tokiko Koiyuki Minakami Yuki Minakami_Yuki Taeyang CoLouRed GlazeE CoLouRed_GlazeE Irohas MugiwaraSekai Lasse Riana Doormat Acyl Acylica Little CloudSplash16 AirinCat Hanazawa Kana Hanazawa_Kana Reillia Curi C_u_r_i [C_u_r_i]
BeatmapID:2041581
BeatmapSetID:972025

[Difficulty]
HPDrainRate:5
CircleSize:4
OverallDifficulty:8.5
ApproachRate:9.1
SliderMultiplier:2
SliderTickRate:1

[Events]
//Background and Video events
0,0,"boy.jpg",0,0
Video,140,"boy.mp4"
//Break Periods
//Storyboard Layer 0 (Background)
//Storyboard Layer 1 (Fail)
//Storyboard Layer 2 (Pass)
//Storyboard Layer 3 (Foreground)
//Storyboard Layer 4 (Overlay)
//Storyboard Sound Samples

[TimingPoints]
-467,329.67032967033,4,1,1,45,1,0
851,329.67032967033,4,1,1,60,1,0
851,-83.3333333333333,4,1,1,60,0,0
1098,-83.3333333333333,4,1,1,5,0,0
1180,-83.3333333333333,4,1,1,60,0,0
2170,-76.9230769230769,4,1,1,60,0,0
2416,-76.9230769230769,4,1,1,5,0,0
2499,-76.9230769230769,4,1,1,60,0,0
3489,-71.4285714285714,4,1,1,60,0,0
3736,-71.4285714285714,4,1,1,5,0,0
3818,-71.4285714285714,4,1,1,60,0,0
4807,-83.3333333333333,4,1,1,60,0,0
5054,-83.3333333333333,4,1,1,5,0,0
5136,-83.3333333333333,4,1,1,60,0,0
6372,-83.3333333333333,4,1,1,5,0,0
6454,-83.3333333333333,4,1,1,60,0,0
7445,-76.9230769230769,4,1,1,60,0,0
7691,-76.9230769230769,4,1,1,5,0,0
7774,-76.9230769230769,4,1,1,60,0,0
8763,-71.4285714285714,4,1,1,60,0,0
9010,-71.4285714285714,4,1,1,5,0,0
9093,-71.4285714285714,4,1,1,60,0,0
10082,-83.3333333333333,4,1,1,60,0,0
10329,-83.3333333333333,4,1,1,5,0,0
10411,-83.3333333333333,4,1,1,60,0,0
11401,-125,4,1,1,45,0,0
15357,-83.3333333333333,4,1,1,45,0,0
16675,-125,4,1,1,45,0,0
20796,-71.4285714285714,4,1,1,45,0,0
20961,-35.7142857142857,4,1,1,45,0,0
21456,-41.6666666666667,4,1,1,45,0,0
21620,-41.6666666666667,4,1,1,60,0,0
21702,-41.6666666666667,4,1,1,45,0,0
21785,-41.6666666666667,4,1,1,60,0,0
21868,-41.6666666666667,4,1,1,45,0,0
21950,-111.111111111111,4,1,1,60,0,0
23269,-71.4285714285714,4,1,1,60,0,0
24587,-111.111111111111,4,1,1,60,0,0
25906,-83.3333333333333,4,1,1,60,0,0
27225,-111.111111111111,4,1,1,60,0,0
28543,-71.4285714285714,4,1,1,60,0,0
29862,-100,4,1,1,60,0,0
30109,-100,4,1,1,5,0,0
30192,-100,4,1,1,60,0,0
30439,-100,4,1,1,5,0,0
30522,-100,4,1,1,60,0,0
31181,-76.9230769230769,4,1,1,60,0,0
32500,-125,4,1,1,45,0,0
33818,-100,4,1,1,45,0,0
34148,-125,4,1,1,45,0,0
37774,-62.5,4,1,1,75,0,1
38434,-83.3333333333333,4,1,1,75,0,1
41730,-62.5,4,1,1,75,0,1
41894,-62.5,4,1,1,5,0,1
41978,-62.5,4,1,1,75,0,1
42390,-66.6666666666667,4,1,1,75,0,1
43049,-500,4,1,1,75,0,1
43296,-500,4,1,1,5,0,1
43379,-55.5555555555556,4,1,1,75,0,1
43626,-55.5555555555556,4,1,1,5,0,1
43708,-83.3333333333333,4,1,1,75,0,1
47005,-50,4,1,1,75,0,1
49478,-71.4285714285714,4,1,1,75,0,1
53598,-125,4,1,1,75,0,1
53928,-55.5555555555556,4,1,1,75,0,1
54257,-71.4285714285714,4,1,1,75,0,1
59532,-71.4285714285714,4,1,1,75,0,0

[Colours]
Combo1 : 248,216,105
Combo2 : 90,197,154
Combo3 : 179,112,51
Combo4 : 249,104,17

[HitObjects]
57,206,522,6,0,B|30:163|49:113|49:113|16:173,1,150,0|0,1:0|2:0,1:0:0:0:
136,153,851,6,0,L|315:141,1,179.999994506836,4|0,1:2|2:0,1:0:0:0:
315,141,1181,1,8,1:2:0:0:
136,153,1346,1,0,1:0:0:0:
136,153,1675,6,0,L|76:156,1,59.9999981689454,0|0,1:0|1:0,1:0:0:0:
255,144,1840,2,0,L|315:141,1,59.9999981689454,8|0,1:2|1:0,1:0:0:0:
136,153,2005,2,0,L|76:156,1,59.9999981689454,0|0,1:0|1:0,1:0:0:0:
183,230,2170,6,0,P|225:146|173:70,1,194.999991073609,0|0,1:0|1:0,1:0:0:0:
173,70,2500,1,8,1:2:0:0:
183,230,2664,1,0,1:0:0:0:
183,230,2994,5,8,1:0:0:0:
183,230,3076,1,0,1:0:0:0:
183,230,3159,2,0,P|213:240|239:259,1,64.9999970245363,8|0,1:2|1:0,1:0:0:0:
173,70,3324,2,0,P|202:55|225:33,1,64.9999970245363,0|0,1:0|1:0,1:0:0:0:
461,155,3489,6,0,B|356:177|359:121|255:144,1,209.999993591309,0|0,1:0|2:0,1:0:0:0:
255,143,3818,1,8,1:2:0:0:
461,155,3983,1,0,1:0:0:0:
461,155,4313,6,0,B|465:118|449:119|454:83,1,69.9999978637696,0|0,1:0|1:0,1:0:0:0:
255,143,4478,2,0,B|254:108|270:112|269:75,1,69.9999978637696,8|0,1:2|1:0,1:0:0:0:
461,155,4642,2,0,B|465:118|449:119|454:83,1,69.9999978637696,0|0,1:0|1:0,1:0:0:0:
356,188,4807,6,0,B|358:260|358:260|343:292|343:292|346:364,1,179.999994506836,0|0,1:0|1:0,1:0:0:0:
346,364,5137,1,8,1:2:0:0:
356,188,5302,1,0,1:0:0:0:
356,188,5631,5,0,1:0:0:0:
356,188,5714,1,0,1:0:0:0:
356,188,5796,2,0,L|352:128,1,59.9999981689454,8|0,1:0|1:0,1:0:0:0:
84,252,5961,1,0,1:0:0:0:
84,252,6043,1,0,1:0:0:0:
84,252,6125,6,0,B|147:260|147:260|169:276|169:276|194:267|194:267|256:276,1,179.999994506836,4|0,1:2|1:0,1:0:0:0:
256,276,6456,1,8,1:2:0:0:
84,252,6620,1,0,1:0:0:0:
84,252,6950,6,0,L|75:192,1,59.9999981689454,0|0,1:0|1:0,1:0:0:0:
256,276,7115,2,0,L|280:221,1,59.9999981689454,8|0,1:2|1:0,1:0:0:0:
84,252,7280,2,0,L|75:192,1,59.9999981689454,0|0,1:0|1:0,1:0:0:0:
296,72,7445,6,0,P|218:125|129:95,1,194.999991073609,0|0,1:0|1:0,1:0:0:0:
129,95,7774,1,8,1:2:0:0:
296,72,7939,1,0,1:0:0:0:
296,72,8269,5,0,1:0:0:0:
296,72,8351,1,0,1:0:0:0:
296,72,8434,2,0,P|319:92|336:120,1,64.9999970245363,8|0,1:2|1:0,1:0:0:0:
129,95,8598,2,0,P|111:121|103:152,1,64.9999970245363,0|0,1:0|1:0,1:0:0:0:
254,346,8763,6,0,B|255:293|233:252|233:252|249:249|249:249|227:208|228:156,1,209.999993591309,0|0,1:0|2:0,1:0:0:0:
228,156,9093,1,8,1:2:0:0:
254,346,9258,1,0,1:0:0:0:
254,346,9587,6,0,B|256:308|240:310|244:274,1,69.9999978637696,0|0,1:0|1:0,1:0:0:0:
228,156,9752,2,0,B|230:118|214:120|218:84,1,69.9999978637696,8|0,1:2|1:0,1:0:0:0:
254,346,9917,2,0,B|256:308|240:310|244:277,1,69.9999978637696,0|0,1:0|1:0,1:0:0:0:
510,228,10082,6,0,B|467:214|467:214|422:220|422:220|380:202|380:202|336:204,1,179.999994506836,0|0,1:0|1:0,1:0:0:0:
337,204,10412,1,8,3:2:0:0:
510,228,10576,1,0,1:0:0:0:
300,122,10741,5,0,1:0:0:0:
266,149,10824,1,0,1:0:0:0:
248,190,10906,1,0,1:0:0:0:
254,234,10989,1,0,1:0:0:0:
279,271,11071,2,0,P|291:298|294:327,1,59.9999981689454,8|0,1:0|1:0,1:0:0:0:
128,372,11236,2,0,P|115:344|112:315,1,59.9999981689454,0|0,1:0|1:0,1:0:0:0:
216,188,11401,6,0,P|140:207|77:163,1,160,4|8,1:2|1:0,1:0:0:0:
216,188,11895,1,0,1:0:0:0:
216,188,12060,2,0,P|180:205|140:207,1,80,0|0,1:0|1:0,1:0:0:0:
98,36,12390,2,0,P|133:18|173:16,1,80,8|0,1:0|1:0,1:0:0:0:
368,176,12719,5,0,1:0:0:0:
368,176,12884,2,0,L|379:96,1,80,0|8,2:0|1:0,2:0:0:0:
368,176,13214,2,0,L|390:17,1,160,0|0,1:0|1:0,1:0:0:0:
216,188,13708,1,8,1:0:0:0:
216,188,13873,1,0,1:0:0:0:
325,347,14038,6,0,P|401:366|464:322,1,160,0|8,1:0|1:0,1:0:0:0:
325,347,14533,1,0,1:0:0:0:
325,347,14697,2,0,P|361:364|401:366,1,80,0|0,2:0|1:0,2:0:0:0:
443,195,15027,2,0,P|408:177|368:175,1,80,8|0,1:0|1:0,2:0:0:0:
144,236,15357,6,0,B|182:250|182:250|260:239,1,119.999996337891,0|2,1:0|1:2,1:0:0:0:
261,238,15604,2,0,B|221:223|221:223|143:236,1,119.999996337891,0|0,1:0|1:0,1:0:0:0:
12,310,15851,1,0,1:0:0:0:
12,310,16181,1,0,1:0:0:0:
56,234,16263,1,0,1:0:0:0:
12,157,16346,1,8,1:0:0:0:
78,42,16511,1,0,1:0:0:0:
267,122,16675,6,0,P|203:167|128:147,1,160,0|8,1:0|1:0,1:0:0:0:
187,74,17170,1,0,1:0:0:0:
220,260,17335,1,0,1:0:0:0:
42,195,17500,1,0,1:0:0:0:
187,74,17664,1,8,1:0:0:0:
220,260,17829,1,0,1:0:0:0:
42,195,17994,6,0,P|105:150|181:169,1,160,0|8,1:0|1:0,1:0:0:0:
122,243,18489,1,0,1:0:0:0:
89,57,18653,1,0,1:0:0:0:
267,122,18818,1,0,1:0:0:0:
122,243,18983,1,8,1:0:0:0:
89,57,19148,1,0,1:0:0:0:
244,240,19313,6,0,L|232:319,1,80,0|0,1:0|1:0,1:0:0:0:
77,136,19642,2,0,L|89:57,1,80,8|0,1:0|1:0,1:0:0:0:
244,240,19972,2,0,L|232:319,1,80,0|0,1:0|1:0,1:0:0:0:
77,136,20302,1,8,1:0:0:0:
77,136,20467,1,0,1:0:0:0:
248,76,20631,5,0,1:0:0:0:
248,76,20796,2,0,P|281:89|316:89,1,69.9999978637696,0|0,1:0|1:0,1:0:0:0:
444,100,20961,2,0,B|437:67|437:67|409:115|406:168,1,139.999995727539,8|0,1:0|1:0,1:0:0:0:
392,312,21126,1,0,1:0:0:0:
392,312,21456,6,0,B|451:303|451:303|404:265,1,119.999996337891,0|0,1:0|1:0,1:0:0:0:
275,297,21620,2,0,B|253:352|253:352|308:330,1,119.999996337891,8|0,1:2|2:0,1:0:0:0:
320,195,21785,1,0,1:0:0:0:
320,195,21868,1,0,1:0:0:0:
320,195,21950,6,0,P|314:151|304:107,1,89.9999972534181,4|0,1:2|1:0,1:0:0:0:
148,52,22280,1,8,1:0:0:0:
231,284,22445,2,0,P|177:243|117:214,1,134.999995880127,0|0,1:0|1:0,1:0:0:0:
117,214,22774,1,0,1:0:0:0:
324,228,22939,2,0,P|366:214|408:197,1,89.9999972534181,8|0,1:0|1:0,1:0:0:0:
240,44,23269,6,0,L|230:113,1,69.9999978637696,0|0,1:0|1:0,1:0:0:0:
165,139,23434,2,0,L|230:113,1,69.9999978637696,8|0,1:2|1:0,1:0:0:0:
285,157,23598,2,0,L|229:113,1,69.9999978637696,0|0,1:0|1:0,1:0:0:0:
230,113,23763,1,8,1:2:0:0:
230,113,24093,1,0,1:0:0:0:
230,113,24175,1,2,3:2:0:0:
230,113,24258,2,0,L|210:251,1,139.999995727539,8|0,1:0|1:0,2:0:0:0:
48,332,24587,6,0,P|30:290|3:254,1,89.9999972534181,0|0,1:0|1:0,1:0:0:0:
230,113,24917,1,8,1:0:0:0:
230,113,25082,2,0,P|247:71|274:35,1,89.9999972534181,0|0,1:0|1:0,1:0:0:0:
28,96,25412,1,0,1:0:0:0:
209,251,25576,2,0,L|298:238,1,89.9999972534181,8|0,1:0|1:0,1:0:0:0:
142,206,25906,6,0,P|128:263|157:314,1,119.999996337891,0|0,1:0|1:0,1:0:0:0:
157,314,26153,1,2,2:0:0:0:
157,314,26236,1,8,1:0:0:0:
396,184,26401,1,0,1:0:0:0:
396,184,26730,1,0,1:0:0:0:
396,184,26813,1,0,1:0:0:0:
396,184,26895,2,0,L|337:168,1,59.9999981689454,8|0,1:0|1:0,1:0:0:0:
216,136,27060,1,0,1:0:0:0:
216,136,27142,1,0,1:0:0:0:
216,136,27225,6,0,L|203:46,1,89.9999972534181,0|0,1:0|1:0,1:0:0:0:
140,236,27554,1,8,1:0:0:0:
80,20,27719,2,0,L|45:150,1,134.999995880127,0|0,1:0|1:0,1:0:0:0:
45,150,28049,1,0,1:0:0:0:
260,248,28214,2,0,P|301:231|344:216,1,89.9999972534181,8|0,1:0|1:0,1:0:0:0:
142,83,28543,6,0,P|122:110|113:144,1,69.9999978637696,0|0,1:0|1:0,1:0:0:0:
151,201,28708,2,0,P|136:168|112:144,1,69.9999978637696,8|0,1:2|1:0,1:0:0:0:
45,150,28873,2,0,P|79:153|112:144,1,69.9999978637696,0|0,1:0|1:0,1:0:0:0:
113,144,29038,1,8,1:2:0:0:
113,144,29368,1,0,1:0:0:0:
113,144,29450,1,0,1:0:0:0:
112,144,29533,2,0,P|61:188|52:256,1,139.999995727539,8|0,1:0|1:0,1:0:0:0:
192,360,29862,6,0,B|255:368|255:368|276:359|276:359|338:368,1,150,0|0,1:0|2:0,1:0:0:0:
388,248,30192,2,0,B|325:256|325:256|304:247|304:247|241:256,1,150,8|0,1:0|2:0,1:0:0:0:
192,136,30522,2,0,B|254:144|254:144|275:135|275:135|338:144,1,150,0|0,1:0|1:0,1:0:0:0:
388,248,30851,1,8,1:0:0:0:
192,360,31016,1,0,1:0:0:0:
50,245,31181,6,0,B|131:256|131:256|159:244|159:244|241:256,1,194.999991073609,0|0,1:0|1:0,1:0:0:0:
241,256,31511,1,8,1:0:0:0:
50,245,31675,1,0,1:0:0:0:
50,245,32005,1,0,1:0:0:0:
50,245,32087,1,0,1:0:0:0:
50,245,32170,2,0,B|23:204|23:204|11:285,1,129.999994049073,8|0,1:0|1:0,1:0:0:0:
188,352,32500,6,0,P|212:320|221:281,1,80,4|0,1:2|1:0,1:0:0:0:
271,199,32829,2,0,P|300:227|316:264,1,80,0|0,1:0|1:0,1:0:0:0:
303,109,33159,2,0,P|263:103|225:115,1,80,0|0,1:0|1:0,1:0:0:0:
128,112,33489,2,0,P|137:73|162:42,1,80,0|0,1:0|1:0,1:0:0:0:
180,253,33818,6,0,P|117:218|50:245,1,150,0|0,1:0|1:0,1:0:0:0:
32,272,34148,2,0,L|20:351,1,80,0|0,1:0|1:0,1:0:0:0:
180,253,34478,1,0,1:0:0:0:
0,156,34642,1,0,1:0:0:0:
128,112,34807,1,0,1:0:0:0:
128,112,34972,6,0,B|158:132|158:132|224:148|269:95,1,160,0|0,1:0|1:0,1:0:0:0:
28,24,35467,1,0,1:0:0:0:
28,24,35631,1,0,1:0:0:0:
0,156,35796,2,0,L|11:235,1,80,0|0,1:0|1:0,1:0:0:0:
128,112,36126,1,0,1:0:0:0:
0,156,36291,1,0,1:0:0:0:
192,252,36456,5,0,1:0:0:0:
224,268,36620,1,0,1:0:0:0:
0,156,36950,1,0,1:0:0:0:
0,156,37774,6,0,B|54:147|54:147|52:160|52:160|108:137|171:158|204:208,1,240,4|0,1:0|1:0,1:0:0:0:
92,320,38104,2,0,P|59:258|127:243,1,160,8|0,1:0|1:0,1:0:0:0:
204,304,38351,1,0,1:0:0:0:
224,312,38434,2,0,B|260:324|260:324|340:306,1,119.999996337891,0|2,1:0|1:2,1:0:0:0:
384,216,38681,2,0,B|348:204|348:204|267:221,1,119.999996337891,2|0,1:2|1:0,1:0:0:0:
224,312,38928,1,2,1:2:0:0:
488,292,39093,6,0,L|504:173,1,119.999996337891,0|0,1:0|1:0,1:0:0:0:
92,320,39423,1,8,1:0:0:0:
384,216,39587,1,0,1:0:0:0:
144,80,39752,2,0,P|116:131|128:189,1,119.999996337891,2|0,1:2|1:0,1:0:0:0:
240,203,40000,2,0,P|267:151|255:93,1,119.999996337891,2|0,2:0|1:0,1:0:0:0:
128,189,40247,1,0,1:0:0:0:
364,340,40411,6,0,P|420:319|478:305,1,119.999996337891,0|0,1:0|1:0,2:0:0:0:
128,189,40741,2,0,P|71:168|13:154,1,119.999996337891,8|0,1:0|1:0,1:0:0:0:
13,154,40989,1,0,1:0:0:0:
13,154,41071,2,0,P|71:140|127:119,1,119.999996337891,0|0,1:0|1:0,2:0:0:0:
478,305,41401,2,0,P|419:291|363:270,1,119.999996337891,8|0,1:0|1:0,2:0:0:0:
232,84,41730,6,0,B|222:151|222:151|231:176|231:176|222:240,1,160,2|0,1:2|2:0,1:0:0:0:
363,359,41978,2,0,B|372:294|372:294|363:269|363:269|372:202,1,160,2|0,1:2|1:0,1:0:0:0:
140,292,42225,1,2,1:2:0:0:
140,292,42307,1,0,1:0:0:0:
140,292,42390,2,0,P|200:333|272:320,1,150.000005722046,2|2,1:3|1:3,1:0:0:0:
455,151,42637,2,0,P|394:109|322:122,1,150.000005722046,2|0,1:3|1:0,1:0:0:0:
140,292,42884,1,0,3:0:0:0:
4,124,43049,6,0,L|8:94,1,30,8|0,1:0|2:0,1:0:0:0:
96,44,43379,6,0,P|44:114|61:199,1,179.999994506836,12|0,1:0|1:0,1:0:0:0:
236,256,43626,1,0,2:0:0:0:
264,240,43708,2,0,B|281:198|281:198|280:185|272:174|259:169|259:169|247:165|233:169|225:179,1,120,2|0,1:2|1:0,1:0:0:0:
132,268,43956,2,0,B|115:310|115:310|116:323|124:334|137:339|137:339|149:343|163:339|171:329,1,120,2|0,1:2|1:0,1:0:0:0:
226,178,44203,1,2,1:2:0:0:
4,124,44368,6,0,L|122:107,1,119.999996337891,0|0,1:0|1:0,1:0:0:0:
280,356,44697,1,8,1:0:0:0:
16,284,44862,1,0,1:0:0:0:
296,216,45027,2,0,B|348:247|348:247|293:269,1,119.999996337891,2|0,1:2|1:0,1:0:0:0:
161,261,45274,2,0,B|108:229|108:229|163:207,1,119.999996337891,2|0,1:2|1:0,1:0:0:0:
293,269,45522,1,2,1:2:0:0:
16,284,45686,6,0,P|0:226|18:170,1,119.999996337891,4|0,1:0|1:0,1:0:0:0:
441,193,46016,2,0,P|456:250|438:306,1,119.999996337891,8|0,1:0|1:0,1:0:0:0:
438,306,46263,1,0,1:0:0:0:
438,306,46346,2,0,P|381:324|328:352,1,119.999996337891,8|0,1:0|1:0,1:0:0:0:
16,284,46675,2,0,P|72:304|124:334,1,119.999996337891,8|0,1:0|1:0,1:0:0:0:
262,78,47005,6,0,B|256:161|256:161|237:189|237:189|232:272,2,200,4|0|8,1:0|1:0|1:0,1:0:0:0:
438,306,47500,1,2,1:3:0:0:
438,306,47582,1,2,1:3:0:0:
438,306,47664,1,8,1:0:0:0:
395,331,47747,1,8,1:0:0:0:
346,334,47829,1,8,1:0:0:0:
300,314,47912,1,8,1:0:0:0:
269,275,47994,1,8,1:2:0:0:
211,230,48076,1,8,1:0:0:0:
139,240,48159,1,8,1:0:0:0:
94,298,48241,1,8,1:0:0:0:
104,370,48324,5,4,1:0:0:0:
269,275,48489,1,0,1:0:0:0:
104,179,48653,1,8,1:2:0:0:
214,370,48818,1,0,1:0:0:0:
215,179,48983,1,0,1:0:0:0:
48,275,49148,1,0,1:0:0:0:
269,275,49313,1,8,1:2:0:0:
161,67,49478,6,0,B|153:118|153:118|134:143|134:143|127:187|127:187|139:221|139:221|122:340,1,279.999991455078,0|0,1:0|1:0,1:0:0:0:
3,225,49972,1,8,1:0:0:0:
215,179,50137,1,0,1:0:0:0:
14,97,50302,1,0,1:0:0:0:
215,179,50467,1,2,1:2:0:0:
3,225,50631,1,8,1:0:0:0:
204,307,50796,6,0,B|260:307|308:272|308:272|363:264|363:264|419:284|473:269,1,279.999991455078,0|0,1:0|1:0,2:0:0:0:
224,148,51291,1,8,1:0:0:0:
352,376,51456,1,0,1:0:0:0:
414,123,51620,1,0,1:0:0:0:
204,307,51785,1,0,1:0:0:0:
473,269,51950,1,8,1:0:0:0:
305,55,52115,1,0,1:0:0:0:
352,376,52280,6,0,B|362:305|322:311|332:239,1,139.999995727539,0|0,1:0|1:0,2:0:0:0:
384,140,52527,1,0,1:0:0:0:
414,123,52609,1,8,1:0:0:0:
224,208,52774,2,0,P|190:196|156:192,1,69.9999978637696,0|0,1:0|1:0,1:0:0:0:
12,124,52939,2,0,P|46:119|79:108,1,69.9999978637696,10|0,1:2|1:0,2:0:0:0:
197,14,53104,2,0,L|188:84,1,69.9999978637696,0|0,1:0|1:0,1:0:0:0:
64,212,53269,2,0,L|54:281,1,69.9999978637696,8|0,1:0|1:0,1:0:0:0:
333,232,53434,1,8,1:0:0:0:
333,232,53516,1,8,1:0:0:0:
333,232,53598,6,0,P|282:201|223:207,1,120,12|0,1:0|1:0,1:0:0:0:
224,206,53928,2,0,B|314:217|307:169|399:180,1,179.999994506836,8|0,1:0|1:0,1:0:0:0:
464,80,54175,1,0,3:0:0:0:
453,49,54257,2,0,P|446:105|494:75,1,139.999995727539,0|2,1:0|1:2,1:0:0:0:
294,162,54505,2,0,P|288:106|336:136,1,139.999995727539,0|0,1:0|1:0,1:0:0:0:
432,288,54752,1,2,1:2:0:0:
196,220,54917,6,0,L|176:358,1,139.999995727539,0|0,1:0|1:0,1:0:0:0:
336,136,55247,1,8,1:0:0:0:
60,192,55412,1,0,1:0:0:0:
304,312,55576,2,0,B|376:306|376:306|355:329|355:329|354:365,1,139.999995727539,0|0,1:0|1:0,1:0:0:0:
157,378,55824,2,0,B|84:383|84:383|105:360|105:360|106:324,1,139.999995727539,0|0,1:0|1:0,1:0:0:0:
304,312,56071,1,0,1:0:0:0:
107,324,56236,5,8,1:0:0:0:
34,140,56401,1,0,1:0:0:0:
186,13,56565,1,8,1:0:0:0:
352,118,56730,1,0,1:0:0:0:
107,324,56895,1,8,1:0:0:0:
186,13,57060,1,0,1:0:0:0:
304,312,57225,1,8,1:0:0:0:
34,140,57390,1,0,1:0:0:0:
352,118,57554,5,12,1:0:0:0:
107,324,57719,1,0,1:0:0:0:
62,312,57802,1,0,1:0:0:0:
19,300,57884,1,8,1:0:0:0:
34,140,58049,1,0,1:0:0:0:
77,152,58131,1,0,1:0:0:0:
122,164,58214,1,0,1:0:0:0:
304,312,58379,1,8,1:0:0:0:
186,13,58543,1,8,1:0:0:0:
107,324,58708,1,0,1:0:0:0:
107,324,58790,1,8,1:0:0:0:
107,324,58873,5,12,1:0:0:0:
416,96,59038,1,0,1:0:0:0:
34,140,59203,1,8,1:0:0:0:
332,240,59368,1,0,1:0:0:0:
107,324,59533,1,8,1:0:0:0:
