osu file format v14

[General]
AudioFilename: audio.mp3
AudioLeadIn: 0
PreviewTime: 37588
Countdown: 0
SampleSet: Normal
StackLeniency: 0.7
Mode: 0
LetterboxInBreaks: 0
WidescreenStoryboard: 1

[Editor]
DistanceSpacing: 0.4
BeatDivisor: 4
GridSize: 32
TimelineZoom: 3.299999

[Metadata]
Title:Telecaster B-boy
TitleUnicode:テレキャスタービーボーイ
Artist:Three feat. Kagamine Len
ArtistUnicode:すりぃ feat.鏡音レン
Creator:Ryuusei Aika
Version:Lasse's Expert
Source:
Tags:パラドックス Paradox 3 Surii VOCALOID ボーカロイド Japanese Male vocal rock j-rock jrock pop j-pop jpop pappl e 104 pappl_e_104 papple papple104 Sodarose Noffy gary00737 _lai Remapper [Hatsune Miku] Crystal Momochikun Nao Tomori Nao_Tomori Naotoshi Nevo DTM9 Nowa DTM9_Nowa Tokiko Koiyuki Minakami Yuki Minakami_Yuki Taeyang CoLouRed GlazeE CoLouRed_GlazeE Irohas MugiwaraSekai Lasse Riana Doormat Acyl Acylica Little CloudSplash16 AirinCat Hanazawa Kana Hanazawa_Kana Reillia Curi C_u_r_i [C_u_r_i]
BeatmapID:2038267
BeatmapSetID:972025

[Difficulty]
HPDrainRate:6
CircleSize:4
OverallDifficulty:8.6
ApproachRate:9.2
SliderMultiplier:2.4
SliderTickRate:1

[Events]
//Background and Video events
Video,140,"boy.mp4"
0,0,"boy.jpg",0,0
//Break Periods
//Storyboard Layer 0 (Background)
//Storyboard Layer 1 (Fail)
//Storyboard Layer 2 (Pass)
//Storyboard Layer 3 (Foreground)
//Storyboard Layer 4 (Overlay)
//Storyboard Sound Samples

[TimingPoints]
-467,329.67032967033,4,1,1,45,1,0
520,-333.333333333334,4,1,1,45,0,0
767,-200,4,2,1,5,0,0
850,-100,4,1,1,60,0,0
851,329.67032967033,4,1,1,60,1,0
11399,-133.333333333333,4,2,1,45,0,0
16674,-121.951219512195,4,2,1,45,0,0
19311,-121.951219512195,4,2,1,45,0,0
21454,-83.3333333333333,4,2,1,45,0,0
21619,-71.4285714285714,4,1,1,60,0,0
21784,-100,4,1,1,60,0,0
21949,-111.111111111111,4,1,1,60,0,0
32498,-133.333333333333,4,2,1,45,0,0
36289,-100,4,2,1,45,0,0
37774,-66.6666666666667,4,1,1,75,0,1
41729,-57.1428571428571,4,1,1,75,0,1
43048,-200,4,1,1,50,0,1
43295,-200,4,2,1,5,0,1
43377,-66.6666666666667,4,1,1,75,0,1
47004,-52.6315789473684,4,1,1,75,0,1
47498,-57.1428571428571,4,1,1,75,0,1
48322,-62.5,4,1,1,75,0,1
49641,-62.5,4,1,1,75,0,1
52278,-52.6315789473684,4,1,1,75,0,1
52773,-62.5,4,1,1,75,0,1
53597,-58.8235294117647,4,1,1,75,0,1
59532,-62.5,4,1,1,75,0,0

[Colours]
Combo1 : 250,190,230
Combo2 : 130,200,230
Combo3 : 255,230,140
Combo4 : 170,245,170

[HitObjects]
0,160,522,6,0,P|20:142|60:138,1,53.9999983520508,2|0,0:0|0:0,0:0:0:0:
0,160,851,6,0,B|20:144|49:141|49:141|66:160|84:166|84:166|127:153|165:167,1,180,6|0,1:1|0:0,0:0:0:0:
229,216,1181,1,8,0:0:0:0:
354,76,1346,2,0,P|292:71|276:19,1,120,2|0,0:1|0:0,0:0:0:0:
404,0,1675,1,2,0:1:0:0:
484,154,1840,1,8,0:0:0:0:
512,50,2005,1,0,0:0:0:0:
452,256,2170,2,0,P|443:197|412:145,1,120,2|0,0:1|0:0,0:0:0:0:
338,171,2417,1,0,0:0:0:0:
342,189,2500,1,8,0:0:0:0:
138,102,2664,2,0,P|196:107|210:49,1,120,2|0,0:1|0:0,0:0:0:0:
91,0,2994,2,0,P|82:33|60:62,1,60
0,92,3159,1,10,0:0:0:0:
117,179,3324,1,0,0:1:0:0:
0,293,3489,6,0,P|1:219|98:159,1,180,2|0,0:1|0:0,0:0:0:0:
158,145,3818,1,8,0:0:0:0:
220,341,3983,2,0,P|237:284|168:285,1,120,2|0,0:1|0:0,0:0:0:0:
65,345,4313,1,2,0:1:0:0:
194,309,4478,1,8,0:0:0:0:
41,338,4642,1,0,0:0:0:0:
271,373,4807,2,0,B|309:348|305:284|258:249|304:164,1,180,2|0,0:1|0:0,0:0:0:0:
350,154,5137,1,8,0:0:0:0:
481,327,5302,2,0,P|481:271|417:277,1,120,2|0,0:1|0:0,0:0:0:0:
271,373,5631,2,0,L|348:364,1,60
403,338,5796,1,10,0:1:0:0:
288,201,5961,1,0,1:0:0:0:
269,235,6043,1,0,1:0:0:0:
216,247,6126,6,0,P|217:186|141:91,1,180,6|0,1:1|0:0,0:0:0:0:
68,66,6456,1,8,0:0:0:0:
295,71,6620,2,0,P|241:55|241:0,1,120,2|0,0:1|0:0,0:0:0:0:
409,31,6950,1,2,0:1:0:0:
349,160,7115,1,8,0:0:0:0:
507,115,7280,1,0,0:0:0:0:
472,273,7445,2,0,P|481:229|426:166,1,120,2|0,0:1|0:0,0:0:0:0:
352,186,7692,1,0,0:0:0:0:
350,211,7774,1,8,0:0:0:0:
225,348,7939,2,0,B|278:337|327:356|327:356|309:333,1,120,2|0,0:1|0:0,0:0:0:0:
212,224,8269,2,0,P|199:248|171:283,1,60
105,306,8434,1,10,0:1:0:0:
20,166,8598,1,0,0:0:0:0:
46,371,8763,6,0,B|81:329|68:280|76:228|117:177,1,180,2|0,0:1|0:0,0:0:0:0:
180,162,9093,1,8,0:0:0:0:
94,0,9258,2,0,P|85:63|2:61,1,120,2|0,0:1|0:0,0:0:0:0:
242,16,9587,1,2,0:1:0:0:
41,27,9752,1,8,0:0:0:0:
223,40,9917,1,0,0:0:0:0:
257,220,10082,2,0,B|217:181|241:121|241:121|277:115|303:70,1,180,2|0,0:1|0:0,0:0:0:0:
296,3,10412,1,8,0:0:0:0:
428,156,10576,2,0,P|376:101|436:73,1,120,2|0,0:1|0:0,0:0:0:0:
452,25,10824,1,0,0:0:0:0:
482,29,10906,1,0,0:0:0:0:
495,53,10989,1,0,0:0:0:0:
488,81,11071,1,8,0:0:0:0:
500,110,11153,1,0,0:0:0:0:
493,139,11236,2,0,L|441:197,1,60,0|0,0:1|0:0,0:0:0:0:
394,245,11401,6,0,P|415:156|505:143,1,180.000006866455,6|8,0:2|0:1,0:1:0:0:
474,321,11895,2,0,P|406:289|297:270,1,180.000006866455,2|0,0:2|0:1,0:1:0:0:
183,324,12390,1,8,0:1:0:0:
270,364,12554,1,0,0:1:0:0:
220,220,12719,1,2,1:0:0:0:
220,220,12884,2,0,P|205:183|220:113,1,90.0000034332277,2|8,0:1|0:1,0:1:0:0:
153,0,13214,2,0,P|128:85|87:174,1,180.000006866455,2|0,0:1|1:1,0:1:0:0:
90,168,13626,1,0,1:1:0:0:
90,168,13708,1,8,1:1:0:0:
5,213,13873,5,2,0:2:0:0:
152,247,14038,1,2,1:2:0:0:
87,289,14203,1,0,0:2:0:0:
40,384,14368,1,8,0:1:0:0:
223,357,14533,2,0,P|140:341|41:284,1,180.000006866455,2|0,0:2|0:1,0:1:0:0:
197,225,15027,1,8,0:1:0:0:
221,328,15192,1,0,0:1:0:0:
284,168,15357,2,0,P|253:189|194:200,1,90.0000034332277,2|0,1:1|0:1,0:1:0:0:
121,185,15604,2,0,P|94:171|67:147,1,45.0000017166138,2|8,0:1|0:1,0:1:0:0:
271,265,15851,2,0,P|323:194|409:178,1,180.000006866455,2|0,0:1|1:1,0:1:0:0:
409,178,16263,1,0,1:1:0:0:
409,178,16346,1,8,1:1:0:0:
512,240,16511,1,2,0:2:0:0:
498,67,16675,5,2,0:2:0:0:
498,67,16840,2,0,P|491:110|531:158,1,98.4000015014649,2|8,0:2|0:1,0:1:0:0:
398,5,17170,2,0,P|370:59|237:123,1,196.80000300293,2|0,0:2|0:1,0:1:0:0:
418,132,17664,1,8,0:1:0:0:
230,114,17829,1,0,0:1:0:0:
337,215,17994,1,2,0:1:0:0:
337,215,18159,2,0,P|273:227|228:256,1,98.4000015014649,2|8,0:1|0:1,0:1:0:0:
387,356,18489,2,0,P|297:329|167:332,1,196.80000300293,2|0,0:1|0:1,0:1:0:0:
272,372,18983,1,8,0:1:0:0:
86,376,19148,5,2,0:2:0:0:
86,376,19313,2,0,P|113:320|119:243,1,98.4000015014649,2|0,0:2|0:1,0:1:0:0:
275,267,19642,2,0,P|254:208|204:149,1,98.4000015014649,10|0,0:1|0:1,0:1:0:0:
331,56,19972,2,2,P|274:29|198:23,1,98.4000015014649,2|0,1:2|2:2,1:2:0:0:
325,136,20302,1,10,0:1:0:0:
219,33,20467,1,2,0:2:0:0:
121,133,20631,1,2,1:1:0:0:
121,133,20796,2,0,P|177:114|225:113,1,98.4000015014649,2|8,0:1|0:1,0:1:0:0:
234,129,21126,1,2,1:1:0:0:
249,144,21456,6,0,P|294:133|331:128,1,71.9999978027344,8|0,1:2|0:1,0:1:0:0:
420,59,21620,2,0,B|361:46|314:62|252:44,1,167.999994873047,10|0,1:1|0:1,0:1:0:0:
450,173,21950,5,6,0:1:0:0:
319,129,22115,1,0,0:0:0:0:
443,196,22280,1,8,0:0:0:0:
313,291,22445,2,0,P|333:213|420:102,1,215.999993408203,2|0,0:0|0:0,0:0:0:0:
280,144,22939,1,10,0:1:0:0:
434,222,23104,1,0,0:0:0:0:
304,327,23269,1,2,0:0:0:0:
304,327,23434,2,0,P|323:305|422:305,1,107.999996704102,10|0,0:2|0:0,0:0:0:0:
230,384,23763,2,0,P|199:304|86:222,1,215.999993408203,10|0,0:2|0:0,0:0:0:0:
98,225,24175,1,0,0:0:0:0:
98,225,24258,1,8,0:0:0:0:
27,286,24423,5,2,0:2:0:0:
104,138,24587,1,2,0:1:0:0:
5,24,24752,1,0,0:0:0:0:
82,151,24917,1,8,0:0:0:0:
203,6,25082,2,0,B|107:13|75:67|-9:76,1,215.999993408203,2|0,0:1|0:0,0:0:0:0:
183,134,25576,1,10,0:0:0:0:
9,99,25741,1,0,0:0:0:0:
58,264,25906,2,0,P|81:200|117:169,1,107.999996704102,2|0,0:1|0:0,0:0:0:0:
183,134,26153,2,0,L|251:139,1,53.9999983520508,2|8,0:1|0:0,0:0:0:0:
339,35,26401,2,0,P|282:25|207:-4,1,107.999996704102,2|0,0:1|0:0,0:0:0:0:
402,93,26730,2,0,P|408:78|442:31,1,53.9999983520508,2|0,0:1|0:0,0:0:0:0:
492,2,26895,1,10,0:1:0:0:
512,167,27060,1,2,0:2:0:0:
447,239,27225,5,6,0:1:0:0:
447,239,27390,2,0,P|390:192|330:173,1,107.999996704102,0|8,0:0|0:0,0:0:0:0:
343,0,27719,2,0,P|278:44|267:195,1,215.999993408203,2|0,0:1|0:0,0:0:0:0:
150,88,28214,1,10,0:1:0:0:
262,200,28379,1,0,0:0:0:0:
146,286,28543,1,2,0:1:0:0:
146,286,28708,2,0,P|150:230|180:169,1,107.999996704102,10|0,0:2|0:0,0:0:0:0:
95,0,29038,2,0,P|99:79|18:209,1,215.999993408203,10|0,0:2|0:0,0:0:0:0:
34,196,29450,1,0,0:0:0:0:
34,196,29533,1,8,0:0:0:0:
115,370,29697,5,2,0:1:0:0:
115,370,29862,2,0,P|65:337|2:325,1,107.999996704102,2|0,0:1|0:0,0:0:0:0:
186,242,30192,2,0,P|173:183|137:130,1,107.999996704102,10|0,0:0|0:0,0:0:0:0:
326,201,30522,2,0,P|359:151|371:88,1,107.999996704102,2|0,0:1|0:0,0:0:0:0:
411,238,30851,1,10,0:0:0:0:
361,78,31016,1,2,0:2:0:0:
512,0,31181,2,0,P|483:41|471:114,1,107.999996704102,2|0,0:1|0:0,0:0:0:0:
483,174,31428,2,0,P|491:207|512:239,1,53.9999983520508,2|8,0:1|0:0,0:0:0:0:
322,56,31675,2,0,P|423:85|482:173,1,215.999993408203,2|0,0:1|0:0,0:0:0:0:
482,173,32087,1,0,0:0:0:0:
482,173,32170,1,8,0:0:0:0:
464,278,32335,1,0,0:0:0:0:
353,384,32500,5,6,0:2:0:0:
286,342,32664,2,2,L|471:371,1,180.000006866455,2|2,0:2|0:2,0:2:0:0:
284,252,33159,1,2,0:2:0:0:
206,236,33324,2,0,L|382:200,1,180.000006866455,2|0,0:2|0:1,0:1:0:0:
187,128,33818,2,0,L|220:40,1,90.0000034332277,2|0,0:2|0:1,0:1:0:0:
56,148,34148,2,0,L|32:61,1,90.0000034332277,2|0,0:2|0:1,0:1:0:0:
22,264,34478,2,0,P|34:213|158:148,1,180.000006866455,2|0,0:2|0:2,0:1:0:0:
287,280,34972,6,0,B|219:254|179:280|98:249,1,180.000006866455,2|0,0:2|0:1,0:1:0:0:
231,356,35467,1,2,0:2:0:0:
124,287,35631,1,0,0:2:0:0:
211,266,35796,1,2,0:2:0:0:
98,266,35961,1,0,0:2:0:0:
174,167,36126,1,2,0:2:0:0:
80,297,36291,1,0,0:2:0:0:
92,114,36456,1,2,0:2:0:0:
211,266,36620,1,0,0:2:0:0:
283,209,36950,1,2,0:2:0:0:
328,136,37609,1,2,0:1:0:0:
374,61,37774,6,2,P|284:133|88:186,1,270.000010299683,6|0,0:0|0:2,0:1:0:0:
64,276,38104,2,2,P|37:230|135:170,1,180.000006866455,10|0,0:1|0:2,0:1:0:0:
328,345,38434,2,2,P|261:307|147:290,1,180.000006866455,2|0,0:1|0:2,0:1:0:0:
74,306,38681,2,2,P|35:323|-1:360,1,90.0000034332277,2|8,0:1|0:0,0:1:0:0:
62,0,38928,2,2,P|93:107|267:229,1,270.000010299683,2|0,0:1|0:0,0:1:0:0:
296,239,39258,1,2,0:2:0:0:
498,187,39423,1,10,0:1:0:0:
291,269,39587,1,2,0:2:0:0:
387,99,39752,1,2,0:1:0:0:
387,99,39835,1,8,0:0:0:0:
223,10,40000,1,2,0:1:0:0:
223,10,40082,1,8,0:0:0:0:
92,149,40247,2,0,P|187:132|264:54,1,180.000006866455,2|0,0:1|0:0,0:0:0:0:
75,301,40576,5,2,0:2:0:0:
144,97,40741,1,10,0:0:0:0:
49,0,40906,1,0,0:0:0:0:
49,0,40989,1,0,0:0:0:0:
49,0,41071,1,2,0:1:0:0:
0,212,41236,1,2,0:2:0:0:
162,289,41401,1,10,0:0:0:0:
31,384,41565,1,2,0:2:0:0:
320,353,41730,6,2,B|275:347|275:347|80:127,1,315.000003004074,6|0,0:1|0:1,0:1:0:0:
293,154,42059,2,2,B|250:170|250:170|122:24,1,210.000002002716,2|0,0:1|0:1,0:1:0:0:
437,29,42307,2,2,B|336:267|336:267|245:294,1,315.000003004074,2|2,0:1|0:3,0:1:0:0:
168,310,42637,1,2,0:3:0:0:
168,310,42719,1,8,0:0:0:0:
113,157,42884,1,8,0:0:0:0:
333,109,43049,6,2,B|361:122|403:90|392:141|364:143|338:119,1,90,10|0,0:0|0:0,1:1:0:0:
333,109,43379,6,2,P|201:62|-4:28,1,270.000010299683,14|0,0:1|0:0,0:1:0:0:
16,157,43708,2,2,P|-24:78|34:19,1,180.000006866455,2|0,0:1|0:0,0:1:0:0:
117,135,43956,2,2,P|134:183|197:217,1,90.0000034332277,2|8,0:1|0:0,0:1:0:0:
0,366,44203,2,2,P|122:257|276:217,1,270.000010299683,2|0,0:1|0:0,0:1:0:0:
323,220,44533,1,2,0:2:0:0:
472,372,44697,1,10,0:1:0:0:
512,237,44862,1,2,0:2:0:0:
382,92,45027,1,2,0:1:0:0:
382,92,45109,1,8,0:0:0:0:
263,233,45274,1,2,0:1:0:0:
263,233,45357,1,8,0:0:0:0:
152,81,45522,1,2,0:0:0:0:
152,81,45604,1,2,0:2:0:0:
152,81,45686,1,6,0:2:0:0:
55,162,45851,5,2,0:2:0:0:
268,139,46016,1,10,0:1:0:0:
152,81,46181,1,2,0:2:0:0:
375,131,46346,1,10,0:1:0:0:
311,12,46511,1,2,0:2:0:0:
461,179,46675,1,10,0:1:0:0:
441,23,46840,1,2,0:2:0:0:
461,337,47005,6,2,P|345:122|124:29,1,455.999987823487,6|8,0:1|0:0,0:1:0:0:
0,184,47500,2,0,P|28:121|68:99,1,105.000001001358,2|2,0:3|0:3,0:0:0:0:
148,301,47664,2,8,L|12:317,1,105.000001001358,0|0,0:0|0:0,0:0:0:0:
93,105,47829,2,8,L|195:129,1,105.000001001358,0|0,0:0|0:0,0:0:0:0:
275,368,47994,2,8,L|175:333,1,105.000001001358,8|8,0:2|0:0,0:0:0:0:
246,113,48159,2,8,L|349:95,1,105.000001001358,0|0,0:0|0:0,0:0:0:0:
512,248,48324,5,6,0:0:0:0:
437,384,48489,2,2,B|408:357|408:357|407:315|420:232|385:175,1,192,2|8,0:1|0:2,0:1:0:0:
275,368,48818,1,2,0:2:0:0:
402,168,48983,1,2,0:1:0:0:
326,6,49148,2,0,B|288:31|288:31|279:64|270:148|221:194,1,192,2|8,0:1|0:2,0:0:0:0:
69,334,49478,5,8,0:0:0:0:
69,334,49560,1,8,0:0:0:0:
69,334,49642,1,2,0:1:0:0:
266,306,49807,1,2,0:2:0:0:
122,236,49972,1,10,0:1:0:0:
306,157,50137,1,2,0:2:0:0:
167,31,50302,1,2,0:1:0:0:
61,138,50467,2,2,P|151:76|273:68,1,192,2|8,0:1|0:0,0:1:0:0:
46,17,50796,5,8,0:0:0:0:
46,17,50879,1,8,0:0:0:0:
46,17,50961,1,10,0:1:0:0:
220,83,51126,1,2,0:2:0:0:
130,136,51291,1,10,0:1:0:0:
247,268,51456,1,2,0:2:0:0:
169,353,51620,1,2,0:1:0:0:
400,367,51785,1,2,0:2:0:0:
337,173,51950,1,10,0:1:0:0:
257,376,52115,1,2,0:2:0:0:
512,253,52280,6,2,P|327:129|87:105,1,455.999987823487,6|8,0:1|0:0,0:1:0:0:
247,208,52774,1,2,0:2:0:0:
71,116,52939,1,2,0:1:0:0:
224,311,53104,1,2,0:1:0:0:
26,273,53269,1,10,0:1:0:0:
184,384,53434,2,0,L|179:238,1,96,10|8,0:0|0:0,0:0:0:0:
278,137,53598,6,2,P|167:244|25:159,1,306.000005836487,14|2,0:1|0:2,0:1:0:0:
0,78,53928,2,2,P|114:69|206:7,1,204.000003890991,10|0,0:1|0:2,0:1:0:0:
344,285,54258,2,0,P|297:197|338:65,1,204.000003890991,2|0,0:1|0:2,0:0:0:0:
398,24,54505,2,0,P|449:3|510:1,1,102.000001945496,2|8,0:1|0:0,0:1:0:0:
206,24,54752,2,2,P|340:166|457:157,1,306.000005836487,2|0,0:1|0:0,0:1:0:0:
511,114,55082,1,2,0:2:0:0:
350,216,55247,1,10,0:1:0:0:
306,375,55412,1,2,0:2:0:0:
439,320,55576,1,2,0:1:0:0:
439,320,55659,1,8,0:0:0:0:
253,210,55824,1,2,0:1:0:0:
253,210,55906,1,8,0:0:0:0:
429,63,56071,2,2,P|364:139|268:134,1,204.000003890991,2|8,0:1|0:0,0:1:0:0:
512,220,56401,5,2,0:2:0:0:
286,91,56565,1,10,0:1:0:0:
358,237,56730,1,8,0:0:0:0:
358,237,56813,1,8,0:0:0:0:
358,237,56895,1,10,0:1:0:0:
180,90,57060,1,2,0:2:0:0:
192,221,57225,1,10,0:1:0:0:
45,75,57390,1,2,0:2:0:0:
0,341,57554,5,14,0:0:0:0:
161,354,57719,1,2,0:2:0:0:
287,250,57884,1,10,0:1:0:0:
295,66,58049,1,2,0:2:0:0:
295,66,58131,1,2,0:2:0:0:
295,66,58214,1,10,0:1:0:0:
177,126,58379,1,2,0:2:0:0:
404,126,58543,1,10,0:1:0:0:
188,227,58708,1,2,0:2:0:0:
147,222,58791,1,2,0:2:0:0:
112,200,58873,5,14,0:1:0:0:
120,41,59038,1,2,0:1:0:0:
311,15,59203,1,10,0:1:0:0:
406,208,59368,1,2,0:1:0:0:
260,372,59533,1,10,0:1:0:0:
