osu file format v14

[General]
AudioFilename: audio.mp3
AudioLeadIn: 0
PreviewTime: 37588
Countdown: 0
SampleSet: Soft
StackLeniency: 0.4
Mode: 0
LetterboxInBreaks: 0
WidescreenStoryboard: 1

[Editor]
DistanceSpacing: 0.5
BeatDivisor: 4
GridSize: 4
TimelineZoom: 1.2

[Metadata]
Title:Telecaster B-boy
TitleUnicode:テレキャスタービーボーイ
Artist:Three feat. Kagamine Len
ArtistUnicode:すりぃ feat.鏡音レン
Creator:Ryuusei Aika
Version:Koiyuki's Extra
Source:
Tags:パラドックス Paradox 3 Surii VOCALOID ボーカロイド Japanese Male vocal rock j-rock jrock pop j-pop jpop pappl e 104 pappl_e_104 papple papple104 Sodarose Noffy gary00737 _lai Remapper [Hatsune Miku] Crystal Momochikun Nao Tomori Nao_Tomori Naotoshi Nevo DTM9 Nowa DTM9_Nowa Tokiko Koiyuki Minakami Yuki Minakami_Yuki Taeyang CoLouRed GlazeE CoLouRed_GlazeE Irohas MugiwaraSekai Lasse Riana Doormat Acyl Acylica Little CloudSplash16 AirinCat Hanazawa Kana Hanazawa_Kana Reillia Curi C_u_r_i [C_u_r_i]
BeatmapID:2062636
BeatmapSetID:972025

[Difficulty]
HPDrainRate:5
CircleSize:4.5
OverallDifficulty:8
ApproachRate:9.2
SliderMultiplier:1.6
SliderTickRate:1

[Events]
//Background and Video events
0,0,"boy.jpg",0,0
Video,140,"boy.mp4"
//Break Periods
//Storyboard Layer 0 (Background)
//Storyboard Layer 1 (Fail)
//Storyboard Layer 2 (Pass)
//Storyboard Layer 3 (Foreground)
//Storyboard Layer 4 (Overlay)
//Storyboard Sound Samples

[TimingPoints]
-467,329.67032967033,4,2,2,50,1,0
562,-100,4,2,2,5,0,0
851,329.67032967033,4,2,2,60,1,0
851,-100,4,2,2,60,0,0
1097,-100,4,2,2,5,0,0
1180,-100,4,2,2,60,0,0
5053,-100,4,2,2,5,0,0
5136,-100,4,2,2,60,0,0
6372,-100,4,2,2,5,0,0
6455,-100,4,2,2,60,0,0
10081,-83.3333333333333,4,2,2,60,0,0
10328,-100,4,2,2,60,0,0
10575,-83.3333333333333,4,2,2,60,0,0
10740,-100,4,2,2,60,0,0
11400,-100,4,2,2,45,0,0
19559,-100,4,2,2,5,0,0
19641,-100,4,2,2,45,0,0
20218,-100,4,2,2,5,0,0
20301,-100,4,2,2,45,0,0
21949,-100,4,2,2,60,0,0
30108,-100,4,2,2,5,0,0
30191,-100,4,2,2,60,0,0
30768,-100,4,2,2,5,0,0
30850,-100,4,2,2,60,0,0
32499,-133.333333333333,4,2,2,45,0,0
37608,-66.6666666666667,4,2,2,25,0,0
37774,-100,4,2,2,75,0,1
41729,-83.3333333333333,4,2,2,75,0,1
43048,-250,4,2,2,75,0,1
43378,-100,4,2,2,75,0,1
48240,-100,4,2,2,5,0,1
48323,-303.030303030303,4,2,2,75,0,1
48570,-303.030303030303,4,2,2,5,0,1
48652,-66.6666666666667,4,2,2,75,0,1
48900,-66.6666666666667,4,2,2,5,0,1
48982,-303.030303030303,4,2,2,75,0,1
49229,-303.030303030303,4,2,2,5,0,1
49312,-66.6666666666667,4,2,2,75,0,1
49559,-66.6666666666667,4,2,2,5,0,1
49641,-100,4,2,2,75,0,1
49971,-66.6666666666667,4,2,2,75,0,1
50218,-66.6666666666667,4,2,2,75,0,1
50301,-100,4,2,2,75,0,1
50630,-66.6666666666667,4,2,2,75,0,1
50878,-66.6666666666667,4,2,2,75,0,1
50960,-100,4,2,2,75,0,1
53845,-100,4,2,2,5,0,1
53927,-100,4,2,2,75,0,1
59532,-100,4,2,2,75,0,0

[Colours]
Combo1 : 153,204,255
Combo2 : 128,255,128
Combo3 : 255,170,255
Combo4 : 255,255,181

[HitObjects]
5,67,522,6,0,L|2:47,1,20,0|0,3:0|0:0,0:0:0:0:
16,0,851,6,0,L|4:119,1,120,4|0,0:0|0:0,0:0:0:0:
116,235,1181,2,0,P|113:210|107:189,1,40,8|0,1:2|0:0,0:0:0:0:
36,227,1346,2,0,L|116:235,1,80,2|2,0:0|3:0,0:0:0:0:
194,204,1675,1,2,0:3:0:0:
20,238,1840,5,8,1:2:0:0:
244,268,2005,1,2,0:0:0:0:
209,126,2170,6,0,P|196:164|194:204,1,80,4|0,0:0|0:0,0:0:0:0:
281,88,2417,1,0,0:0:0:0:
292,105,2500,1,8,0:0:0:0:
122,143,2664,1,2,0:0:0:0:
254,4,2829,2,0,L|334:12,1,80,0|8,3:0|3:3,0:0:0:0:
425,42,3076,1,0,0:0:0:0:
406,48,3159,5,8,1:2:0:0:
432,173,3324,1,2,0:0:0:0:
458,298,3489,6,0,P|470:335|473:375,1,80,4|0,0:0|0:0,0:0:0:0:
386,260,3736,1,0,0:0:0:0:
375,277,3818,1,8,0:0:0:0:
511,189,3983,1,2,0:0:0:0:
389,352,4148,2,0,L|309:344,1,80,0|2,3:0|0:0,0:0:0:0:
473,376,4478,5,8,1:2:0:0:
289,343,4642,1,2,0:0:0:0:
105,310,4807,6,0,P|42:308|21:379,1,120,0|0,3:0|0:0,0:0:0:0:
265,254,5137,2,0,L|276:215,1,40,8|0,0:0|0:0,0:0:0:0:
271,136,5302,2,0,L|276:215,1,80,2|0,0:0|3:0,0:0:0:0:
289,343,5631,1,2,0:0:0:0:
265,56,5796,5,8,0:0:0:0:
456,156,5961,1,0,0:0:0:0:
472,144,6043,1,8,0:0:0:0:
488,133,6126,6,0,L|368:118,1,120,4|0,0:0|0:0,0:0:0:0:
265,56,6456,2,0,P|252:33|245:12,1,40,8|0,0:0|0:0,0:0:0:0:
344,46,6620,2,0,L|265:56,1,80,0|0,0:0|3:0,0:0:0:0:
171,32,6950,1,0,0:0:0:0:
364,42,7115,5,8,0:0:0:0:
276,215,7280,1,0,0:0:0:0:
153,109,7445,6,0,P|158:69|170:32,1,80,4|0,0:0|0:0,0:0:0:0:
227,149,7692,1,0,0:0:0:0:
213,164,7774,1,8,0:0:0:0:
1,121,7939,1,2,0:0:0:0:
58,330,8104,2,0,L|144:318,1,80,8|2,3:0|0:0,0:0:0:0:
214,343,8351,1,0,0:0:0:0:
207,362,8434,5,8,0:0:0:0:
359,340,8598,1,2,0:0:0:0:
510,318,8763,6,0,P|506:278|493:240,1,80,4|0,0:0|0:0,0:0:0:0:
438,358,9011,1,0,0:0:0:0:
452,373,9093,1,8,0:0:0:0:
506,165,9258,1,2,0:0:0:0:
381,19,9423,2,0,L|301:30,1,80,8|2,0:3|0:0,0:0:0:0:
400,26,9752,5,8,0:0:0:0:
224,14,9917,1,2,0:0:0:0:
48,2,10082,6,0,B|13:24|13:24|76:18|133:60,1,143.999995605469,4|0,0:0|0:0,0:0:0:0:
206,163,10412,2,0,P|189:174|170:180,1,40,8|0,0:0|0:0,0:0:0:0:
180,85,10576,6,0,L|170:180,1,95.9999970703126,2|0,3:0|3:0,0:0:0:0:
106,230,10824,1,0,3:0:0:0:
111,270,10905,1,0,3:0:0:0:
115,309,10989,1,0,3:0:0:0:
119,348,11071,5,0,1:0:0:0:
100,339,11153,1,0,1:0:0:0:
81,330,11236,2,0,P|61:337|35:348,1,40,0|0,1:0|0:0,0:0:0:0:
192,381,11401,6,0,P|231:378|268:361,1,80,4|2,0:0|0:0,0:0:0:0:
119,348,11730,1,8,0:0:0:0:
330,301,11895,2,0,L|489:312,1,160,2|0,0:0|0:0,0:0:0:0:
310,299,12390,1,8,0:0:0:0:
508,313,12554,1,2,0:0:0:0:
405,357,12719,6,0,L|407:317,1,40,8|0,1:0|0:0,0:0:0:0:
409,297,12884,2,0,L|413:233,1,40,8|0,1:0|0:0,0:0:0:0:
413,237,13049,2,0,L|418:157,1,80,8|4,0:0|1:0,0:0:0:0:
417,2,13379,2,0,B|426:59|426:59|409:96|409:96|419:157,1,160,0|8,0:0|0:0,0:0:0:0:
491,109,13873,1,2,0:0:0:0:
345,47,14038,6,0,P|309:68|256:70,1,80,2|2,0:0|0:0,0:0:0:0:
417,2,14368,1,8,0:0:0:0:
222,142,14533,2,0,L|63:131,1,160,2|0,0:0|0:0,0:0:0:0:
242,144,15027,1,8,0:0:0:0:
145,104,15192,1,2,0:0:0:0:
44,130,15357,6,0,B|34:95|34:95|44:32,1,80,4|0,0:0|0:0,0:0:0:0:
82,0,15604,1,0,0:0:0:0:
141,25,15686,2,0,B|151:60|151:60|145:104,1,80,4|0,1:0|1:0,0:0:0:0:
5,236,16016,1,0,0:0:0:0:
85,356,16181,1,2,0:0:0:0:
88,336,16263,1,10,0:0:0:0:
59,364,16346,1,8,0:0:0:0:
216,333,16511,1,2,0:0:0:0:
374,313,16675,6,0,P|413:318|448:336,1,80,4|0,0:0|0:0,0:0:0:0:
291,302,17005,1,8,0:0:0:0:
509,257,17170,2,0,P|452:310|374:314,1,160,2|2,0:0|0:0,0:0:0:0:
181,267,17664,1,10,0:0:0:0:
320,374,17829,1,2,0:0:0:0:
251,294,17994,6,0,L|291:302,1,40,8|0,1:0|0:0,0:0:0:0:
198,280,18159,2,0,L|238:277,1,40,8|0,1:0|0:0,0:0:0:0:
106,293,18324,2,0,L|181:267,1,80,0|4,0:0|0:0,0:0:0:0:
301,113,18653,2,0,P|312:75|313:35,1,80
252,178,18983,1,8,0:0:0:0:
308,16,19148,1,0,0:0:0:0:
413,89,19313,6,0,P|354:87|301:113,1,120
252,178,19642,2,0,P|208:173|173:151,1,80,8|0,0:0|0:0,0:0:0:0:
454,27,19972,2,0,L|461:146,1,120
497,217,20302,1,8,0:0:0:0:
413,89,20467,1,2,0:0:0:0:
338,317,20631,6,0,P|372:297|412:294,1,80,4|4,0:0|1:0,0:0:0:0:
464,354,20961,1,8,0:0:0:0:
250,321,21126,1,4,1:0:0:0:
230,323,21456,5,12,1:2:0:0:
497,217,21620,2,0,L|491:258,5,26.6666666666667
411,293,21950,6,0,P|372:296|338:317,1,80,4|0,0:0|0:0,0:0:0:0:
464,354,22280,1,8,0:0:0:0:
230,323,22445,2,0,L|71:334,1,160
250,321,22939,1,8,0:0:0:0:
52,335,23104,1,2,0:0:0:0:
155,379,23269,6,0,L|153:339,1,40,8|0,0:0|0:0,0:0:0:0:
151,319,23434,2,0,L|147:255,1,40,8|0,0:0|0:0,0:0:0:0:
147,259,23598,2,0,L|142:179,1,80,8|0,0:0|0:0,0:0:0:0:
209,51,23928,1,0,0:0:0:0:
139,158,24093,2,0,L|135:94,1,40,0|0,1:0|1:0,0:0:0:0:
208,31,24258,5,8,0:0:0:0:
66,188,24423,2,0,L|62:124,1,40,2|0,0:0|0:0,0:0:0:0:
207,11,24587,6,0,P|169:31|114:34,1,80,4|0,0:0|0:0,0:0:0:0:
56,12,24917,1,8,0:0:0:0:
232,130,25082,2,0,L|391:141,1,160
212,128,25576,1,8,0:0:0:0:
313,105,25741,1,0,0:0:0:0:
410,142,25906,6,0,P|452:138|485:119,1,80,4|0,0:0|0:0,0:0:0:0:
511,61,26153,1,2,0:0:0:0:
461,20,26236,2,0,P|419:24|385:42,1,80,8|0,0:0|0:0,0:0:0:0:
337,253,26565,1,0,0:0:0:0:
489,370,26730,1,0,0:0:0:0:
486,349,26813,1,0,0:0:0:0:
505,314,26894,6,0,L|449:322,1,40,8|0,0:1|0:0,0:0:0:0:
346,334,27060,2,0,L|290:342,1,40,8|0,0:1|0:0,0:0:0:0:
186,354,27225,6,0,P|148:345|118:318,1,80,4|0,0:0|0:0,0:0:0:0:
242,290,27554,1,8,0:0:0:0:
39,329,27719,2,0,P|117:317|186:353,1,160,2|2,0:0|0:0,0:0:0:0:
337,253,28214,1,8,0:0:0:0:
125,295,28379,1,2,0:0:0:0:
246,250,28543,6,0,L|242:290,1,40,8|0,0:0|0:0,0:0:0:0:
233,235,28708,2,0,L|228:274,1,40,8|0,0:0|0:0,0:0:0:0:
407,220,28873,2,0,P|375:243|337:252,1,80,8|12,0:0|1:0,0:0:0:0:
125,295,29203,2,0,P|85:288|51:267,1,80,0|0,0:0|1:0,0:0:0:0:
24,192,29450,1,2,0:0:0:0:
28,172,29533,5,8,0:0:0:0:
74,363,29697,1,2,0:0:0:0:
32,152,29862,6,0,B|41:95|41:95|19:18,1,120,4|0,0:0|0:0,0:0:0:0:
82,87,30192,2,0,P|117:69|157:64,1,80,8|0,0:0|0:0,0:0:0:0:
343,14,30522,2,0,L|462:24,1,120
512,88,30851,1,8,0:0:0:0:
323,12,31016,1,2,0:0:0:0:
456,148,31181,6,0,P|474:182|480:222,1,80
376,132,31428,1,0,0:0:0:0:
364,148,31511,1,8,0:0:0:0:
512,88,31675,1,2,0:0:0:0:
449,294,31840,1,0,0:0:0:0:
271,170,32005,1,12,0:0:0:0:
311,167,32087,1,0,0:0:0:0:
352,164,32170,5,12,0:0:0:0:
364,148,32335,1,0,0:0:0:0:
376,132,32500,6,0,P|362:107|352:76,1,60.0000022888184,4|0,0:0|0:0,0:0:0:0:
488,33,32829,2,0,P|502:58|512:89,1,60.0000022888184,0|2,0:0|0:3,0:0:0:0:
247,224,33159,2,0,P|256:196|271:170,1,60.0000022888184,2|0,0:0|0:0,0:0:0:0:
472,239,33489,2,0,P|463:267|449:294,1,60.0000022888184,0|2,0:0|0:0,0:0:0:0:
309,374,33818,5,2,0:0:0:0:
181,361,34148,5,2,0:0:0:0:
53,346,34478,5,2,0:0:0:0:
123,307,34642,1,0,0:0:0:0:
181,361,34807,1,2,0:3:0:0:
251,322,34972,1,2,0:0:0:0:
251,322,35054,1,2,0:0:0:0:
251,322,35137,6,0,P|248:290|238:259,1,60.0000022888184,2|2,0:0|0:0,0:0:0:0:
293,203,35467,2,0,P|265:190|236:183,1,60.0000022888184,2|2,0:0|0:0,0:0:0:0:
210,107,35796,2,0,P|185:124|164:145,1,60.0000022888184,2|2,0:3|0:3,0:0:0:0:
85,130,36126,2,0,P|87:159|96:188,1,60.0000022888184,2|2,0:0|0:0,0:0:0:0:
251,322,36456,6,0,P|248:290|238:259,1,60.0000022888184,2|0,0:0|0:0,0:0:0:0:
31,66,36950,1,0,0:0:0:0:
19,81,37609,6,0,B|16:54|10:38|10:38|23:58,1,60.0000022888184,2|0,0:0|0:0,0:0:0:0:
19,81,37774,6,0,P|67:45|136:68,1,120,4|0,0:0|0:0,0:0:0:0:
177,173,38104,2,0,L|164:308,1,120,8|0,0:0|0:0,0:0:0:0:
97,361,38434,2,0,P|93:342|90:322,1,40,8|0,3:0|0:0,0:0:0:0:
282,247,38598,1,0,0:0:0:0:
282,247,38681,1,2,0:0:0:0:
282,247,38763,2,0,L|361:238,1,80,8|4,0:0|0:0,0:0:0:0:
455,262,39011,1,0,0:0:0:0:
437,270,39093,5,2,0:3:0:0:
477,115,39258,1,2,0:0:0:0:
362,2,39423,1,8,0:0:0:0:
505,195,39587,1,2,0:0:0:0:
334,364,39752,5,8,3:0:0:0:
332,344,39835,1,0,0:0:0:0:
190,269,40000,1,8,3:0:0:0:
192,249,40082,1,0,0:0:0:0:
323,157,40247,1,2,0:0:0:0:
321,137,40329,1,0,0:0:0:0:
319,117,40411,6,0,P|280:113|243:98,1,80,0|2,3:0|0:0,0:0:0:0:
386,72,40741,1,8,0:0:0:0:
186,153,40906,1,2,0:3:0:0:
166,150,40989,1,2,0:0:0:0:
196,176,41071,5,8,3:0:0:0:
228,18,41236,1,2,0:0:0:0:
76,224,41401,1,8,0:0:0:0:
44,66,41565,1,2,0:0:0:0:
123,285,41730,6,0,B|105:304|96:323|96:323|81:306|54:298,1,95.9999970703126,4|0,3:2|0:0,0:0:0:0:
196,176,41978,2,0,B|223:168|239:151|239:151|245:172|265:189,1,95.9999970703126,2|0,0:0|0:0,0:0:0:0:
76,224,42225,2,0,L|85:159,1,47.9999985351563,2|0,0:3|0:0,0:0:0:0:
313,22,42390,6,0,B|326:63|326:63|318:116,1,95.9999970703126,2|0,0:0|0:0,0:0:0:0:
200,269,42637,2,0,B|187:228|187:228|195:175,1,95.9999970703126,2|0,0:0|0:0,0:0:0:0:
421,113,42884,2,0,L|468:117,1,47.9999985351563,0|8,0:0|0:0,0:0:0:0:
403,124,43049,6,0,L|450:128,1,47.9999985351563,12|0,3:0|0:0,0:0:0:0:
432,32,43379,6,0,L|313:22,1,120,12|0,3:2|0:0,0:0:0:0:
203,87,43708,2,0,P|161:128|102:120,1,120,8|0,3:0|3:1,0:0:0:0:
49,26,44038,2,0,L|44:66,1,40,8|2,0:0|0:0,0:0:0:0:
145,231,44203,1,4,0:0:0:0:
145,231,44285,1,0,0:0:0:0:
145,231,44368,6,0,L|151:321,1,80,0|2,3:0|0:0,0:0:0:0:
76,371,44615,1,0,0:0:0:0:
80,352,44697,1,12,0:0:0:0:
218,185,44862,1,0,0:0:0:0:
1,321,45027,5,2,3:2:0:0:
5,302,45109,1,0,0:0:0:0:
158,268,45274,1,2,0:0:0:0:
145,231,45357,1,8,0:0:0:0:
203,87,45522,1,8,0:0:0:0:
143,35,45604,1,8,0:0:0:0:
191,40,45686,6,0,P|230:36|267:20,1,80,12|0,0:0|0:0,0:0:0:0:
128,114,46016,1,12,0:0:0:0:
348,73,46181,1,0,3:0:0:0:
343,53,46263,1,0,0:0:0:0:
380,67,46346,5,12,0:0:0:0:
191,40,46511,1,0,0:0:0:0:
427,133,46675,1,12,0:0:0:0:
218,185,46840,1,8,0:0:0:0:
473,199,47005,6,0,P|502:250|499:310,1,120,4|0,3:2|3:0,0:0:0:0:
481,353,47335,5,12,0:0:0:0:
436,367,47417,1,8,0:0:0:0:
400,335,47500,1,12,0:0:0:0:
405,288,47582,1,8,0:0:0:0:
371,253,47664,5,8,3:2:0:0:
323,251,47747,1,0,3:0:0:0:
288,285,47829,1,0,3:0:0:0:
292,332,47912,1,0,3:0:0:0:
326,365,47994,6,0,L|377:357,1,40,12|0,1:2|0:0,0:0:0:0:
208,272,48159,2,0,L|248:279,1,40
69,328,48324,6,0,L|108:321,1,39.5999998791504,8|0,3:0|0:0,0:0:0:0:
248,279,48653,6,0,B|285:245|285:245|305:166|257:124,1,180.000006866455,12|0,0:0|0:0,0:0:0:0:
93,306,48983,6,0,L|53:312,1,39.5999998791504,8|0,3:0|0:0,0:0:0:0:
166,152,49313,6,0,B|199:114|192:69|192:69|208:110|258:125,1,180.000006866455,12|0,0:0|0:0,0:0:0:0:
112,87,49642,6,0,L|118:36,1,40,4|0,3:2|0:0,0:0:0:0:
273,1,49807,2,0,L|269:41,1,40,2|2,0:0|0:0,0:0:0:0:
166,152,49972,6,0,B|105:168|105:168|42:150|42:150|-16:166,1,180.000006866455,12|0,1:2|0:0,0:0:0:0:
160,232,50302,6,0,L|198:222,1,40,2|0,1:2|0:0,0:0:0:0:
296,115,50467,2,0,L|257:124,1,40,2|0,0:0|0:0,0:0:0:0:
378,277,50631,6,0,P|462:274|498:373,1,180.000006866455,12|0,0:0|0:0,0:0:0:0:
422,345,50961,5,0,3:0:0:0:
457,155,51126,1,0,3:0:0:0:
378,277,51291,5,8,0:0:0:0:
467,138,51456,1,2,0:0:0:0:
273,1,51620,5,0,3:0:0:0:
341,206,51785,1,0,3:0:0:0:
288,14,51950,5,8,0:0:0:0:
265,180,52115,1,0,0:0:0:0:
477,121,52280,6,0,B|487:85|487:85|479:38,1,80,8|0,3:0|0:0,0:0:0:0:
429,2,52527,1,0,0:0:0:0:
371,28,52609,2,0,B|361:64|361:64|369:111,1,80,8|2,0:0|3:0,0:0:0:0:
418,147,52857,1,0,0:0:0:0:
469,185,52939,6,0,B|479:221|479:221|471:263,1,80,8|0,3:0|0:0,0:0:0:0:
411,286,53186,1,0,0:0:0:0:
359,247,53269,2,0,B|349:211|349:211|357:169,1,80,8|10,0:0|0:0,0:0:0:0:
418,147,53516,1,0,0:0:0:0:
395,179,53598,6,0,P|326:177|285:136,1,120,4|0,0:0|0:0,0:0:0:0:
206,46,53928,2,0,P|137:48|96:89,1,120,12|0,0:0|0:0,0:0:0:0:
178,157,54258,2,0,P|177:137|171:119,1,40,0|2,3:0|1:2,0:0:0:0:
5,27,54423,1,2,0:3:0:0:
5,27,54505,1,2,1:2:0:0:
5,27,54587,2,0,B|13:61|13:61|6:113,1,80,0|2,0:0|0:3,0:0:0:0:
73,175,54835,1,2,0:0:0:0:
70,155,54916,5,0,3:0:0:0:
96,345,55082,1,0,3:0:0:0:
73,175,55247,1,8,0:0:0:0:
4,318,55412,1,0,3:0:0:0:
188,372,55576,5,0,3:0:0:0:
185,352,55659,1,0,0:0:0:0:
314,349,55824,1,0,0:0:0:0:
308,309,55906,1,8,0:0:0:0:
440,327,56071,1,0,0:0:0:0:
428,247,56153,1,0,0:0:0:0:
459,283,56236,6,0,P|413:282|373:253,1,80,0|2,3:0|0:0,0:0:0:0:
338,77,56565,1,8,3:0:0:0:
465,173,56730,1,0,3:0:0:0:
465,173,56813,1,0,0:0:0:0:
465,172,56895,2,0,P|473:133|474:93,1,80,8|0,0:0|3:0,0:0:0:0:
258,27,57225,2,0,P|250:66|249:106,1,80,8|2,0:0|0:0,0:0:0:0:
385,361,57554,5,12,0:0:0:0:
115,260,57719,1,2,0:0:0:0:
338,77,57884,1,8,0:0:0:0:
262,227,58049,1,2,0:0:0:0:
265,247,58131,1,0,0:0:0:0:
268,267,58214,5,8,0:0:0:0:
465,172,58379,1,4,0:0:0:0:
231,340,58543,1,4,0:0:0:0:
485,365,58708,1,4,0:0:0:0:
488,345,58791,1,8,0:0:0:0:
491,325,58873,5,0,0:0:0:0:
374,378,59038,1,12,0:0:0:0:
215,353,59203,1,12,0:0:0:0:
62,236,59368,1,12,0:0:0:0:
16,0,59533,1,12,0:0:0:0:
