osu file format v14

[General]
AudioFilename: audio.mp3
AudioLeadIn: 0
PreviewTime:37588
Countdown: 0
SampleSet: Soft
StackLeniency: 0.2
Mode: 0
LetterboxInBreaks: 0
WidescreenStoryboard: 0

[Editor]
Bookmarks: 11400,21959,32518,37802,48352
DistanceSpacing: 0.4
BeatDivisor: 8
GridSize: 32
TimelineZoom: 1.8

[Metadata]
Title:Telecaster B-boy
TitleUnicode:テレキャスタービーボーイ
Artist:Three feat. Kagamine Len
ArtistUnicode:すりぃ feat.鏡音レン
Creator:Ryuusei Aika
Version:Irohas' Extra
Source:
Tags:パラドックス Paradox 3 Surii VOCALOID ボーカロイド Japanese Male vocal rock j-rock jrock pop j-pop jpop pappl e 104 pappl_e_104 papple papple104 Sodarose Noffy gary00737 _lai Remapper [Hatsune Miku] Crystal Momochikun Nao Tomori Nao_Tomori Naotoshi Nevo DTM9 Nowa DTM9_Nowa Tokiko Koiyuki Minakami Yuki Minakami_Yuki Taeyang CoLouRed GlazeE CoLouRed_GlazeE Irohas MugiwaraSekai Lasse Riana Doormat Acyl Acylica Little CloudSplash16 AirinCat Hanazawa Kana Hanazawa_Kana Reillia Curi C_u_r_i [C_u_r_i]
BeatmapID:2036677
BeatmapSetID:972025

[Difficulty]
HPDrainRate:5
CircleSize:4.2
OverallDifficulty:8
ApproachRate:9.2
SliderMultiplier:1.6
SliderTickRate:1

[Events]
//Background and Video events
Video,140,"boy.mp4"
0,0,"jaune.jpeg",0,0
//Break Periods
//Storyboard Layer 0 (Background)
//Storyboard Layer 1 (Fail)
//Storyboard Layer 2 (Pass)
//Storyboard Layer 3 (Foreground)
//Storyboard Layer 4 (Overlay)
//Storyboard Sound Samples

[TimingPoints]
-467,329.67032967033,4,2,2,45,1,0
520,-62.5,4,2,2,50,0,0
603,-47.6190476190476,4,2,2,5,0,0
850,-100,4,2,2,60,0,0
851,329.67032967033,4,2,2,60,1,0
1097,-100,4,2,2,5,0,0
1180,-100,4,2,2,60,0,0
2169,-100,4,2,2,60,0,0
2416,-100,4,2,2,5,0,0
2498,-100,4,2,2,60,0,0
3734,-100,4,2,2,5,0,0
3817,-100,4,2,2,60,0,0
4806,-90.9090909090909,4,2,2,60,0,0
5053,-90.9090909090909,4,2,2,5,0,0
5136,-100,4,2,2,60,0,0
6372,-100,4,2,2,5,0,0
6454,-100,4,2,2,60,0,0
7361,-100,4,2,2,5,0,0
7443,-100,4,2,2,60,0,0
7691,-100,4,2,2,5,0,0
7773,-100,4,2,2,60,0,0
8762,-100,4,2,2,60,0,0
9009,-86.9565217391304,4,2,2,5,0,0
9092,-100,4,2,2,60,0,0
10905,-90.9090909090909,4,2,2,60,0,0
11399,-125,4,2,2,60,0,0
12718,-76.9230769230769,4,2,2,60,0,0
12759,-76.9230769230769,4,2,2,5,0,0
12883,-76.9230769230769,4,2,2,60,0,0
12924,-76.9230769230769,4,2,2,5,0,0
13212,-125,4,2,2,60,0,0
15685,-76.9230769230769,4,2,2,60,0,0
15726,-76.9230769230769,4,2,2,5,0,0
15850,-100,4,2,2,60,0,0
16262,-100,4,2,2,60,0,0
16674,-125,4,2,2,60,0,0
17993,-76.9230769230769,4,2,2,60,0,0
18034,-76.9230769230769,4,2,2,5,0,0
18158,-76.9230769230769,4,2,2,60,0,0
18199,-76.9230769230769,4,2,2,5,0,0
18487,-125,4,2,2,60,0,0
19311,-100,4,2,2,60,0,0
19559,-100,4,2,2,5,0,0
19641,-100,4,2,2,60,0,0
19888,-100,4,2,2,5,0,0
19971,-100,4,2,2,60,0,0
20218,-100,4,2,2,5,0,0
20300,-100,4,2,2,60,0,0
20795,-100,4,2,2,60,0,0
20877,-100,4,2,2,5,0,0
21125,-100,4,2,2,60,0,0
21207,-100,4,2,2,5,0,0
21454,-58.8235294117647,4,2,2,60,0,0
21495,-58.8235294117647,4,2,2,5,0,0
21617,-58.8235294117647,4,2,2,60,0,0
21660,-58.8235294117647,4,2,2,5,0,0
21784,-58.8235294117647,4,2,2,60,0,0
21949,-111.111111111111,4,2,2,60,0,0
22196,-111.111111111111,4,2,2,5,0,0
22278,-111.111111111111,4,2,2,60,0,0
23267,-58.8235294117647,4,2,2,60,0,0
23309,-58.8235294117647,4,2,2,5,0,0
23432,-58.8235294117647,4,2,2,60,0,0
23473,-58.8235294117647,4,2,2,5,0,0
23597,-58.8235294117647,4,2,2,60,0,0
23762,-111.111111111111,4,2,2,60,0,0
24092,-111.111111111111,4,2,2,60,0,0
25905,-99.9999999999999,4,2,2,60,0,0
26399,-100,4,2,2,60,0,0
27223,-111.111111111111,4,2,2,60,0,0
28542,-50,4,2,2,60,0,0
28583,-50,4,2,2,5,0,0
28707,-50,4,2,2,60,0,0
28748,-50,4,2,2,5,0,0
28872,-50,4,2,2,60,0,0
29037,-111.111111111111,4,2,2,60,0,0
29366,-100,4,2,2,60,0,0
30108,-100,4,2,2,5,0,0
30191,-100,4,2,2,60,0,0
30438,-100,4,2,2,5,0,0
30520,-100,4,2,2,60,0,0
30767,-100,4,2,2,5,0,0
30850,-100,4,2,2,60,0,0
31509,-76.9230769230769,4,2,2,60,0,0
31550,-76.9230769230769,4,2,2,5,0,0
31674,-111.111111111111,4,2,2,60,0,0
32004,-66.6666666666667,4,2,2,60,0,0
32169,-200,4,2,2,60,0,0
32416,-200,4,2,2,5,0,0
32498,-142.857142857143,4,2,2,60,0,0
36702,-142.857142857143,4,2,2,5,0,0
36949,-142.857142857143,4,2,2,60,0,0
37031,-142.857142857143,4,2,2,5,0,0
37608,-142.857142857143,4,2,2,25,0,0
37774,-100,4,2,2,75,0,1
37938,-100,4,2,2,75,0,0
38762,-83.3333333333333,4,2,2,75,0,0
38927,-100,4,2,2,75,0,0
43048,-28.5714285714286,4,2,2,75,0,0
43542,-83.3333333333333,4,2,2,75,0,0
44943,-90.9090909090909,4,2,2,5,0,0
45026,-90.9090909090909,4,2,2,75,0,0
45273,-222.222222222221,4,2,2,5,0,0
45355,-222.222222222221,4,2,2,75,0,0
47333,-83.3333333333333,4,2,2,75,0,0
47993,-41.6666666666667,4,2,2,75,0,0
48240,-41.6666666666667,4,2,2,5,0,0
48322,-222.222222222221,4,2,2,75,0,0
48570,-222.222222222221,4,2,2,5,0,0
48652,-44.4444444444445,4,2,2,75,0,0
48899,-44.4444444444445,4,2,2,5,0,0
48982,-222.222222222222,4,2,2,75,0,0
49229,-222.222222222222,4,2,2,5,0,0
49311,-44.4444444444445,4,2,2,75,0,0
49559,-44.4444444444445,4,2,2,5,0,0
49641,-90.9090909090909,4,2,2,75,0,0
50795,-90.9090909090909,4,2,2,75,0,0
53844,-90.9090909090909,4,2,2,5,0,0
53927,-90.9090909090909,4,2,2,75,0,0
58460,-90.9090909090909,4,2,2,5,0,0
58542,-90.9090909090909,4,2,2,75,0,0
58625,-90.9090909090909,4,2,2,5,0,0
58707,-90.9090909090909,4,2,2,75,0,0

[Colours]
Combo1 : 245,179,167
Combo2 : 231,254,194
Combo3 : 240,214,254
Combo4 : 242,222,191

[HitObjects]
460,327,522,6,0,P|454:304|467:322,1,64,0|0,3:0|0:0,0:0:0:0:
460,327,851,6,0,P|467:261|474:199,1,120,4|0,0:0|0:0,0:0:0:0:
400,95,1181,2,0,P|388:135|390:185,1,80,8|2,1:2|0:0,0:0:0:0:
507,54,1511,1,2,3:0:0:0:
285,138,1675,2,0,P|229:131|180:125,1,80,2|8,0:3|1:2,0:0:0:0:
81,310,2005,1,2,0:0:0:0:
5,259,2170,6,0,P|51:226|128:230,1,120,4|0,0:0|0:0,0:0:0:0:
207,274,2500,2,0,P|214:223|220:177,1,80,8|2,1:2|0:0,0:0:0:0:
141,368,2829,5,0,3:0:0:0:
364,231,2994,1,8,3:3:0:0:
158,89,3159,1,8,1:2:0:0:
304,379,3324,1,2,0:0:0:0:
396,340,3489,6,0,P|445:330|507:383,1,120,4|0,0:0|0:0,0:0:0:0:
364,231,3818,2,0,P|369:194|379:136,1,80,8|2,1:2|0:0,0:0:0:0:
467,205,4148,1,0,3:0:0:0:
250,322,4313,2,0,P|199:308|162:311,1,80,2|8,0:0|1:2,0:0:0:0:
36,87,4642,1,2,0:0:0:0:
0,189,4807,2,0,B|64:190|69:149|142:157,1,132.00000402832,4|0,3:2|0:0,0:0:0:0:
228,115,5137,2,0,P|223:152|217:196,1,80,8|2,1:2|0:0,0:0:0:0:
176,285,5467,5,0,3:0:0:0:
126,54,5631,1,2,0:0:0:0:
331,162,5796,2,0,P|374:157|426:151,1,80,12|0,1:2|0:0,0:0:0:0:
507,95,6043,1,8,0:0:0:0:
507,95,6126,6,0,P|499:152|489:243,1,120,4|0,0:0|0:0,0:0:0:0:
403,332,6456,2,0,B|393:294|393:294|408:244,1,80,8|0,1:2|0:0,0:0:0:0:
503,312,6785,1,8,3:0:0:0:
302,366,6950,2,0,L|219:356,1,80,2|8,0:0|1:2,0:0:0:0:
30,211,7280,1,0,0:0:0:0:
150,141,7445,6,0,L|133:270,1,120,4|0,0:0|0:0,0:0:0:0:
77,330,7774,2,0,P|40:345|0:342,1,80,8|2,1:2|0:0,0:0:0:0:
253,236,8104,2,0,L|348:250,1,80,8|2,3:0|0:0,0:0:0:0:
479,208,8434,1,8,1:0:0:0:
364,354,8598,1,2,0:0:0:0:
324,156,8763,6,0,L|342:23,1,120,4|0,0:0|0:0,0:0:0:0:
425,120,9093,2,0,L|508:109,1,80,8|2,1:2|0:0,0:0:0:0:
254,15,9423,2,0,L|174:27,1,80,8|2,0:3|0:0,0:0:0:0:
4,194,9752,2,0,L|83:181,1,80,8|2,1:2|0:0,0:0:0:0:
310,354,10082,6,0,P|259:322|188:335,1,120,4|0,0:0|0:0,0:0:0:0:
131,376,10412,1,8,1:2:0:0:
299,218,10576,1,2,3:0:0:0:
227,95,10741,5,0,3:0:0:0:
221,99,10824,1,0,3:0:0:0:
216,103,10906,2,8,P|222:139|227:168,1,44.0000013427735
398,314,11071,2,8,P|400:294|407:264,1,44.0000013427735,8|8,1:2|0:0,0:0:0:0:
470,206,11236,1,2,1:0:0:0:
291,332,11401,6,0,P|250:319|221:320,1,64,4|2,0:0|0:0,0:0:0:0:
50,196,11730,1,8,0:0:0:0:
5,267,11895,2,0,P|43:279|120:241,1,128,2|0,0:0|0:0,0:0:0:0:
172,174,12390,2,0,P|164:131|159:104,1,64,8|2,0:0|0:0,0:0:0:0:
367,13,12719,6,0,L|361:52,1,25.9999988098145,8|0,1:0|0:0,0:0:0:0:
359,8,12884,6,0,L|353:47,1,25.9999988098145,8|0,1:0|0:0,0:0:0:0:
350,47,13214,6,0,L|486:32,1,128,4|2,1:0|0:0,0:0:0:0:
369,143,13708,2,0,P|327:135|285:128,1,64,8|2,0:0|0:0,0:0:0:0:
145,24,14038,1,2,0:0:0:0:
229,0,14203,2,0,P|224:36|218:75,1,64,2|8,0:0|0:0,0:0:0:0:
122,137,14533,6,0,P|74:104|-8:121,1,128,2|0,0:0|0:0,0:0:0:0:
53,191,15027,2,0,P|47:229|40:274,1,64,8|2,0:0|0:0,0:0:0:0:
162,370,15357,1,4,0:0:0:0:
236,327,15522,5,0,0:0:0:0:
241,324,15604,1,0,0:0:0:0:
244,319,15686,2,0,L|238:279,1,25.9999988098145,4|0,1:0|0:0,0:0:0:0:
224,317,15851,6,0,L|345:299,1,120,2|2,1:0|0:0,0:0:0:0:
419,345,16181,2,0,L|407:403,2,40,2|2|8,0:0|0:0|0:0,0:0:0:0:
342,299,16511,1,2,0:0:0:0:
512,203,16675,6,0,P|448:212|400:168,1,128,4|8,0:0|0:0,0:0:0:0:
348,103,17170,2,0,P|352:64|356:27,1,64,2|0,0:0|3:0,0:0:0:0:
242,253,17500,2,0,P|238:292|234:329,1,64,2|10,0:0|0:0,0:0:0:0:
307,364,17829,1,2,0:0:0:0:
145,291,17994,6,0,L|98:299,1,25.9999988098145,8|0,1:0|0:0,0:0:0:0:
35,245,18159,6,0,L|9:249,1,25.9999988098145,8|0,1:3|0:0,0:0:0:0:
112,179,18489,6,0,P|132:138|109:63,1,128,0|0,3:0|0:0,0:0:0:0:
242,150,18983,2,0,P|287:145|316:141,1,64,8|0,0:0|0:0,0:0:0:0:
500,199,19313,6,0,P|442:227|385:212,1,120
374,54,19642,2,0,P|425:26|491:43,1,120,8|0,0:0|0:0,0:0:0:0:
305,142,19972,2,0,P|255:137|172:127,1,120
124,83,20302,1,8,0:0:0:0:
0,183,20467,1,2,0:0:0:0:
81,239,20631,5,4,0:0:0:0:
31,57,20796,2,0,L|25:96,1,40,4|0,1:0|0:0,0:0:0:0:
149,357,21126,2,0,L|156:317,1,40,4|0,1:0|0:0,0:0:0:0:
81,239,21456,6,0,L|47:245,1,34.0000006484985,12|0,1:2|0:0,0:0:0:0:
280,351,21620,6,0,L|247:358,1,34.0000006484985,12|0,1:2|0:0,0:0:0:0:
382,267,21785,5,2,0:0:0:0:
385,261,21868,1,2,0:0:0:0:
387,256,21950,2,0,P|431:227|502:243,1,107.999996704102,4|0,0:0|0:0,0:0:0:0:
416,135,22280,2,0,P|423:95|431:51,1,71.9999978027344,8|0,0:0|0:0,0:0:0:0:
282,270,22609,2,0,L|297:357,1,71.9999978027344,0|0,3:0|0:0,0:0:0:0:
201,334,22939,1,8,0:0:0:0:
390,266,23104,1,2,0:0:0:0:
201,334,23269,6,0,P|194:319|186:331,1,34.0000006484985,12|0,0:0|0:0,0:0:0:0:
27,309,23434,6,0,P|34:294|42:306,1,34.0000006484985,12|0,0:0|0:0,0:0:0:0:
108,372,23598,5,10,0:0:0:0:
132,265,23763,6,0,P|138:218|147:140,1,107.999996704102
210,96,24093,2,2,L|202:46,1,35.9999989013672,2|2,1:0|1:0,1:0:0:0:
306,90,24258,1,8,0:0:0:0:
131,0,24423,1,2,0:0:0:0:
306,90,24587,6,0,P|358:93|402:63,1,107.999996704102,4|0,0:0|0:0,0:0:0:0:
512,163,24917,2,0,P|481:148|432:147,1,71.9999978027344,8|0,0:0|0:0,0:0:0:0:
415,320,25247,2,0,P|458:336|493:335,1,71.9999978027344,0|0,3:0|0:0,0:0:0:0:
330,235,25576,2,0,L|209:257,1,107.999996704102,8|0,0:0|0:0,0:0:0:0:
149,199,25906,6,0,P|153:172|160:141,1,40,4|2,0:0|0:0,0:0:0:0:
58,82,26071,2,0,L|68:134,1,40,4|2,0:0|0:0,0:0:0:0:
0,180,26236,1,8,0:0:0:0:
133,357,26401,6,0,P|175:321|254:324,1,120,4|0,0:0|0:0,0:0:0:0:
315,256,26730,2,0,L|303:197,1,40
384,148,26895,5,10,0:1:0:0:
422,142,26978,1,10,0:1:0:0:
452,168,27060,1,10,0:1:0:0:
461,207,27142,1,10,0:1:0:0:
461,214,27225,6,0,P|455:267|447:334,1,107.999996704102,4|0,0:0|0:0,0:0:0:0:
358,384,27554,2,0,P|354:345|359:308,1,71.9999978027344,8|2,0:0|0:0,0:0:0:0:
244,76,27884,2,0,P|251:108|246:156,1,71.9999978027344,0|2,3:0|0:0,0:0:0:0:
168,214,28214,1,8,0:0:0:0:
349,99,28379,1,2,0:0:0:0:
186,330,28543,6,0,L|178:387,1,40,12|0,0:0|0:0,0:0:0:0:
105,305,28708,6,0,L|97:362,1,40,12|0,0:0|0:0,0:0:0:0:
24,280,28873,5,8,0:0:0:0:
312,354,29038,6,0,P|352:327|419:330,1,107.999996704102,12|0,1:0|0:0,0:0:0:0:
504,367,29368,2,0,P|510:338|515:318,2,40,0|2|8,1:0|0:0|0:0,0:0:0:0:
370,230,29697,1,2,0:0:0:0:
464,66,29862,6,0,P|490:104|486:188,1,120,4|0,0:0|0:0,0:0:0:0:
371,118,30192,2,0,P|378:70|390:-11,1,120,8|0,0:0|0:0,0:0:0:0:
261,39,30522,2,0,P|218:68|139:60,1,120,12|0,0:0|0:0,0:0:0:0:
7,148,30851,2,0,P|47:139|98:152,1,80,8|2,0:0|0:0,0:0:0:0:
53,227,31181,1,0,0:0:0:0:
35,57,31346,1,0,0:0:0:0:
31,53,31428,1,0,0:0:0:0:
29,48,31511,2,0,L|36:3,1,25.9999988098145,14|0,1:0|0:0,0:0:0:0:
166,195,31675,2,0,P|161:233|151:311,1,107.999996704102,2|0,0:0|0:0,0:0:0:0:
230,366,32005,6,0,P|266:361|306:356,1,60.0000022888184,12|0,0:0|0:0,0:0:0:0:
372,299,32170,6,0,P|408:304|439:308,1,60,12|0,0:0|0:0,0:0:0:0:
509,267,32499,5,4,0:0:0:0:
509,267,32664,2,0,P|502:220|489:152,1,111.999996582031,2|2,0:1|0:3,0:0:0:0:
512,84,33159,1,2,0:0:0:0:
512,84,33324,2,0,P|469:117|409:112,1,111.999996582031,2|2,0:1|0:0,0:0:0:0:
308,38,33818,6,0,P|313:76|326:157,1,111.999996582031,0|2,3:0|0:3,0:0:0:0:
177,308,34478,2,0,P|158:272|171:201,1,111.999996582031,2|2,0:0|0:3,0:0:0:0:
260,256,34972,5,2,0:0:0:0:
266,259,35054,1,2,0:0:0:0:
271,261,35137,2,0,P|309:255|339:251,1,55.9999982910157,4|2,0:0|0:0,0:0:0:0:
455,357,35467,2,0,P|427:353|399:348,1,55.9999982910157,2|2,0:3|0:0,0:0:0:0:
512,283,35796,5,2,0:3:0:0:
437,215,35961,1,2,0:3:0:0:
506,133,36126,1,2,0:3:0:0:
451,73,36291,1,2,0:0:0:0:
499,8,36456,1,2,0:0:0:0:
451,73,36620,6,0,L|415:79,1,27.9999991455078
344,6,36950,6,0,L|308:0,1,27.9999991455078
79,225,37609,5,2,0:0:0:0:
0,159,37774,6,0,P|42:130|115:125,1,120,4|0,0:0|0:0,0:0:0:0:
149,295,38104,2,0,P|107:324|34:329,1,120,8|0,0:0|0:0,0:0:0:0:
207,199,38434,2,0,P|255:206|302:213,1,80,8|0,3:0|0:0,0:0:0:0:
364,162,38681,5,2,0:1:0:0:
366,156,38763,2,0,P|359:123|354:99,1,47.9999985351563,8|2,0:0|0:0,0:0:0:0:
429,43,38928,2,0,P|447:76|448:138,1,80,4|2,0:0|0:3,0:0:0:0:
316,333,39258,1,2,0:0:0:0:
512,265,39423,2,0,P|470:256|405:244,1,80,8|2,0:0|0:0,0:0:0:0:
270,133,39752,6,0,P|275:103|280:79,1,40,8|0,3:0|0:0,0:0:0:0:
178,38,39917,1,0,0:0:0:0:
175,44,40000,2,0,P|180:74|185:98,2,40,8|0|0,3:0|0:0|0:0,0:0:0:0:
93,115,40247,6,0,P|51:148|-20:142,1,120,4|0,0:0|0:0,0:0:0:0:
24,65,40576,1,2,0:0:0:0:
88,261,40741,2,0,L|79:355,1,80,8|2,0:0|0:3,0:0:0:0:
184,270,40989,1,2,0:1:0:0:
187,264,41071,2,0,L|178:217,1,40,8|2,3:0|0:0,0:0:0:0:
294,186,41236,5,2,0:0:0:0:
276,269,41401,1,8,0:0:0:0:
258,352,41565,1,2,0:0:0:0:
393,270,41730,6,0,P|445:263|496:325,2,120,4|2|2,0:0|0:1|0:3,0:0:0:0:
487,165,42390,2,0,P|493:132|499:111,2,40
392,133,42637,1,2,1:0:0:0:
384,137,42719,2,0,P|328:145|274:154,1,80,8|0,0:0|0:0,0:0:0:0:
237,90,42967,5,8,0:0:0:0:
237,90,43049,2,0,B|222:48|252:11|273:17|286:64|244:90,1,140.000001335144,12|0,3:0|0:0,0:0:0:0:
24,154,43379,6,0,B|35:109|5:72|-16:78|-26:125|20:158,1,140.000001335144,12|0,3:2|0:0,0:0:0:0:
96,218,43543,1,2,0:0:0:0:
36,371,43708,6,0,P|13:330|32:258,1,95.9999970703126,8|2,3:0|0:0,0:0:0:0:
180,151,43956,2,0,P|203:192|195:261,1,95.9999970703126,0|2,3:1|0:1,0:0:0:0:
272,308,44203,6,0,B|366:311|338:246|450:253,1,191.999994140625,4|2,0:0|0:0,0:0:0:0:
512,185,44697,6,0,P|465:137|390:150,1,143.999995605469,12|0,0:0|0:0,0:0:0:0:
295,74,45027,2,0,P|302:123|309:171,1,88.000002685547,8|12,3:0|0:0,0:0:0:0:
429,233,45357,5,8,0:0:0:0:
241,297,45522,1,8,0:0:0:0:
235,301,45604,1,8,0:0:0:0:
233,294,45686,1,12,0:0:0:0:
363,360,45851,1,0,0:0:0:0:
140,207,46016,5,12,0:0:0:0:
376,98,46181,1,0,0:0:0:0:
185,384,46346,5,12,0:0:0:0:
18,61,46511,1,0,0:0:0:0:
313,236,46675,5,12,0:0:0:0:
0,384,46840,1,8,0:0:0:0:
251,121,47005,1,0,3:0:0:0:
293,100,47087,1,0,3:0:0:0:
338,112,47170,1,0,3:0:0:0:
365,150,47252,1,0,3:0:0:0:
361,183,47335,2,8,L|423:174,1,47.9999985351563,12|8,0:0|0:0,0:0:0:0:
511,269,47500,2,8,L|449:278,1,47.9999985351563,12|8,0:0|0:0,0:0:0:0:
314,337,47664,5,8,3:2:0:0:
312,325,47747,1,0,3:0:0:0:
316,312,47829,1,0,3:0:0:0:
326,310,47912,1,0,3:0:0:0:
333,329,47994,6,0,B|270:314|194:275|194:275|217:327|217:327|206:330|206:330|180:361|149:391,1,287.999991210938,12|0,1:2|0:0,0:0:0:0:
71,347,48324,6,0,L|80:281,1,53.9999983520508,8|0,3:0|0:0,0:0:0:0:
0,143,48653,6,0,B|38:228|143:260|236:150|90:83|64:166,1,270.000010299683,12|0,0:0|0:0,0:0:0:0:
207,78,48983,6,0,L|196:12,1,53.9999983520508,8|0,3:0|0:0,0:0:0:0:
312,91,49313,6,0,B|416:115|416:115|389:198|361:289,1,270.000010299683,12|0,0:0|0:0,0:0:0:0:
296,338,49642,1,0,3:0:0:0:
141,276,49807,6,0,L|88:286,1,44.0000013427735,2|2,1:0|0:0,0:0:0:0:
22,343,49972,2,0,P|6:288|15:249,1,88.000002685547,12|0,1:2|0:0,0:0:0:0:
182,70,50302,2,0,L|171:171,1,88.000002685547,2|0,1:2|0:0,0:0:0:0:
66,49,50631,1,8,0:0:0:0:
294,239,50796,6,0,B|330:208|378:213|378:213|410:253|460:235,1,176.000005371094,4|8,0:0|0:0,0:0:0:0:
512,151,51291,1,8,0:0:0:0:
362,74,51456,1,2,0:0:0:0:
454,236,51620,2,0,P|446:287|438:344,1,88.000002685547
248,88,51950,2,0,P|256:37|264:-20,1,88.000002685547,8|0,0:0|0:0,0:0:0:0:
0,247,52280,6,0,P|36:208|134:211,1,132.00000402832,8|0,3:0|0:0,0:0:0:0:
190,253,52609,2,0,L|182:309,1,44.0000013427735,8|2,0:0|0:1,0:0:0:0:
107,354,52774,1,2,3:0:0:0:
292,280,52939,2,0,P|329:283|377:263,1,88.000002685547,8|0,3:0|0:0,0:0:0:0:
307,183,53269,1,8,0:0:0:0:
389,384,53434,1,10,0:0:0:0:
307,183,53598,6,0,P|314:119|325:36,1,132.00000402832,4|0,0:0|0:0,0:0:0:0:
216,173,53928,2,0,P|196:219|199:267,1,88.000002685547,12|0,0:0|0:0,0:0:0:0:
416,113,54258,1,8,3:0:0:0:
420,105,54340,2,0,P|415:74|411:46,1,44.0000013427735,0|2,0:0|0:3,0:0:0:0:
512,242,54504,6,0,P|468:200|388:211,1,132.00000402832,2|2,1:0|0:3,0:0:0:0:
334,263,54835,1,2,0:0:0:0:
331,273,54917,2,0,P|337:315|340:340,1,44.0000013427735
283,382,55082,5,0,3:0:0:0:
427,317,55247,1,8,0:0:0:0:
283,382,55412,1,0,3:0:0:0:
185,323,55576,6,0,P|135:352|49:336,1,132.00000402832
113,278,55906,6,0,L|263:305,1,132.00000402832,8|0,0:0|0:0,0:0:0:0:
319,252,56236,1,0,3:0:0:0:
237,116,56401,1,2,0:0:0:0:
164,216,56565,5,8,3:0:0:0:
338,156,56730,1,0,3:0:0:0:
293,0,56895,1,8,0:0:0:0:
126,46,57060,1,0,3:0:0:0:
319,252,57225,5,8,0:0:0:0:
302,347,57390,1,2,0:0:0:0:
460,158,57554,5,8,0:0:0:0:
444,58,57719,1,2,0:0:0:0:
325,255,57884,5,8,0:0:0:0:
309,355,58049,1,2,0:0:0:0:
467,162,58214,1,8,0:0:0:0:
243,295,58379,6,0,L|181:286,1,44.0000013427735,4|0,0:0|0:0,0:0:0:0:
157,202,58543,6,0,L|113:195,1,44.0000013427735,4|0,0:0|0:0,0:0:0:0:
44,266,58708,6,0,L|-18:257,1,44.0000013427735,4|8,0:0|3:0,0:0:0:0:
269,184,58873,1,8,0:0:0:0:
161,23,59038,5,12,0:0:0:0:
430,68,59202,1,12,0:0:0:0:
390,345,59368,1,12,0:0:0:0:
113,304,59533,1,12,0:0:0:0:
