osu file format v14

[General]
AudioFilename: audio.mp3
AudioLeadIn: 0
PreviewTime: 37588
Countdown: 0
SampleSet: Normal
StackLeniency: 0.7
Mode: 0
LetterboxInBreaks: 0
WidescreenStoryboard: 1

[Editor]
Bookmarks: 522,32025,51661,59903
DistanceSpacing: 0.5
BeatDivisor: 4
GridSize: 4
TimelineZoom: 1.6

[Metadata]
Title:Telecaster B-boy
TitleUnicode:テレキャスタービーボーイ
Artist:Three feat. Kagamine Len
ArtistUnicode:すりぃ feat.鏡音レン
Creator:Ryuusei Aika
Version:Hatsune Miku's Insane
Source:
Tags:パラドックス Paradox 3 Surii VOCALOID ボーカロイド Japanese Male vocal rock j-rock jrock pop j-pop jpop pappl e 104 pappl_e_104 papple papple104 Sodarose Noffy gary00737 _lai Remapper [Hatsune Miku] Crystal Momochikun Nao Tomori Nao_Tomori Naotoshi Nevo DTM9 Nowa DTM9_Nowa Tokiko Koiyuki Minakami Yuki Minakami_Yuki Taeyang CoLouRed GlazeE CoLouRed_GlazeE Irohas MugiwaraSekai Lasse Riana Doormat Acyl Acylica Little CloudSplash16 AirinCat Hanazawa Kana Hanazawa_Kana Reillia Curi C_u_r_i [C_u_r_i]
BeatmapID:2036892
BeatmapSetID:972025

[Difficulty]
HPDrainRate:6
CircleSize:4
OverallDifficulty:8
ApproachRate:9
SliderMultiplier:1.8
SliderTickRate:1

[Events]
//Background and Video events
0,0,"boy.jpg",0,0
Video,140,"boy.mp4"
//Break Periods
//Storyboard Layer 0 (Background)
//Storyboard Layer 1 (Fail)
//Storyboard Layer 2 (Pass)
//Storyboard Layer 3 (Foreground)
//Storyboard Layer 4 (Overlay)
//Storyboard Sound Samples

[TimingPoints]
-467,329.67032967033,4,1,1,45,1,0
604,-100,4,1,1,5,0,0
851,329.67032967033,4,1,1,60,1,0
1098,-100,4,1,1,5,0,0
1181,-100,4,1,1,60,0,0
1593,-100,4,1,1,5,0,0
1675,-100,4,1,1,60,0,0
2417,-100,4,1,1,5,0,0
2500,-100,4,1,1,60,0,0
3736,-100,4,1,1,5,0,0
3818,-100,4,1,1,60,0,0
5054,-100,4,1,1,5,0,0
5137,-100,4,1,1,60,0,0
6373,-100,4,1,1,5,0,0
6456,-100,4,1,1,60,0,0
7692,-100,4,1,1,5,0,0
7774,-100,4,1,1,60,0,0
9010,-100,4,1,1,5,0,0
9092,-100,4,1,1,60,0,0
10329,-100,4,1,1,5,0,0
10411,-100,4,1,1,60,0,0
10658,-100,4,1,1,5,0,0
10741,-100,4,1,1,60,0,0
11401,-100,4,1,1,45,0,0
21620,-50,4,1,1,60,0,0
21867,-50,4,1,1,45,0,0
21950,-100,4,1,1,60,0,0
30109,-100,4,1,1,5,0,0
30192,-100,4,1,1,60,0,0
30439,-100,4,1,1,5,0,0
30522,-100,4,1,1,60,0,0
32170,-50,4,1,1,60,0,0
32500,-50,4,1,1,45,0,0
32664,-133.333333333333,4,1,1,45,0,0
37774,-83.3333333333333,4,1,1,75,0,1
41894,-83.3333333333333,4,1,1,5,0,1
41977,-83.3333333333333,4,1,1,75,0,1
43048,-133.333333333333,4,1,1,75,0,0
43296,-133.333333333333,4,1,1,5,0,0
43378,-66.6666666666667,4,1,1,75,0,1
43626,-66.6666666666667,4,1,1,5,0,1
43708,-83.3333333333333,4,1,1,75,0,1
49642,-100,4,1,1,75,0,1
53598,-83.3333333333333,4,1,1,75,0,1
54174,-83.3333333333333,4,1,1,5,0,1
54258,-83.3333333333333,4,1,1,75,0,1
59861,-83.3333333333333,4,1,1,75,0,0

[Colours]
Combo1 : 248,216,105
Combo2 : 90,197,154
Combo3 : 179,112,51
Combo4 : 249,104,17

[HitObjects]
112,149,522,6,0,L|107:91,1,45,0|0,1:0|1:0,1:0:0:0:
403,104,851,6,0,L|266:87,1,135,4|0,1:2|2:0,1:0:0:0:
246,84,1181,1,8,1:2:0:0:
472,145,1346,2,0,P|479:80|426:26,1,135,0|0,1:0|2:0,1:0:0:0:
413,26,1675,1,0,1:0:0:0:
330,140,1840,2,0,L|340:230,1,90,8|0,1:2|1:0,1:0:0:0:
435,377,2170,6,0,P|478:328|471:262,1,135,0|0,1:0|2:0,1:0:0:0:
456,246,2500,1,8,1:2:0:0:
336,329,2664,1,0,1:0:0:0:
240,238,2829,2,0,L|150:228,1,90,0|0,1:0|1:0,1:0:0:0:
150,228,3076,1,0,1:0:0:0:
150,228,3159,1,8,1:2:0:0:
335,185,3324,1,0,1:0:0:0:
206,350,3489,6,0,L|56:333,1,135,0|0,1:0|2:0,1:0:0:0:
49,332,3818,1,8,1:2:0:0:
160,138,3983,2,0,L|150:228,1,90,0|0,1:0|1:0,1:0:0:0:
245,181,4313,1,0,1:0:0:0:
67,158,4478,1,8,1:2:0:0:
114,58,4642,1,0,1:0:0:0:
228,69,4807,6,0,B|280:67|280:67|311:74|311:74|395:71,1,135,0|0,1:0|2:0,1:0:0:0:
378,72,5137,2,0,P|370:120|383:157,1,90,8|0,1:2|1:0,1:0:0:0:
507,153,5467,2,0,P|515:105|502:68,1,90,0|0,1:0|1:0,1:0:0:0:
446,238,5796,1,8,1:0:0:0:
250,319,5961,1,0,1:0:0:0:
250,319,6043,1,0,1:0:0:0:
250,319,6126,6,0,P|181:318|126:269,1,135,4|0,1:2|2:0,1:0:0:0:
124,256,6456,1,8,1:2:0:0:
119,41,6620,2,0,P|161:26|205:31,1,90,0|0,1:0|1:0,1:0:0:0:
256,140,6950,1,0,1:0:0:0:
306,31,7115,2,0,P|350:25|393:41,1,90,8|0,1:2|1:0,1:0:0:0:
396,272,7445,6,0,L|404:116,1,135,0|0,1:0|2:0,1:0:0:0:
380,140,7774,2,0,P|335:145|293:130,1,90,8|0,1:2|1:0,1:0:0:0:
306,31,8104,1,0,1:0:0:0:
488,172,8269,1,0,1:0:0:0:
488,172,8351,1,0,1:0:0:0:
488,172,8434,2,0,L|484:276,1,90,8|0,1:2|1:0,1:0:0:0:
286,265,8763,6,0,L|294:109,1,135,0|0,1:0|2:0,1:0:0:0:
280,112,9092,2,0,L|276:220,1,90,8|0,1:2|1:0,1:0:0:0:
368,164,9423,1,0,1:0:0:0:
188,152,9587,1,0,1:0:0:0:
273,291,9752,2,0,L|276:201,1,90,8|0,1:2|1:0,1:0:0:0:
248,24,10082,6,0,P|180:48|104:28,1,135,0|0,1:0|2:0,1:0:0:0:
119,36,10411,2,0,P|143:104|123:180,1,135,8|0,3:2|2:0,1:0:0:0:
120,184,10741,2,0,L|104:248,4,45,0|0|0|0|8,1:0|1:0|1:0|1:0|1:0,1:0:0:0:
236,128,11236,1,0,1:0:0:0:
236,128,11318,1,0,1:0:0:0:
236,128,11401,6,0,P|296:144|344:128,1,90,4|0,1:2|1:0,1:0:0:0:
476,140,11730,1,8,1:0:0:0:
476,140,11895,2,0,L|468:324,1,180,0|0,1:0|1:0,1:0:0:0:
393,268,12390,2,0,L|398:149,1,90,8|0,1:0|1:0,1:0:0:0:
400,92,12719,5,0,1:0:0:0:
335,28,12884,2,0,P|275:12|227:28,1,90,0|8,2:0|1:0,2:0:0:0:
322,138,13214,2,0,P|277:142|235:127,1,90,0|0,1:0|1:0,1:0:0:0:
170,64,13543,1,0,1:0:0:0:
98,198,13708,2,0,B|82:154|82:154|106:98,1,90,8|0,1:0|1:0,2:0:0:0:
235,134,14038,6,0,P|278:149|322:145,1,90,0|0,1:0|1:0,1:0:0:0:
400,92,14368,1,8,1:0:0:0:
400,92,14533,2,0,L|393:283,1,180,0|0,1:0|1:0,1:0:0:0:
318,322,15027,2,0,P|273:325|231:310,1,90,8|0,1:0|1:0,1:0:0:0:
162,251,15357,5,0,1:0:0:0:
54,335,15522,2,0,L|43:238,1,90,2|8,1:2|1:0,2:0:0:0:
168,238,15851,2,0,L|178:148,1,90,0|0,1:0|1:0,1:0:0:0:
31,164,16181,1,0,1:0:0:0:
31,164,16263,1,0,1:0:0:0:
31,164,16346,1,8,1:0:0:0:
189,67,16511,2,0,L|122:57,1,45,0|0,1:0|1:0,2:0:0:0:
104,39,16675,6,0,L|252:60,1,135,0|0,1:0|1:0,1:0:0:0:
259,62,17005,1,8,1:0:0:0:
330,116,17170,2,0,P|348:47|339:22,1,90,0|0,1:0|1:0,1:0:0:0:
259,62,17500,1,0,1:0:0:0:
433,87,17664,1,8,1:0:0:0:
330,116,17829,1,0,1:0:0:0:
487,25,17994,6,0,L|479:197,1,135,0|0,1:0|1:0,1:0:0:0:
479,182,18324,1,8,1:0:0:0:
418,248,18489,2,0,P|373:252|333:234,1,90,0|0,1:0|1:0,1:0:0:0:
300,150,18818,1,0,1:0:0:0:
389,159,18983,1,8,1:0:0:0:
245,228,19148,1,0,1:0:0:0:
149,223,19313,6,0,B|151:160|151:160|149:152|149:152|152:54,1,135,0|0,1:0|1:0,1:0:0:0:
142,67,19642,2,0,L|140:170,1,90,8|0,1:0|1:0,1:0:0:0:
235,156,19972,2,0,L|237:53,1,90,0|0,1:0|1:0,1:0:0:0:
50,63,20302,1,8,1:0:0:0:
49,153,20467,1,0,1:0:0:0:
151,159,20631,6,0,L|153:70,1,90,0|0,1:0|1:0,1:0:0:0:
59,67,20961,1,8,1:0:0:0:
249,70,21126,2,0,L|352:72,1,90,0|0,1:0|1:0,1:0:0:0:
433,5,21456,2,0,L|427:49,1,45,0|0,1:0|1:0,1:0:0:0:
460,135,21620,6,0,P|488:138|439:99,1,270,8|0,1:2|1:0,1:0:0:0:
345,231,21950,6,0,P|387:213|481:264,1,135,4|0,1:2|1:0,1:0:0:0:
478,261,22280,1,8,1:0:0:0:
279,288,22445,2,0,P|342:269|400:299,1,135,0|0,1:0|1:0,1:0:0:0:
411,320,22774,1,0,1:0:0:0:
205,339,22939,2,0,P|190:296|197:252,1,90,8|0,1:0|1:0,1:0:0:0:
279,288,23269,5,0,1:0:0:0:
105,299,23434,1,8,1:2:0:0:
105,299,23763,2,0,P|109:254|119:210,1,90,8|0,1:2|1:0,1:0:0:0:
189,109,24093,1,0,1:0:0:0:
193,87,24175,1,2,3:2:0:0:
187,64,24258,1,8,1:0:0:0:
104,98,24423,1,0,1:0:0:0:
278,119,24587,6,0,P|282:75|265:34,1,90,0|0,1:0|1:0,2:0:0:0:
102,11,24917,1,8,1:0:0:0:
104,98,25082,2,0,L|282:75,1,180,0|0,1:0|1:0,1:0:0:0:
191,0,25576,2,0,L|95:11,1,90,8|0,1:0|1:0,2:0:0:0:
116,184,25906,6,0,L|249:166,2,135,0|2|0,1:0|2:0|1:0,2:0:0:0:
103,97,26565,1,0,1:0:0:0:
197,257,26730,1,0,1:0:0:0:
197,257,26813,1,0,2:0:0:0:
197,257,26894,2,0,L|203:304,1,45,8|0,1:0|1:0,2:0:0:0:
286,295,27060,2,0,L|280:248,1,45,0|0,1:0|1:0,1:0:0:0:
116,184,27225,6,0,L|26:196,1,90,0|0,1:0|1:0,1:0:0:0:
82,273,27554,1,8,1:0:0:0:
103,97,27719,2,0,B|162:89|162:89|215:93|215:93|299:81,1,180,0|0,1:0|1:0,1:0:0:0:
367,111,28214,2,0,P|362:45|345:21,1,90,8|0,1:0|1:0,1:0:0:0:
189,92,28543,5,0,1:0:0:0:
213,182,28708,2,0,L|302:168,1,90,8|0,1:2|1:0,1:0:0:0:
456,97,29038,2,0,L|367:111,1,90,8|0,1:2|1:0,1:0:0:0:
392,237,29368,1,0,1:0:0:0:
388,215,29450,1,0,1:0:0:0:
384,191,29533,1,8,1:0:0:0:
355,32,29697,1,0,1:0:0:0:
302,168,29862,6,0,L|165:189,1,135,0|0,1:0|2:0,1:0:0:0:
123,186,30192,2,0,L|256:206,1,135,8|0,1:0|2:0,1:0:0:0:
301,212,30522,2,0,L|164:233,1,135,0|0,1:0|1:0,1:0:0:0:
145,237,30851,1,8,1:0:0:0:
207,301,31016,1,0,1:0:0:0:
31,341,31181,6,0,L|21:201,2,135,0|0|0,1:0|1:0|1:0,1:0:0:0:
122,384,31840,1,0,1:0:0:0:
104,208,32005,2,0,L|148:214,1,45,0|0,1:0|1:0,1:0:0:0:
177,292,32170,6,0,P|180:264|141:313,1,270,8|0,1:0|1:0,1:0:0:0:
290,335,32500,5,4,1:2:0:0:
290,335,32664,2,0,B|325:323|358:344|358:344|396:363|433:343,1,135.000005149842,0|0,1:0|1:0,1:0:0:0:
395,273,33159,1,0,1:0:0:0:
395,273,33324,2,0,P|381:212|431:154,1,135.000005149842,0|0,1:0|1:0,1:0:0:0:
501,173,33818,6,0,P|515:234|465:292,2,135.000005149842,0|0|0,1:0|1:0|1:0,1:0:0:0:
422,157,34642,1,0,1:0:0:0:
422,157,34807,1,0,1:0:0:0:
294,206,34972,1,0,1:0:0:0:
294,206,35302,5,0,1:0:0:0:
224,247,35467,2,0,L|217:330,1,67.5000025749208,0|0,1:0|1:0,1:0:0:0:
137,313,35796,2,0,L|142:245,1,67.5000025749208,0|0,1:0|1:0,1:0:0:0:
61,238,36126,2,0,L|55:305,1,67.5000025749208,0|0,1:0|1:0,1:0:0:0:
69,159,36456,5,0,1:0:0:0:
69,159,36620,1,0,1:0:0:0:
69,159,36950,1,0,1:0:0:0:
69,159,37609,5,0,1:0:0:0:
192,280,37774,6,0,B|228:284|260:326|260:326|288:284|328:280,1,161.999995056153,4|0,1:0|1:0,1:0:0:0:
331,306,38104,2,0,L|337:144,1,161.999995056153,8|0,1:0|1:0,1:0:0:0:
347,118,38434,2,0,P|398:145|500:111,2,161.999995056153,0|2|2,1:0|1:2|1:2,1:0:0:0:
256,60,39093,5,0,1:0:0:0:
188,224,39258,1,0,1:0:0:0:
164,120,39423,1,8,1:0:0:0:
266,154,39587,1,0,1:0:0:0:
85,198,39752,2,0,B|82:272|82:272|88:286|88:286|84:365,2,161.999995056153,2|2|0,1:2|2:0|1:0,1:0:0:0:
188,224,40412,5,0,1:0:0:0:
85,198,40576,1,0,1:0:0:0:
73,90,40741,1,8,1:0:0:0:
205,244,40906,1,0,1:0:0:0:
205,244,40989,2,0,P|233:192|224:117,1,107.999996704102,0|0,1:0|1:0,2:0:0:0:
222,119,41236,1,0,1:0:0:0:
319,165,41401,1,8,1:0:0:0:
412,111,41565,1,0,1:0:0:0:
258,325,41730,6,0,P|175:338|109:243,2,161.999995056153,2|2|2,1:2|1:2|1:2,1:0:0:0:
320,247,42390,1,2,1:3:0:0:
41,255,42554,1,2,1:3:0:0:
41,255,42637,1,2,1:3:0:0:
41,255,42719,2,0,L|47:321,1,53.9999983520508,8|0,1:0|1:0,1:0:0:0:
135,218,42884,2,0,L|140:165,1,53.9999983520508,0|0,3:0|2:0,2:0:0:0:
52,52,43049,6,0,P|85:24|63:62,1,101.250003862381,8|0,1:0|2:0,1:0:0:0:
58,81,43379,6,0,B|110:99|157:71|157:71|210:42|271:75,1,202.500007724762,12|0,1:0|2:0,1:0:0:0:
318,115,43708,6,0,P|393:137|491:87,2,161.999995056153,2|2|2,1:2|1:2|1:2,1:0:0:0:
392,2,44368,5,0,1:0:0:0:
399,168,44533,1,0,1:0:0:0:
406,175,44615,1,0,1:0:0:0:
406,175,44697,1,8,1:0:0:0:
318,115,44862,1,0,1:0:0:0:
451,252,45027,6,0,B|407:284|407:284|356:245,1,107.999996704102,2|0,1:2|1:0,1:0:0:0:
344,232,45274,2,0,P|275:216|217:242,1,107.999996704102,2|0,1:2|1:0,1:0:0:0:
231,251,45522,2,0,P|247:182|221:124,1,107.999996704102,2|4,1:2|1:0,1:0:0:0:
124,260,45851,5,0,1:0:0:0:
1,317,46016,1,8,1:0:0:0:
1,203,46181,1,0,1:0:0:0:
124,260,46346,1,8,1:0:0:0:
124,146,46511,1,0,1:0:0:0:
1,203,46675,1,8,1:0:0:0:
1,89,46840,1,0,1:0:0:0:
124,146,47005,6,0,P|207:179|295:112,1,161.999995056153,4|0,1:0|1:0,1:0:0:0:
286,129,47335,5,8,1:0:0:0:
306,112,47417,1,0,1:0:0:0:
331,100,47500,1,2,1:3:0:0:
357,96,47582,1,2,1:3:0:0:
384,98,47664,2,0,L|403:167,3,53.9999983520508,8|8|8|8,1:0|1:0|1:0|1:0,1:0:0:0:
466,61,47994,2,0,L|447:-8,3,53.9999983520508,8|8|8|8,1:2|1:0|1:0|1:0,1:0:0:0:
492,140,48324,5,4,1:0:0:0:
365,16,48489,2,0,L|249:20,1,107.999996704102,0|8,1:0|1:2,1:0:0:0:
149,25,48818,1,0,1:0:0:0:
18,238,48983,5,0,1:0:0:0:
145,114,49148,2,0,L|261:118,1,107.999996704102,0|8,1:0|1:2,1:0:0:0:
361,123,49478,1,0,1:0:0:0:
280,198,49642,6,0,P|256:165|253:115,1,90,0|0,1:0|1:0,1:0:0:0:
444,48,49972,2,0,P|468:81|471:131,1,90,8|0,1:0|1:0,1:0:0:0:
210,254,50302,1,0,1:0:0:0:
280,198,50467,1,2,1:2:0:0:
357,243,50631,1,8,1:0:0:0:
187,343,50796,6,0,L|175:149,1,180,0|0,1:0|1:0,2:0:0:0:
89,124,51291,2,0,B|76:169|76:169|94:220,1,90,8|0,1:0|1:0,2:0:0:0:
263,202,51620,2,0,B|275:157|275:157|257:105,1,90,0|0,1:0|1:0,2:0:0:0:
90,210,51950,2,0,L|-6:214,1,90,8|0,1:0|1:0,2:0:0:0:
261,116,52280,5,0,1:0:0:0:
331,172,52445,1,0,1:0:0:0:
408,127,52609,1,8,1:0:0:0:
386,39,52774,1,0,1:0:0:0:
386,39,52857,1,0,1:0:0:0:
386,39,52939,5,10,1:2:0:0:
296,33,53104,1,0,1:0:0:0:
408,127,53269,1,8,1:0:0:0:
386,39,53434,1,8,1:0:0:0:
331,172,53598,6,0,L|323:339,1,161.999995056153,12|0,1:0|1:0,1:0:0:0:
296,334,53927,2,0,P|254:292|146:318,1,161.999995056153,8|0,1:0|3:0,1:0:0:0:
140,324,54258,2,0,B|67:360|67:360|4:306,2,161.999995056153,0|0|2,1:0|1:0|1:2,1:0:0:0:
82,232,54917,5,0,1:0:0:0:
98,125,55082,2,0,L|112:61,1,53.9999983520508,0|0,1:0|1:0,1:0:0:0:
85,60,55247,2,0,P|147:85|204:58,1,107.999996704102,8|0,1:0|1:0,1:0:0:0:
349,16,55576,2,0,L|355:136,1,107.999996704102,0|0,1:0|1:0,1:0:0:0:
376,139,55823,2,0,L|370:259,1,107.999996704102,0|0,1:0|1:0,1:0:0:0:
355,269,56071,2,0,L|357:322,1,53.9999983520508,0|0,1:0|1:0,1:0:0:0:
359,350,56236,5,8,1:0:0:0:
254,324,56401,1,0,1:0:0:0:
167,259,56565,2,0,L|173:371,1,107.999996704102,8|0,1:0|1:0,1:0:0:0:
259,216,56895,2,0,L|253:328,1,107.999996704102,8|0,1:0|1:0,1:0:0:0:
161,151,57225,2,0,L|167:263,1,107.999996704102,8|0,1:0|1:0,1:0:0:0:
330,208,57554,5,12,1:0:0:0:
430,169,57719,1,0,1:0:0:0:
488,259,57884,2,0,L|490:398,2,107.999996704102,8|0|0,1:0|1:0|1:0,1:0:0:0:
345,112,58379,1,8,1:0:0:0:
330,208,58543,1,8,1:0:0:0:
430,169,58708,1,0,1:0:0:0:
252,148,58873,5,12,1:0:0:0:
242,255,59038,1,0,1:0:0:0:
97,189,59203,5,8,1:0:0:0:
165,271,59368,1,0,1:0:0:0:
82,340,59533,1,8,1:0:0:0:
