osu file format v14

[General]
AudioFilename: audio.mp3
AudioLeadIn: 0
PreviewTime: 37588
Countdown: 0
SampleSet: Normal
StackLeniency: 0.7
Mode: 0
LetterboxInBreaks: 0
WidescreenStoryboard: 1

[Editor]
Bookmarks: 522,59903
DistanceSpacing: 0.4
BeatDivisor: 4
GridSize: 16
TimelineZoom: 1.6

[Metadata]
Title:Telecaster B-boy
TitleUnicode:テレキャスタービーボーイ
Artist:Three feat. Kagamine Len
ArtistUnicode:すりぃ feat.鏡音レン
Creator:Ryuusei Aika
Version:GlazeE's Extra
Source:
Tags:パラドックス Paradox 3 Surii VOCALOID ボーカロイド Japanese Male vocal rock j-rock jrock pop j-pop jpop pappl e 104 pappl_e_104 papple papple104 Sodarose Noffy gary00737 _lai Remapper [Hatsune Miku] Crystal Momochikun Nao Tomori Nao_Tomori Naotoshi Nevo DTM9 Nowa DTM9_Nowa Tokiko Koiyuki Minakami Yuki Minakami_Yuki Taeyang CoLouRed GlazeE CoLouRed_GlazeE Irohas MugiwaraSekai Lasse Riana Doormat Acyl Acylica Little CloudSplash16 AirinCat Hanazawa Kana Hanazawa_Kana Reillia Curi C_u_r_i [C_u_r_i]
BeatmapID:2035917
BeatmapSetID:972025

[Difficulty]
HPDrainRate:7
CircleSize:4
OverallDifficulty:9
ApproachRate:9
SliderMultiplier:1.8
SliderTickRate:2

[Events]
//Background and Video events
Video,140,"boy.mp4"
0,0,"boy.jpg",0,0
//Break Periods
//Storyboard Layer 0 (Background)
//Storyboard Layer 1 (Fail)
//Storyboard Layer 2 (Pass)
//Storyboard Layer 3 (Foreground)
//Storyboard Layer 4 (Overlay)
//Storyboard Sound Samples

[TimingPoints]
-467,329.67032967033,4,1,1,45,1,0
851,329.67032967033,4,1,1,60,1,0
11401,-100,4,1,1,45,0,0
21620,-100,4,1,1,60,0,0
21674,-100,4,1,1,45,0,0
21784,-100,4,1,1,60,0,0
21839,-100,4,1,1,45,0,0
21949,-100,4,1,1,60,0,0
30109,-100,4,1,1,5,0,0
30192,-100,4,1,1,60,0,0
32500,-111.111111111111,4,1,1,45,0,0
37774,-90.9090909090909,4,1,1,75,0,0
41894,-90.9090909090909,4,1,1,5,0,0
41978,-90.9090909090909,4,1,1,75,0,0
43049,-111.111111111111,4,1,1,75,0,0
43296,-111.111111111111,4,1,1,5,0,0
43379,-90.9090909090909,4,1,1,75,0,0
52280,-100,4,1,1,75,0,0

[Colours]
Combo1 : 248,216,105
Combo2 : 90,197,154
Combo3 : 179,112,51
Combo4 : 249,104,17

[HitObjects]
214,237,522,5,0,1:0:0:0:
214,237,851,2,0,B|270:284|359:262,1,135,4|0,1:2|1:0,1:0:0:0:
375,245,1181,1,8,1:2:0:0:
312,171,1346,1,0,1:0:0:0:
261,345,1511,1,0,1:0:0:0:
362,298,1675,1,0,1:0:0:0:
270,185,1840,1,8,1:2:0:0:
192,305,2005,1,0,1:0:0:0:
356,263,2170,6,0,B|309:267|262:261,1,90,0|0,1:0|1:0,1:0:0:0:
141,235,2500,1,8,1:2:0:0:
169,106,2664,1,0,1:0:0:0:
356,166,2829,5,0,1:0:0:0:
338,294,2993,1,0,1:0:0:0:
338,294,3076,1,0,1:0:0:0:
338,294,3159,1,8,1:2:0:0:
258,206,3324,1,0,1:0:0:0:
443,235,3489,6,0,B|448:191|443:136,1,90,0|0,1:0|1:0,1:0:0:0:
461,106,3735,1,0,1:0:0:0:
461,106,3818,2,0,B|396:102|341:92,1,90,8|0,1:2|1:0,1:0:0:0:
279,66,4148,1,0,1:0:0:0:
339,188,4313,1,0,1:0:0:0:
192,213,4478,1,8,1:2:0:0:
222,329,4642,1,0,1:0:0:0:
355,277,4807,5,0,1:0:0:0:
355,277,4972,1,0,1:0:0:0:
121,270,5137,1,8,1:2:0:0:
121,270,5302,1,0,1:0:0:0:
286,327,5467,5,0,1:0:0:0:
224,240,5631,1,0,1:0:0:0:
181,333,5796,1,8,1:0:0:0:
71,186,5961,5,0,1:0:0:0:
71,186,6043,1,0,1:0:0:0:
71,186,6126,2,0,B|66:239|71:293,1,90,4|0,1:2|1:0,1:0:0:0:
205,185,6456,1,8,1:2:0:0:
157,268,6620,1,0,1:0:0:0:
242,310,6785,1,0,1:0:0:0:
157,268,6950,1,0,1:0:0:0:
354,295,7115,5,8,1:2:0:0:
261,218,7280,1,0,1:0:0:0:
387,178,7445,2,0,B|393:133|385:89,1,90,0|0,1:0|1:0,1:0:0:0:
251,108,7774,1,8,1:2:0:0:
261,218,7939,1,0,1:0:0:0:
380,220,8104,5,0,1:0:0:0:
334,343,8269,1,0,1:0:0:0:
334,343,8351,1,0,1:0:0:0:
334,343,8434,1,8,1:2:0:0:
252,272,8598,1,0,1:0:0:0:
77,335,8763,6,0,B|122:342|170:344,1,90,0|0,1:0|1:0,1:0:0:0:
210,350,9011,1,0,1:0:0:0:
210,350,9093,2,0,B|215:298|214:239,1,90,8|0,1:2|1:0,1:0:0:0:
209,163,9423,1,0,1:0:0:0:
120,216,9587,1,0,1:0:0:0:
288,222,9752,1,8,1:2:0:0:
298,313,9917,1,0,1:0:0:0:
391,152,10082,6,0,B|395:202|395:254,1,90,0|0,1:0|1:0,1:0:0:0:
217,335,10412,2,0,B|215:289|214:240,1,90,8|0,3:2|1:0,1:0:0:0:
301,94,10741,5,0,1:0:0:0:
302,118,10824,1,0,1:0:0:0:
303,142,10906,1,0,1:0:0:0:
304,166,10989,1,0,1:0:0:0:
305,190,11071,1,8,1:0:0:0:
306,215,11153,1,0,1:0:0:0:
307,239,11236,1,0,1:0:0:0:
308,263,11318,1,0,1:0:0:0:
311,287,11401,1,4,1:2:0:0:
391,351,11565,5,0,1:0:0:0:
443,211,11730,1,8,1:0:0:0:
357,266,11895,2,0,B|326:328|240:329|197:280,1,180,0|0,1:0|1:0,1:0:0:0:
168,203,12390,2,0,B|163:156|162:107,1,90,8|0,1:0|1:0,1:0:0:0:
82,226,12719,1,0,1:0:0:0:
23,301,12884,2,0,B|65:319|114:331,1,90,0|8,2:0|1:0,2:0:0:0:
232,351,13214,5,0,1:0:0:0:
298,289,13379,1,0,1:0:0:0:
232,351,13543,1,0,1:0:0:0:
213,248,13708,1,8,1:0:0:0:
298,289,13873,1,0,1:0:0:0:
432,213,14038,5,0,1:0:0:0:
385,302,14203,1,0,1:0:0:0:
330,205,14368,1,8,1:0:0:0:
410,134,14533,2,0,B|343:152|281:99|299:32,1,180,0|0,1:0|1:0,1:0:0:0:
228,142,15027,2,0,B|250:181|277:227,1,90,8|0,1:0|1:0,1:0:0:0:
291,328,15357,5,0,1:0:0:0:
201,313,15522,2,0,B|148:318|98:315,1,90,2|8,1:2|1:0,2:0:0:0:
34,177,15851,1,0,1:0:0:0:
109,233,16016,1,0,1:0:0:0:
129,140,16181,1,0,1:0:0:0:
129,140,16263,1,0,1:0:0:0:
129,140,16345,1,8,1:0:0:0:
40,207,16511,1,0,1:0:0:0:
131,274,16675,5,0,1:0:0:0:
37,310,16840,1,0,1:0:0:0:
165,348,17005,1,8,1:0:0:0:
228,278,17170,2,0,B|242:349|330:375|386:327,1,180,0|0,1:0|1:0,1:0:0:0:
357,249,17664,2,0,B|354:200|356:149,1,90,8|0,1:0|1:0,1:0:0:0:
445,217,17994,1,0,1:0:0:0:
445,217,18159,2,0,B|447:270|446:319,1,90,0|8,1:0|1:0,1:0:0:0:
275,237,18489,2,0,B|274:186|275:140,1,90,0|0,1:0|1:0,1:0:0:0:
176,78,18818,5,0,1:0:0:0:
204,172,18983,1,8,1:0:0:0:
111,157,19148,1,0,1:0:0:0:
153,304,19313,6,0,B|214:300|248:303,1,90,0|0,1:0|1:0,1:0:0:0:
368,253,19642,2,0,B|371:299|368:355,1,90,8|0,1:0|1:0,1:0:0:0:
257,217,19972,2,0,B|254:164|256:122,1,90,0|0,1:0|1:0,1:0:0:0:
411,72,20302,5,8,1:0:0:0:
398,165,20467,1,0,1:0:0:0:
240,98,20631,1,0,1:0:0:0:
330,90,20796,1,0,1:0:0:0:
319,261,20961,1,8,1:0:0:0:
296,174,21126,1,0,1:0:0:0:
449,269,21456,6,0,L|418:303,1,45,0|0,1:0|1:0,1:0:0:0:
324,350,21620,2,0,L|372:370,6,30,8|0|0|0|0|0|4,1:2|1:0|1:0|1:0|1:0|1:0|1:2,1:0:0:0:
332,226,22115,1,0,1:0:0:0:
420,269,22280,1,8,1:0:0:0:
255,296,22445,2,0,B|252:248|255:201,1,90,0|0,1:0|1:0,1:0:0:0:
332,77,22774,5,0,1:0:0:0:
392,175,22939,1,8,1:0:0:0:
444,72,23104,1,0,1:0:0:0:
306,189,23269,1,0,1:0:0:0:
455,268,23434,2,0,B|408:275|354:273,1,90,8|0,1:2|1:0,1:0:0:0:
220,338,23763,2,0,B|268:340|320:335,1,90,8|0,1:2|1:0,1:0:0:0:
381,233,24093,5,0,1:0:0:0:
381,233,24175,1,2,3:2:0:0:
381,233,24258,1,8,1:0:0:0:
398,348,24423,1,0,1:0:0:0:
308,301,24587,1,0,1:0:0:0:
463,281,24752,1,0,1:0:0:0:
425,147,24917,1,8,1:0:0:0:
381,233,25082,2,0,B|327:234|266:227,1,90,0|0,1:0|2:0,1:0:0:0:
221,148,25412,5,0,1:0:0:0:
315,155,25576,1,8,1:0:0:0:
302,309,25741,1,0,1:0:0:0:
208,302,25906,1,0,1:0:0:0:
123,343,26071,2,0,B|130:293|130:247,1,90,0|8,1:0|1:0,1:0:0:0:
226,177,26401,2,0,B|218:232|217:279,1,90,0|0,1:0|1:0,1:0:0:0:
279,347,26730,5,0,1:0:0:0:
279,347,26813,1,0,1:0:0:0:
279,347,26895,2,0,L|348:351,1,45,8|0,1:0|1:0,1:0:0:0:
434,287,27060,2,0,L|391:310,1,45,0|0,1:0|1:0,1:0:0:0:
307,253,27225,1,0,1:0:0:0:
296,112,27390,1,0,1:0:0:0:
380,183,27554,1,8,1:0:0:0:
221,164,27719,2,0,B|171:166|124:162,1,90,0|0,1:0|2:0,1:0:0:0:
296,112,28049,5,0,1:0:0:0:
307,253,28214,1,8,1:0:0:0:
441,243,28379,1,0,1:0:0:0:
356,335,28543,1,0,1:0:0:0:
441,243,28708,2,0,B|447:300|449:346,1,90,8|0,1:2|1:0,1:0:0:0:
307,253,29038,2,0,B|303:206|302:155,1,90,8|0,1:2|1:0,1:0:0:0:
442,103,29368,5,0,1:0:0:0:
442,103,29450,1,0,1:0:0:0:
442,103,29533,1,8,1:0:0:0:
460,203,29697,1,0,1:0:0:0:
355,235,29862,2,0,B|346:168|344:126,1,90,0|0,1:0|2:0,1:0:0:0:
358,99,30109,1,0,2:0:0:0:
358,99,30192,2,0,B|299:98|251:93,1,90,8|0,1:0|2:0,1:0:0:0:
96,64,30522,2,0,B|141:67|185:72,1,90,0|0,1:0|2:0,1:0:0:0:
274,208,30851,5,8,1:0:0:0:
282,317,31016,1,0,1:0:0:0:
274,208,31181,1,0,1:0:0:0:
174,269,31346,2,0,B|168:216|170:161,1,90,0|8,2:0|1:0,2:0:0:0:
368,142,31675,2,0,B|377:197|377:246,1,90,0|0,1:0|1:0,2:0:0:0:
274,350,32005,1,0,1:0:0:0:
274,350,32087,1,0,1:0:0:0:
274,350,32170,1,8,1:0:0:0:
276,227,32335,1,0,2:0:0:0:
292,88,32500,6,0,B|222:118|133:95,1,161.999995056153,4|0,1:2|1:0,1:0:0:0:
133,95,32994,1,0,1:0:0:0:
173,185,33159,2,0,B|130:177|81:168,1,80.9999975280763,0|0,1:0|1:0,1:0:0:0:
41,238,33489,2,0,B|90:251|125:255,1,80.9999975280763,0|0,1:0|1:0,1:0:0:0:
200,309,33818,6,0,B|243:305|294:307,1,80.9999975280763,0|0,1:0|1:0,1:0:0:0:
364,228,34148,2,0,B|321:231|274:229,1,80.9999975280763,0|0,1:0|1:0,1:0:0:0:
212,140,34478,2,0,B|256:138|294:138,1,80.9999975280763,0|0,1:0|1:0,1:0:0:0:
191,222,34807,1,0,1:0:0:0:
101,178,34972,5,0,1:0:0:0:
101,178,35054,1,0,1:0:0:0:
101,178,35137,2,0,B|92:242|99:344,1,161.999995056153,0|0,1:0|1:0,1:0:0:0:
178,304,35631,1,0,1:0:0:0:
255,347,35796,2,0,B|299:351|339:350,1,80.9999975280763,0|0,1:0|1:0,1:0:0:0:
272,224,36126,2,0,B|224:220|173:222,1,80.9999975280763,0|0,1:0|1:0,1:0:0:0:
86,259,36456,5,0,1:0:0:0:
143,97,36620,1,0,1:0:0:0:
143,97,36950,1,0,1:0:0:0:
364,298,37609,5,0,1:0:0:0:
427,236,37774,2,0,B|436:184|422:131,1,99.0000030212403,4|0,1:0|1:0,1:0:0:0:
298,40,38104,2,0,B|246:43|192:48,1,99.0000030212403,8|0,1:0|1:0,1:0:0:0:
95,190,38434,1,0,1:0:0:0:
162,305,38598,1,2,1:2:0:0:
162,305,38681,1,2,1:2:0:0:
162,305,38763,1,8,1:0:0:0:
37,336,38928,1,2,1:2:0:0:
77,119,39093,5,0,1:0:0:0:
51,262,39258,1,0,1:0:0:0:
185,155,39423,1,8,1:0:0:0:
32,182,39587,1,0,1:0:0:0:
152,75,39752,5,2,1:2:0:0:
126,233,39917,1,0,1:0:0:0:
126,233,40000,1,2,2:0:0:0:
126,233,40082,1,8,1:0:0:0:
54,134,40247,1,0,1:0:0:0:
284,169,40412,5,0,1:0:0:0:
157,152,40576,1,0,1:0:0:0:
281,255,40741,1,8,1:0:0:0:
186,320,40906,1,0,1:0:0:0:
186,320,40989,1,0,1:0:0:0:
186,320,41071,1,0,1:0:0:0:
205,222,41236,5,0,1:0:0:0:
286,350,41401,1,8,1:0:0:0:
134,337,41565,1,0,1:0:0:0:
261,274,41730,2,0,B|312:280|360:278,1,99.0000030212403,2|0,1:2|2:0,1:0:0:0:
407,250,41978,1,2,1:2:0:0:
407,250,42060,2,0,B|412:194|410:146,1,99.0000030212403,8|2,1:0|1:2,1:0:0:0:
338,34,42390,5,2,1:3:0:0:
193,52,42554,1,2,1:3:0:0:
193,52,42637,1,2,1:3:0:0:
193,52,42719,1,8,1:0:0:0:
207,202,42884,1,0,3:0:0:0:
37,212,43049,6,0,B|40:255|46:334,1,121.499996292114,8|0,1:0|2:0,1:0:0:0:
98,351,43379,2,0,B|94:297|89:248,1,99.0000030212403,12|0,1:0|1:0,1:0:0:0:
207,110,43708,1,2,1:2:0:0:
245,267,43873,1,0,1:0:0:0:
245,267,43956,1,2,1:2:0:0:
245,267,44038,1,8,1:0:0:0:
94,212,44203,1,2,1:2:0:0:
168,334,44368,5,0,1:0:0:0:
148,335,44450,1,0,1:0:0:0:
128,332,44533,1,0,1:0:0:0:
109,324,44615,1,0,1:0:0:0:
94,311,44697,2,0,B|91:256|96:194,1,99.0000030212403,8|0,1:0|1:0,1:0:0:0:
145,130,45027,1,2,1:2:0:0:
237,238,45192,1,0,1:0:0:0:
237,238,45274,1,2,1:2:0:0:
237,238,45357,1,0,1:0:0:0:
372,201,45522,1,2,1:2:0:0:
311,112,45686,5,4,1:0:0:0:
332,288,45851,1,0,1:0:0:0:
153,305,46016,1,8,1:0:0:0:
132,129,46181,1,0,1:0:0:0:
372,201,46346,5,8,1:0:0:0:
228,342,46511,1,0,1:0:0:0:
74,206,46675,1,8,1:0:0:0:
218,65,46840,1,0,1:0:0:0:
321,266,47005,5,4,1:0:0:0:
154,344,47170,1,0,1:0:0:0:
146,315,47252,1,0,1:0:0:0:
138,286,47335,1,8,1:0:0:0:
130,257,47417,1,0,1:0:0:0:
122,228,47500,1,2,1:3:0:0:
114,199,47582,1,2,1:3:0:0:
106,170,47664,2,0,L|161:177,1,49.5000015106202,8|8,1:0|1:0,1:0:0:0:
246,241,47829,6,0,L|301:248,1,49.5000015106202,8|8,1:0|1:0,1:0:0:0:
261,91,47994,2,0,L|316:98,1,49.5000015106202,8|8,1:2|1:0,1:0:0:0:
450,168,48159,6,0,L|400:161,1,49.5000015106202,8|8,1:0|1:0,1:0:0:0:
280,169,48324,1,4,1:0:0:0:
343,314,48489,1,0,1:0:0:0:
217,328,48653,1,8,1:2:0:0:
280,169,48818,1,0,1:0:0:0:
313,282,48983,5,0,1:0:0:0:
191,236,49148,1,0,1:0:0:0:
366,213,49313,1,8,1:2:0:0:
325,47,49478,5,0,1:0:0:0:
325,47,49560,1,0,1:0:0:0:
325,47,49642,1,0,1:0:0:0:
418,103,49807,1,0,1:0:0:0:
238,146,49972,1,8,1:0:0:0:
332,125,50137,1,0,1:0:0:0:
256,236,50302,5,0,1:0:0:0:
195,113,50467,1,2,1:2:0:0:
338,171,50631,1,8,1:0:0:0:
170,192,50796,5,0,1:0:0:0:
175,298,50961,1,0,1:0:0:0:
90,250,51126,1,0,1:0:0:0:
256,236,51291,1,8,1:0:0:0:
164,86,51456,5,0,1:0:0:0:
170,192,51620,1,0,1:0:0:0:
84,143,51785,1,0,1:0:0:0:
250,129,51950,1,8,1:0:0:0:
164,86,52115,1,0,1:0:0:0:
256,236,52280,6,0,B|259:284|257:332,1,90,0|0,1:0|1:0,2:0:0:0:
86,233,52609,2,0,B|83:178|85:127,1,90,8|0,1:0|1:0,1:0:0:0:
87,93,52857,1,0,1:0:0:0:
87,93,52939,1,10,1:2:0:0:
182,190,53104,1,0,1:0:0:0:
177,37,53269,1,8,1:0:0:0:
312,131,53434,5,8,1:0:0:0:
312,131,53516,1,8,1:0:0:0:
312,131,53598,2,0,B|363:135|411:133,1,90,12|2,1:0|1:2,1:0:0:0:
228,274,53928,2,0,B|181:277|137:272,1,90,8|0,1:0|1:0,1:0:0:0:
34,83,54258,5,0,1:0:0:0:
176,70,54423,1,2,1:2:0:0:
176,70,54505,1,0,1:0:0:0:
176,70,54587,1,8,1:0:0:0:
180,205,54752,1,2,1:2:0:0:
37,217,54917,1,0,1:0:0:0:
108,143,55082,5,0,1:0:0:0:
34,83,55247,1,8,1:0:0:0:
37,217,55412,1,0,1:0:0:0:
180,205,55576,2,0,B|232:208|281:206,1,90,0|0,1:0|1:0,1:0:0:0:
327,199,55824,1,0,1:0:0:0:
327,199,55906,2,0,B|332:249|331:304,1,90,8|0,1:0|1:0,1:0:0:0:
226,292,56236,5,8,1:0:0:0:
217,113,56401,1,0,1:0:0:0:
399,148,56565,1,8,1:0:0:0:
405,249,56730,1,0,1:0:0:0:
405,249,56813,1,0,1:0:0:0:
405,249,56895,1,8,1:0:0:0:
298,226,57060,1,0,1:0:0:0:
226,292,57225,1,8,1:0:0:0:
217,113,57390,1,0,1:0:0:0:
124,199,57554,5,12,1:0:0:0:
263,324,57719,1,0,1:0:0:0:
388,185,57884,1,8,1:0:0:0:
249,60,58049,1,0,1:0:0:0:
238,248,58214,5,0,1:0:0:0:
308,179,58379,1,8,1:0:0:0:
214,151,58543,1,8,1:0:0:0:
344,307,58708,5,0,1:0:0:0:
344,307,58790,1,8,1:0:0:0:
344,307,58873,1,12,1:0:0:0:
179,313,59038,1,0,1:0:0:0:
168,77,59203,1,8,1:0:0:0:
333,71,59368,1,0,1:0:0:0:
256,192,59533,5,8,1:0:0:0:
