osu file format v14

[General]
AudioFilename: audio.mp3
AudioLeadIn: 0
PreviewTime: 37588
Countdown: 0
SampleSet: Normal
StackLeniency: 0.7
Mode: 0
LetterboxInBreaks: 0
WidescreenStoryboard: 1

[Editor]
Bookmarks: 522,59903
DistanceSpacing: 0.4
BeatDivisor: 4
GridSize: 4
TimelineZoom: 3.899998

[Metadata]
Title:Telecaster B-boy
TitleUnicode:テレキャスタービーボーイ
Artist:Three feat. Kagamine Len
ArtistUnicode:すりぃ feat.鏡音レン
Creator:Ryuusei Aika
Version:Extra
Source:
Tags:パラドックス Paradox 3 Surii VOCALOID ボーカロイド Japanese Male vocal rock j-rock jrock pop j-pop jpop pappl e 104 pappl_e_104 papple papple104 Sodarose Noffy gary00737 _lai Remapper [Hatsune Miku] Crystal Momochikun Nao Tomori Nao_Tomori Naotoshi Nevo DTM9 Nowa DTM9_Nowa Tokiko Koiyuki Minakami Yuki Minakami_Yuki Taeyang CoLouRed GlazeE CoLouRed_GlazeE Irohas MugiwaraSekai Lasse Riana Doormat Acyl Acylica Little CloudSplash16 AirinCat Hanazawa Kana Hanazawa_Kana Reillia Curi C_u_r_i [C_u_r_i]
BeatmapID:2035098
BeatmapSetID:972025

[Difficulty]
HPDrainRate:7.1
CircleSize:4
OverallDifficulty:8.2
ApproachRate:9
SliderMultiplier:1.8
SliderTickRate:1

[Events]
//Background and Video events
Video,140,"boy.mp4"
0,0,"boy.jpg",0,0
//Break Periods
//Storyboard Layer 0 (Background)
//Storyboard Layer 1 (Fail)
//Storyboard Layer 2 (Pass)
//Storyboard Layer 3 (Foreground)
//Storyboard Layer 4 (Overlay)
//Storyboard Sound Samples

[TimingPoints]
-467,329.67032967033,4,1,1,45,1,0
851,329.67032967033,4,1,1,60,1,0
2829,-83.3333333333333,4,1,1,60,0,0
3489,-100,4,1,1,60,0,0
3736,-100,4,1,1,5,0,0
3818,-100,4,1,1,60,0,0
5467,-83.3333333333333,4,1,1,60,0,0
6291,-100,4,1,1,60,0,0
8269,-83.3333333333333,4,1,1,60,0,0
8763,-100,4,1,1,60,0,0
11401,-100,4,1,1,45,0,0
11895,-142.857142857143,4,1,1,45,0,0
16840,-125,4,1,1,45,0,0
21456,-25,4,1,1,45,0,0
21620,-25,4,1,1,60,0,0
21702,-25,4,1,1,45,0,0
21785,-25,4,1,1,60,0,0
21840,-25,4,1,1,45,0,0
21950,-100,4,1,1,60,0,0
30109,-100,4,1,1,5,0,0
30192,-100,4,1,1,60,0,0
32500,-100,4,1,1,45,0,0
34642,-142.857142857143,4,1,1,45,0,0
36291,-100,4,1,1,45,0,0
37774,-83.3333333333333,4,1,1,75,0,1
43048,-333.333333333333,4,1,1,75,0,0
43296,-333.333333333333,4,1,1,5,0,0
43377,-66.6666666666667,4,1,1,75,0,1
43626,-66.6666666666667,4,1,1,5,0,1
43708,-66.6666666666667,4,1,1,75,0,1
47005,-83.3333333333333,4,1,1,75,0,1
59532,-83.3333333333333,4,1,1,75,0,0

[Colours]
Combo1 : 248,216,105
Combo2 : 90,197,154
Combo3 : 179,112,51
Combo4 : 249,104,17

[HitObjects]
512,384,522,5,0,1:0:0:0:
0,0,851,6,0,P|70:3|134:0,1,135,4|0,1:2|1:0,1:0:0:0:
146,14,1181,1,8,1:2:0:0:
101,90,1346,5,0,1:0:0:0:
101,90,1511,1,0,1:0:0:0:
272,110,1675,5,0,1:0:0:0:
203,65,1840,2,0,L|192:189,1,90,8|0,1:2|1:0,1:0:0:0:
28,189,2170,2,0,L|159:175,1,90,0|0,1:0|1:0,1:0:0:0:
117,179,2417,1,0,1:0:0:0:
117,179,2499,1,8,1:2:0:0:
263,181,2664,5,0,1:0:0:0:
176,359,2829,2,0,P|174:309|181:244,1,107.999996704102,0|0,1:0|1:0,1:0:0:0:
185,242,3076,1,0,1:0:0:0:
202,231,3159,1,8,1:2:0:0:
101,314,3324,1,0,1:0:0:0:
256,291,3489,6,0,L|395:278,1,135,0|0,1:0|2:0,1:0:0:0:
408,273,3818,1,8,1:2:0:0:
313,368,3983,5,0,1:0:0:0:
313,368,4148,1,0,1:0:0:0:
358,200,4313,5,0,1:0:0:0:
280,123,4478,2,0,P|278:157|286:239,1,90,8|0,1:2|1:0,1:0:0:0:
507,127,4807,2,0,P|473:125|391:133,1,90,0|0,1:0|1:0,1:0:0:0:
417,128,5054,1,0,1:0:0:0:
417,128,5137,1,8,1:2:0:0:
476,206,5302,1,0,1:0:0:0:
493,43,5467,6,0,P|435:46|350:61,1,107.999996704102,0|0,1:0|1:0,1:0:0:0:
370,68,5714,2,0,L|381:8,1,53.9999983520508,0|8,1:0|1:0,1:0:0:0:
270,0,5961,1,0,1:0:0:0:
274,22,6043,1,0,1:0:0:0:
278,44,6126,5,4,1:2:0:0:
186,20,6291,2,0,L|183:69,1,45,0|0,1:0|1:0,1:0:0:0:
198,76,6456,6,0,P|150:74|76:84,1,90,8|0,1:2|1:0,1:0:0:0:
15,159,6785,1,0,1:0:0:0:
72,13,6950,1,0,1:0:0:0:
8,66,7115,5,8,1:2:0:0:
85,102,7280,1,0,1:0:0:0:
127,219,7445,2,0,L|117:388,1,135,0|0,1:0|1:0,1:0:0:0:
108,339,7774,1,8,1:2:0:0:
199,263,7939,1,0,0:0:0:0:
62,179,8104,5,0,1:0:0:0:
0,277,8269,2,0,L|84:282,1,53.9999983520508,0|0,1:0|1:0,1:0:0:0:
155,352,8434,2,0,L|102:356,1,53.9999983520508,8|0,1:2|1:0,1:0:0:0:
23,350,8598,1,0,1:0:0:0:
178,286,8763,6,0,P|227:282|301:289,1,90,0|0,1:0|1:0,1:0:0:0:
282,293,9011,1,0,0:0:0:0:
274,267,9093,1,8,1:2:0:0:
428,332,9258,5,0,1:0:0:0:
355,352,9423,1,0,1:0:0:0:
420,227,9587,1,0,1:0:0:0:
446,342,9752,5,8,1:2:0:0:
347,247,9917,1,0,1:0:0:0:
287,190,10082,1,0,1:0:0:0:
457,87,10329,1,0,1:0:0:0:
457,87,10412,2,0,P|414:94|356:97,1,90,8|0,3:2|1:0,1:0:0:0:
209,90,10741,5,0,1:0:0:0:
241,58,10824,1,0,1:0:0:0:
285,63,10906,1,0,1:0:0:0:
245,85,10989,1,0,1:0:0:0:
221,46,11071,5,8,1:0:0:0:
229,25,11153,1,0,1:0:0:0:
237,4,11236,1,0,1:0:0:0:
156,12,11401,5,4,1:2:0:0:
90,71,11565,1,0,1:0:0:0:
117,161,11730,1,8,1:0:0:0:
52,53,11895,2,0,L|39:203,1,125.999996154785,0|0,1:0|1:0,1:0:0:0:
65,257,12390,1,8,1:0:0:0:
100,277,12554,1,0,1:0:0:0:
25,292,12719,5,0,1:0:0:0:
123,201,12884,1,0,2:0:0:0:
71,358,13214,1,0,1:0:0:0:
277,236,13543,1,0,1:0:0:0:
139,211,13708,2,0,L|230:204,1,62.9999980773926,8|0,1:0|1:0,2:0:0:0:
296,252,14038,5,0,1:0:0:0:
350,321,14203,1,0,1:0:0:0:
430,355,14368,1,8,1:0:0:0:
356,286,14533,2,0,P|293:290|231:302,1,125.999996154785,0|0,1:0|1:0,1:0:0:0:
171,368,15027,1,8,1:0:0:0:
215,289,15192,1,0,1:0:0:0:
341,359,15357,5,0,1:0:0:0:
442,296,15522,2,0,L|462:301,1,20.9999993591309,2|0,1:2|1:0,2:0:0:0:
452,289,15631,2,0,L|472:294,1,20.9999993591309,0|8,1:0|1:0,1:0:0:0:
471,208,15851,2,0,P|474:172|474:131,1,62.9999980773926,0|0,1:0|1:0,1:0:0:0:
420,36,16181,1,0,1:0:0:0:
403,24,16263,1,0,1:0:0:0:
383,18,16346,1,8,1:0:0:0:
311,42,16511,1,0,1:0:0:0:
403,174,16675,5,0,1:0:0:0:
441,109,16840,2,0,P|476:106|512:100,1,72,0|8,1:0|1:0,1:0:0:0:
365,138,17170,2,0,P|272:149|219:208,1,144,0|0,1:0|1:0,1:0:0:0:
185,266,17664,1,8,1:0:0:0:
198,340,17829,1,0,1:0:0:0:
183,364,17994,5,0,1:0:0:0:
223,292,18159,1,0,1:0:0:0:
212,149,18489,1,0,1:0:0:0:
32,243,18818,1,0,1:0:0:0:
0,321,18983,2,0,P|36:317|97:317,1,72,8|0,1:0|1:0,1:0:0:0:
137,371,19313,6,0,L|145:252,1,108,0|0,1:0|2:0,1:0:0:0:
135,251,19642,2,0,P|130:215|135:169,1,72,8|0,1:0|1:0,1:0:0:0:
210,40,19972,2,0,P|212:75|207:111,1,72,0|0,1:0|1:0,1:0:0:0:
117,166,20302,1,8,1:0:0:0:
43,138,20467,1,0,1:0:0:0:
2,51,20631,5,0,1:0:0:0:
15,212,20796,1,0,1:0:0:0:
159,10,21126,1,0,1:0:0:0:
159,10,21456,6,0,B|194:60|175:92|175:92|177:55|229:14,1,180,0|0,1:0|1:0,1:0:0:0:
263,89,21620,2,0,B|318:114|318:152|318:152|301:118|325:57,1,180,8|0,1:2|2:0,1:0:0:0:
214,159,21785,5,0,1:0:0:0:
208,169,21840,1,0,1:0:0:0:
204,180,21895,1,0,1:0:0:0:
187,237,21950,2,0,L|301:227,1,90,4|0,1:2|1:0,1:0:0:0:
403,198,22280,1,8,1:0:0:0:
506,277,22445,6,0,P|436:271|373:337,1,135,0|0,1:0|2:0,1:0:0:0:
397,323,22774,1,0,1:0:0:0:
308,352,22939,1,8,1:0:0:0:
236,375,23104,1,0,1:0:0:0:
218,347,23269,6,0,L|183:351,1,22.5,0|0,1:0|1:0,1:0:0:0:
360,371,23434,2,0,L|428:379,1,45,8|0,1:2|2:0,1:0:0:0:
510,127,23763,2,0,L|442:135,1,45,8|0,1:2|2:0,1:0:0:0:
274,202,24093,1,0,1:0:0:0:
301,226,24175,1,2,3:2:0:0:
312,255,24258,1,8,1:0:0:0:
345,151,24423,5,0,1:0:0:0:
470,205,24587,2,0,P|423:205|379:220,1,90,0|0,1:0|1:0,2:0:0:0:
397,91,24917,1,8,1:0:0:0:
463,24,25082,2,0,P|406:52|319:44,1,135,0|0,1:0|2:0,1:0:0:0:
320,45,25412,1,0,1:0:0:0:
218,9,25576,1,8,1:0:0:0:
143,39,25741,1,0,1:0:0:0:
114,15,25906,5,0,1:0:0:0:
158,34,26016,1,0,1:0:0:0:
184,80,26126,1,0,1:0:0:0:
170,126,26236,1,8,1:0:0:0:
262,161,26401,2,0,P|189:159|87:194,1,180,0|0,1:0|1:0,1:0:0:0:
77,219,26813,1,0,1:0:0:0:
91,235,26895,5,8,1:0:0:0:
102,232,26950,1,0,1:0:0:0:
109,225,27005,1,0,1:0:0:0:
109,215,27060,1,0,1:0:0:0:
21,148,27225,5,0,1:0:0:0:
12,297,27390,1,0,1:0:0:0:
7,371,27554,1,8,1:0:0:0:
242,303,27719,6,0,L|88:324,1,135,0|0,1:0|2:0,1:0:0:0:
91,307,28049,1,0,1:0:0:0:
189,368,28214,2,0,L|278:380,1,90,8|0,1:0|1:0,1:0:0:0:
304,385,28543,6,0,L|307:363,1,22.5,0|0,1:0|2:0,1:0:0:0:
389,320,28708,2,0,L|383:275,1,45,8|0,1:2|2:0,1:0:0:0:
509,35,29038,2,0,L|503:79,1,45,8|0,1:2|2:0,1:0:0:0:
474,288,29368,1,0,1:0:0:0:
460,250,29450,1,0,1:0:0:0:
471,220,29533,1,8,1:0:0:0:
512,158,29697,5,0,1:0:0:0:
497,237,29862,2,0,P|425:237|362:225,1,135,0|0,1:0|2:0,1:0:0:0:
346,220,30192,2,0,P|283:229|228:253,1,90,8|0,1:0|2:0,1:0:0:0:
110,195,30522,2,0,P|173:186|228:162,1,90,0|0,1:0|2:0,1:0:0:0:
261,76,30851,5,8,1:0:0:0:
231,151,31016,1,0,1:0:0:0:
274,282,31181,5,0,1:0:0:0:
255,307,31291,1,0,1:0:0:0:
228,321,31401,1,0,1:0:0:0:
198,324,31511,1,8,1:0:0:0:
258,350,31675,6,0,P|189:353|120:383,1,135,0|0,1:0|2:0,1:0:0:0:
141,360,32005,2,0,L|188:363,1,45,0|0,1:0|1:0,1:0:0:0:
81,276,32170,2,0,L|34:279,1,45,8|0,1:0|2:0,1:0:0:0:
0,0,32500,5,4,1:2:0:0:
76,28,32664,1,0,1:0:0:0:
144,53,32829,1,0,1:0:0:0:
512,0,33159,5,0,1:0:0:0:
436,28,33324,1,0,1:0:0:0:
368,53,33489,1,0,1:0:0:0:
512,384,33818,5,0,1:0:0:0:
256,320,34148,1,0,1:0:0:0:
0,384,34478,1,0,1:0:0:0:
74,340,34642,2,0,L|76:389,2,31.4999990386963,0|0|0,1:0|1:0|1:0,1:0:0:0:
40,270,34972,6,0,L|48:224,1,31.4999990386963,0|0,1:0|1:0,1:0:0:0:
82,212,35137,1,0,1:0:0:0:
166,327,35302,2,0,L|149:283,1,31.4999990386963,0|0,1:0|1:0,1:0:0:0:
176,247,35467,1,0,1:0:0:0:
337,223,35631,2,0,L|290:215,1,31.4999990386963,0|0,1:0|1:0,1:0:0:0:
266,167,35796,1,0,1:0:0:0:
485,92,35961,2,0,L|455:127,1,31.4999990386963,0|0,1:0|1:0,1:0:0:0:
392,126,36126,1,0,1:0:0:0:
492,222,36291,2,0,B|475:247|509:282|491:309,1,90,0|0,1:0|1:0,1:0:0:0:
500,300,37609,2,0,L|445:308,1,45,0|0,1:0|1:0,1:0:0:0:
343,258,37774,6,0,L|233:274,1,107.999996704102,4|0,1:0|1:0,1:0:0:0:
219,288,38021,1,0,1:0:0:0:
201,302,38104,2,0,L|91:318,1,107.999996704102,8|0,1:0|1:0,1:0:0:0:
76,331,38351,1,0,1:0:0:0:
70,297,38434,6,0,P|117:310|180:313,1,107.999996704102,0|2,1:0|1:2,1:0:0:0:
194,327,38681,1,2,1:2:0:0:
212,341,38763,2,0,P|265:343|317:357,1,107.999996704102,8|2,1:0|1:2,1:0:0:0:
337,370,39011,1,0,1:0:0:0:
333,332,39093,1,0,1:0:0:0:
289,148,39258,5,0,1:0:0:0:
392,126,39423,1,8,1:0:0:0:
414,230,39587,1,0,1:0:0:0:
459,65,39752,5,2,1:2:0:0:
459,65,39835,1,0,1:0:0:0:
237,225,40000,1,2,2:0:0:0:
237,225,40082,1,8,1:0:0:0:
228,82,40247,1,0,1:0:0:0:
228,82,40329,1,0,1:0:0:0:
512,128,40576,5,0,1:0:0:0:
398,0,40741,1,8,1:0:0:0:
391,120,40906,1,0,1:0:0:0:
400,128,40989,2,0,L|323:137,1,53.9999983520508,0|0,1:0|1:0,1:0:0:0:
141,38,41236,1,0,1:0:0:0:
132,30,41318,1,0,1:0:0:0:
123,22,41401,2,0,L|199:13,1,53.9999983520508,8|0,1:0|1:0,1:0:0:0:
286,80,41565,2,0,L|210:71,1,53.9999983520508,0|0,1:0|2:0,1:0:0:0:
54,57,41730,5,2,1:2:0:0:
105,377,41978,1,2,1:2:0:0:
425,326,42225,1,2,1:2:0:0:
253,200,42390,5,2,1:3:0:0:
232,169,42472,1,0,1:0:0:0:
197,191,42554,1,2,1:3:0:0:
225,209,42637,1,2,1:3:0:0:
260,184,42719,1,8,1:0:0:0:
324,102,42884,1,0,3:0:0:0:
331,124,42967,1,0,2:0:0:0:
338,146,43049,6,0,P|339:171|338:196,1,40.4999987640381,8|0,1:0|2:0,1:0:0:0:
359,134,43379,2,0,P|353:236|355:337,1,202.500007724762,12|0,1:0|2:0,1:0:0:0:
446,368,43708,5,2,1:2:0:0:
486,383,43791,1,0,1:0:0:0:
260,353,43956,1,2,1:2:0:0:
264,384,44038,1,8,1:0:0:0:
40,327,44203,1,2,1:2:0:0:
24,340,44285,1,0,1:0:0:0:
119,360,44533,5,0,1:0:0:0:
144,242,44697,1,8,1:0:0:0:
164,147,44862,1,0,1:0:0:0:
46,122,45027,5,2,1:2:0:0:
13,149,45109,1,0,1:0:0:0:
243,89,45274,1,2,1:2:0:0:
252,16,45357,1,0,1:0:0:0:
449,49,45522,1,2,1:2:0:0:
483,73,45604,1,0,1:0:0:0:
492,146,45686,5,4,1:0:0:0:
397,194,45851,1,0,1:0:0:0:
254,266,46016,5,8,1:0:0:0:
159,314,46181,1,0,1:0:0:0:
39,374,46346,5,8,1:0:0:0:
134,326,46511,1,0,1:0:0:0:
277,254,46675,5,8,1:0:0:0:
372,206,46840,1,0,1:0:0:0:
508,136,47005,6,0,P|507:234|511:335,1,161.999995056153,4|0,1:0|1:0,1:0:0:0:
473,377,47335,5,8,1:0:0:0:
474,350,47417,1,0,1:0:0:0:
474,323,47500,1,2,1:3:0:0:
475,296,47582,1,2,1:3:0:0:
475,269,47664,5,8,1:0:0:0:
496,306,47747,1,8,1:0:0:0:
490,348,47829,1,8,1:0:0:0:
454,372,47912,1,8,1:0:0:0:
375,378,47994,5,8,1:2:0:0:
337,371,48076,1,8,1:0:0:0:
307,372,48159,1,8,1:0:0:0:
307,372,48241,1,8,1:0:0:0:
307,372,48324,6,0,L|192:379,1,107.999996704102,4|0,1:0|1:0,1:0:0:0:
90,233,48653,2,0,P|136:259|185:281,1,107.999996704102,8|0,1:2|1:0,1:0:0:0:
316,202,48983,2,0,L|264:305,1,107.999996704102,0|0,1:0|1:0,1:0:0:0:
87,320,49313,2,0,P|133:293|177:262,1,107.999996704102,8|0,1:2|1:0,1:0:0:0:
419,95,49642,5,0,1:0:0:0:
443,288,49807,1,0,1:0:0:0:
250,312,49972,1,8,1:0:0:0:
400,348,50137,5,0,1:0:0:0:
323,288,50302,1,0,1:0:0:0:
383,211,50467,1,2,1:2:0:0:
383,211,50631,1,8,1:0:0:0:
457,122,50796,6,0,P|398:129|337:130,1,107.999996704102,0|0,1:0|1:0,2:0:0:0:
277,107,51126,1,0,1:0:0:0:
200,44,51291,1,8,1:0:0:0:
269,0,51456,1,0,1:0:0:0:
225,263,51620,2,0,L|218:155,1,107.999996704102,0|0,1:0|1:0,2:0:0:0:
358,0,51950,2,0,L|351:107,1,107.999996704102,8|0,1:0|1:0,2:0:0:0:
204,245,52280,6,0,P|257:241|328:247,1,107.999996704102,0|0,1:0|1:0,2:0:0:0:
487,330,52609,1,8,1:0:0:0:
333,359,52774,1,0,1:0:0:0:
391,186,52939,2,0,P|387:240|390:294,1,107.999996704102,10|0,1:2|1:0,2:0:0:0:
437,384,53186,1,0,1:0:0:0:
437,384,53269,1,8,1:0:0:0:
265,305,53434,1,8,1:0:0:0:
233,288,53516,1,8,1:0:0:0:
186,286,53598,6,0,L|63:312,1,107.999996704102,12|2,1:0|1:2,1:0:0:0:
80,308,53846,1,0,1:0:0:0:
19,347,53928,2,0,L|142:373,1,107.999996704102,8|0,1:0|1:0,1:0:0:0:
124,369,54175,1,0,3:0:0:0:
67,384,54258,6,0,L|93:261,1,107.999996704102,0|2,1:0|1:2,2:0:0:0:
89,278,54505,1,0,1:0:0:0:
128,217,54587,2,0,L|154:340,1,107.999996704102,8|2,1:0|1:2,1:0:0:0:
150,322,54835,1,0,1:0:0:0:
164,292,54917,1,0,1:0:0:0:
54,215,55082,5,0,1:0:0:0:
39,97,55247,1,8,1:0:0:0:
79,8,55412,1,0,1:0:0:0:
17,70,55576,5,0,1:0:0:0:
86,82,55659,1,0,1:0:0:0:
277,115,55824,1,0,1:0:0:0:
359,129,55906,1,8,1:0:0:0:
486,151,56071,2,0,L|370:170,1,107.999996704102,0|8,1:0|1:0,1:0:0:0:
243,191,56401,5,0,1:0:0:0:
231,28,56565,1,8,1:0:0:0:
353,19,56730,1,0,1:0:0:0:
371,264,56895,1,8,1:0:0:0:
248,228,57060,1,0,1:0:0:0:
283,106,57225,1,8,1:0:0:0:
248,228,57390,1,0,1:0:0:0:
469,384,57554,5,12,1:0:0:0:
509,228,57719,1,0,1:0:0:0:
471,127,57884,1,8,1:0:0:0:
372,84,58049,1,0,1:0:0:0:
326,100,58131,1,0,1:0:0:0:
302,142,58214,1,0,1:0:0:0:
256,384,58379,5,8,1:0:0:0:
256,270,58543,1,8,1:0:0:0:
270,88,58708,1,0,1:0:0:0:
242,71,58791,1,8,1:0:0:0:
256,0,58873,5,12,1:0:0:0:
285,198,59038,1,0,1:0:0:0:
226,319,59203,1,8,1:0:0:0:
97,359,59368,1,0,1:0:0:0:
18,322,59533,1,8,1:0:0:0:
