osu file format v14

[General]
AudioFilename: audio.mp3
AudioLeadIn: 0
PreviewTime: 37588
Countdown: 0
SampleSet: Normal
StackLeniency: 0.4
Mode: 0
LetterboxInBreaks: 0
WidescreenStoryboard: 1

[Editor]
Bookmarks: 522
DistanceSpacing: 0.4
BeatDivisor: 4
GridSize: 4
TimelineZoom: 2.699999

[Metadata]
Title:Telecaster B-boy
TitleUnicode:テレキャスタービーボーイ
Artist:Three feat. Kagamine Len
ArtistUnicode:すりぃ feat.鏡音レン
Creator:Ryuusei Aika
Version:Doormat's Extra
Source:
Tags:パラドックス Paradox 3 Surii VOCALOID ボーカロイド Japanese Male vocal rock j-rock jrock pop j-pop jpop pappl e 104 pappl_e_104 papple papple104 Sodarose Noffy gary00737 _lai Remapper [Hatsune Miku] Crystal Momochikun Nao Tomori Nao_Tomori Naotoshi Nevo DTM9 Nowa DTM9_Nowa Tokiko Koiyuki Minakami Yuki Minakami_Yuki Taeyang CoLouRed GlazeE CoLouRed_GlazeE Irohas MugiwaraSekai Lasse Riana Doormat Acyl Acylica Little CloudSplash16 AirinCat Hanazawa Kana Hanazawa_Kana Reillia Curi C_u_r_i [C_u_r_i]
BeatmapID:2079609
BeatmapSetID:972025

[Difficulty]
HPDrainRate:5
CircleSize:4
OverallDifficulty:9
ApproachRate:9.3
SliderMultiplier:1.76
SliderTickRate:1

[Events]
//Background and Video events
0,0,"boy.jpg",0,0
Video,140,"boy.mp4"
//Break Periods
//Storyboard Layer 0 (Background)
//Storyboard Layer 1 (Fail)
//Storyboard Layer 2 (Pass)
//Storyboard Layer 3 (Foreground)
//Storyboard Layer 4 (Overlay)
//Storyboard Sound Samples

[TimingPoints]
-467,329.67032967033,4,1,1,45,1,0
851,329.67032967033,4,1,1,60,1,0
3736,-100,4,1,1,5,0,0
3818,-100,4,1,1,60,0,0
9010,-100,4,1,1,5,0,0
9092,-100,4,1,1,60,0,0
11401,-166.666666666667,4,1,1,45,0,0
16675,-133.333333333333,4,1,1,45,0,0
21620,-100,4,1,1,60,0,0
21674,-100,4,1,1,45,0,0
21784,-100,4,1,1,60,0,0
21839,-100,4,1,1,45,0,0
21950,-100,4,1,1,60,0,0
32500,-133.333333333333,4,1,1,45,0,0
37774,-83.3333333333333,4,1,1,75,0,1
41894,-83.3333333333333,4,1,1,5,0,1
41978,-83.3333333333333,4,1,1,75,0,1
43049,-333.333333333334,4,1,1,75,0,1
43296,-333.333333333334,4,1,1,5,0,1
43379,-55.5555555555556,4,1,1,75,0,1
43626,-55.5555555555556,4,1,1,5,0,1
43708,-55.5555555555556,4,1,1,75,0,1
44203,-83.3333333333333,4,1,1,75,0,1
59532,-83.3333333333333,4,1,1,75,0,0

[Colours]
Combo1 : 248,216,105
Combo2 : 90,197,154
Combo3 : 179,112,51
Combo4 : 249,104,17

[HitObjects]
119,119,522,6,0,L|114:140,1,22,0|0,1:0|1:0,1:0:0:0:
119,119,851,6,0,P|205:131|259:55,1,176,4|8,1:2|1:2,1:0:0:0:
370,287,1346,2,0,P|334:262|290:257,1,88,0|0,1:0|1:0,1:0:0:0:
64,312,1675,1,0,1:0:0:0:
296,372,1840,1,8,1:2:0:0:
56,328,2005,1,0,1:0:0:0:
180,56,2170,6,0,P|196:144|199:230,1,176,0|8,1:0|1:2,1:0:0:0:
392,356,2664,1,0,1:0:0:0:
468,192,2829,2,0,L|368:168,1,88,0|0,1:0|1:0,1:0:0:0:
320,252,3076,1,0,1:0:0:0:
320,252,3159,2,0,L|220:228,1,88,8|0,1:2|1:0,1:0:0:0:
312,28,3489,6,0,P|376:32|488:8,1,176,0|8,1:0|1:2,1:0:0:0:
395,295,3983,2,0,P|360:268|320:252,1,88,0|0,1:0|1:0,1:0:0:0:
80,296,4313,1,0,1:0:0:0:
144,80,4478,1,8,1:2:0:0:
88,312,4642,1,0,1:0:0:0:
332,360,4807,6,0,B|304:300|304:300|325:192,1,176,0|8,1:0|1:2,1:0:0:0:
96,32,5302,1,0,1:0:0:0:
24,204,5467,2,0,L|124:220,1,88,0|0,1:0|1:0,1:0:0:0:
156,308,5714,1,0,1:0:0:0:
156,308,5796,2,0,L|224:296,1,44,8|0,1:0|1:0,1:0:0:0:
344,164,5961,1,0,1:0:0:0:
344,164,6043,1,0,1:0:0:0:
344,164,6126,6,0,P|307:110|191:118,1,176,4|8,1:2|1:2,1:0:0:0:
296,352,6620,2,0,L|380:328,1,88,0|0,1:0|1:0,1:0:0:0:
484,160,6950,1,0,1:0:0:0:
256,200,7115,1,8,1:2:0:0:
488,140,7280,1,0,1:0:0:0:
512,384,7445,6,0,P|440:368|304:360,1,176,0|8,1:0|1:2,1:0:0:0:
160,176,7939,1,0,1:0:0:0:
344,76,8104,2,0,L|364:172,1,88,0|0,1:0|1:0,1:0:0:0:
300,240,8351,1,0,1:0:0:0:
300,240,8434,2,0,L|320:336,1,88,8|0,1:2|1:0,1:0:0:0:
28,219,8763,6,0,P|50:135|59:47,1,176,0|8,1:0|1:2,1:0:0:0:
292,0,9258,2,0,P|299:43|313:85,1,88,0|0,1:0|1:0,1:0:0:0:
472,256,9587,1,0,1:0:0:0:
440,28,9752,1,8,1:2:0:0:
452,264,9917,1,0,1:0:0:0:
176,140,10082,6,0,B|224:100|224:100|352:120,1,176,0|8,1:0|3:2,1:0:0:0:
184,308,10576,1,0,1:0:0:0:
508,352,10741,5,0,1:0:0:0:
508,352,10824,1,0,1:0:0:0:
508,352,10906,1,0,1:0:0:0:
508,352,10989,1,0,1:0:0:0:
507,352,11071,5,8,1:0:0:0:
494,299,11153,1,0,1:0:0:0:
452,264,11236,1,0,1:0:0:0:
398,259,11318,1,0,1:0:0:0:
351,286,11401,6,0,L|360:360,1,52.7999983886719,4|0,1:2|1:0,1:0:0:0:
256,324,11730,1,8,1:0:0:0:
240,200,11895,2,0,P|290:208|331:177,1,105.599996777344,0|0,1:0|1:0,1:0:0:0:
380,56,12390,1,8,1:0:0:0:
436,140,12554,1,0,1:0:0:0:
360,68,12719,5,0,1:0:0:0:
416,152,12884,2,0,L|480:148,1,52.7999983886719,0|8,2:0|1:0,2:0:0:0:
360,68,13214,2,0,L|232:60,1,105.599996777344,0|0,1:0|1:0,1:0:0:0:
80,16,13708,1,8,1:0:0:0:
144,126,13873,1,0,1:0:0:0:
416,0,14038,5,0,1:0:0:0:
351,110,14203,1,0,1:0:0:0:
496,68,14368,1,8,1:0:0:0:
431,178,14533,2,0,L|444:252,1,52.7999983886719,0|0,1:0|1:0,1:0:0:0:
400,336,14862,1,0,1:0:0:0:
308,180,15027,1,8,1:0:0:0:
267,285,15192,1,0,1:0:0:0:
332,200,15357,5,0,1:0:0:0:
291,305,15522,2,0,L|216:296,1,52.7999983886719,2|8,1:2|1:0,2:0:0:0:
332,200,15851,2,0,L|407:191,1,52.7999983886719,0|0,1:0|1:0,1:0:0:0:
144,156,16181,5,0,1:0:0:0:
141,177,16263,1,0,1:0:0:0:
138,199,16346,1,8,1:0:0:0:
40,64,16511,1,0,1:0:0:0:
275,124,16675,6,0,P|341:113|406:104,1,132,0|8,1:0|1:0,1:0:0:0:
436,260,17170,2,0,P|370:270|305:279,1,132,0|0,1:0|1:0,1:0:0:0:
154,328,17664,1,8,1:0:0:0:
256,384,17829,1,0,1:0:0:0:
204,224,17994,6,0,P|185:160|173:95,1,132.000005035401,0|8,1:0|1:0,1:0:0:0:
328,60,18489,2,0,P|346:123|358:188,1,132.000005035401,0|0,1:0|1:0,1:0:0:0:
373,379,18983,1,8,1:0:0:0:
440,288,19148,1,0,1:0:0:0:
291,280,19313,6,0,P|227:295|162:302,1,132.000005035401,0|8,1:0|1:0,1:0:0:0:
132,148,19807,2,0,P|196:132|261:125,1,132.000005035401,0|0,1:0|1:0,1:0:0:0:
426,82,20302,1,8,1:0:0:0:
356,192,20467,1,0,1:0:0:0:
332,16,20631,5,0,1:0:0:0:
356,192,20796,2,0,L|344:276,1,66.0000025177003,0|8,1:0|1:0,1:0:0:0:
332,16,21126,1,0,1:0:0:0:
332,16,21456,5,0,1:0:0:0:
172,204,21620,2,0,L|164:175,5,29.3333333333333,8|0|0|0|0|0,1:2|1:0|1:0|1:0|1:0|1:0,1:0:0:0:
212,272,21950,6,0,P|249:293|296:296,1,88,4|0,1:2|1:0,1:0:0:0:
276,152,22280,1,8,1:0:0:0:
88,260,22445,2,0,P|50:281|4:284,1,88,0|0,1:0|1:0,1:0:0:0:
24,140,22774,1,0,1:0:0:0:
212,272,22939,1,8,1:0:0:0:
12,156,23104,1,0,1:0:0:0:
140,368,23269,5,0,1:0:0:0:
216,156,23434,2,0,L|129:142,1,88,8|0,1:2|1:0,1:0:0:0:
140,368,23763,2,0,L|227:382,1,88,8|0,1:2|1:0,1:0:0:0:
340,172,24093,1,0,1:0:0:0:
340,172,24175,1,2,3:2:0:0:
340,172,24258,1,8,1:0:0:0:
164,244,24423,1,0,1:0:0:0:
468,376,24587,5,0,1:0:0:0:
308,340,24752,1,0,1:0:0:0:
500,208,24917,1,8,1:0:0:0:
340,172,25082,2,0,P|296:160|252:128,1,88,0|0,1:0|2:0,1:0:0:0:
444,68,25412,1,0,1:0:0:0:
396,312,25576,1,8,1:0:0:0:
468,80,25741,1,0,1:0:0:0:
500,360,25906,5,0,1:0:0:0:
288,336,26071,2,0,L|298:248,1,88,0|8,1:0|1:0,1:0:0:0:
500,156,26401,2,0,L|510:243,1,88,0|0,1:0|1:0,1:0:0:0:
276,65,26730,5,0,1:0:0:0:
297,65,26813,1,0,1:0:0:0:
318,65,26895,2,0,L|314:35,5,29.3333333333333,8|0|0|0|0|0,1:0|1:0|1:0|1:0|1:0|1:0,1:0:0:0:
372,136,27225,6,0,P|354:176|350:219,1,88,0|0,1:0|1:0,1:0:0:0:
408,352,27554,1,8,1:0:0:0:
184,368,27719,2,0,P|210:286|170:211,1,176,0|0,1:0|1:0,1:0:0:0:
0,96,28214,1,8,1:0:0:0:
68,296,28379,1,0,1:0:0:0:
236,104,28543,5,0,1:0:0:0:
68,296,28708,2,0,L|80:384,1,88,8|0,1:2|1:0,1:0:0:0:
248,192,29038,2,0,L|236:104,1,88,8|0,1:2|1:0,1:0:0:0:
456,196,29368,1,0,1:0:0:0:
456,196,29450,1,0,1:0:0:0:
456,196,29533,2,0,L|468:284,1,88,8|0,1:0|1:0,1:0:0:0:
248,192,29862,6,0,P|213:165|170:157,1,88,0|0,1:0|1:0,1:0:0:0:
344,24,30192,2,0,P|378:50|421:58,1,88,8|0,1:0|2:0,1:0:0:0:
467,283,30522,2,0,P|382:268|314:320,1,176,0|8,1:0|1:0,1:0:0:0:
412,380,31016,1,0,1:0:0:0:
252,204,31181,5,0,1:0:0:0:
172,300,31346,2,0,L|80:280,1,88,0|8,2:0|1:0,2:0:0:0:
252,204,31675,2,0,L|344:224,1,88,0|0,1:0|1:0,2:0:0:0:
99,39,32005,5,0,1:0:0:0:
99,39,32087,1,0,1:0:0:0:
99,39,32170,2,0,L|0:57,1,88,8|0,1:0|2:0,2:0:0:0:
184,76,32500,6,0,P|192:107|186:139,1,66.0000025177003,4|0,1:2|1:0,1:0:0:0:
112,164,32747,1,0,1:0:0:0:
112,164,32829,2,0,P|105:196|114:227,1,66.0000025177003,0|0,1:0|1:0,1:0:0:0:
208,300,33159,6,0,P|210:267|226:238,1,66.0000025177003,0|0,1:0|1:0,1:0:0:0:
304,232,33406,1,0,1:0:0:0:
304,232,33489,2,0,P|325:256|334:288,1,66.0000025177003,0|0,1:0|1:0,1:0:0:0:
434,365,33818,6,0,L|443:284,1,66.0000025177003,0|0,1:0|1:0,1:0:0:0:
334,288,34148,2,0,L|324:368,1,66.0000025177003,0|0,1:0|1:0,1:0:0:0:
434,365,34478,2,0,L|448:232,1,132.000005035401,0|0,1:0|1:0,1:0:0:0:
328,160,34972,1,0,1:0:0:0:
328,160,35054,1,0,1:0:0:0:
328,160,35137,6,0,P|287:179|250:180,1,66.0000025177003,0|0,1:0|1:0,1:0:0:0:
208,272,35467,2,0,P|177:239|164:204,1,66.0000025177003,0|0,1:0|1:0,1:0:0:0:
64,192,35796,2,0,P|85:152|114:129,1,66.0000025177003,0|0,1:0|1:0,1:0:0:0:
95,30,36126,2,0,P|138:38|169:58,1,66.0000025177003,0|0,1:0|1:0,1:0:0:0:
320,244,36456,5,0,1:0:0:0:
340,76,36620,1,0,1:0:0:0:
340,76,36950,1,0,1:0:0:0:
340,76,37774,6,0,P|264:108|160:28,1,211.199993554688,4|8,1:0|1:0,1:0:0:0:
56,256,38269,1,0,1:0:0:0:
56,256,38351,1,0,1:0:0:0:
56,256,38434,1,0,1:0:0:0:
232,288,38598,2,0,L|212:180,1,105.599996777344,2|8,1:2|1:0,1:0:0:0:
464,40,38928,6,0,L|444:143,1,105.599996777344,2|0,1:2|1:0,1:0:0:0:
240,32,39258,1,0,1:0:0:0:
376,280,39423,1,8,1:0:0:0:
152,184,39587,1,0,1:0:0:0:
420,96,39752,1,2,1:2:0:0:
404,384,39917,1,0,1:0:0:0:
404,384,40000,1,2,2:0:0:0:
404,384,40082,2,0,L|276:356,1,105.599996777344,8|0,1:0|1:0,1:0:0:0:
232,88,40412,6,0,P|283:77|322:42,1,105.599996777344,0|0,1:0|1:0,2:0:0:0:
200,304,40741,2,0,P|160:269|109:258,1,105.599996777344,8|0,1:0|1:0,1:0:0:0:
36,296,40989,1,0,1:0:0:0:
36,296,41071,1,0,1:0:0:0:
64,108,41236,1,0,1:0:0:0:
172,384,41401,1,8,1:0:0:0:
200,196,41565,1,0,1:0:0:0:
380,380,41730,6,0,L|492:360,1,105.599996777344,2|0,1:2|2:0,1:0:0:0:
412,272,41978,1,2,1:2:0:0:
412,272,42059,2,0,L|300:252,1,105.599996777344,8|2,1:0|1:2,1:0:0:0:
64,108,42390,6,0,P|92:64|91:12,1,105.599996777344,2|2,1:3|1:3,1:0:0:0:
183,72,42637,1,2,1:3:0:0:
183,72,42719,2,0,P|181:124|210:167,1,105.599996777344,8|0,1:0|3:0,1:0:0:0:
464,240,43049,6,0,L|468:200,1,39.5999987915039,8|0,1:0|2:0,1:0:0:0:
368,144,43379,6,0,P|324:248|396:335,1,237.599992749024,12|0,1:0|2:0,1:0:0:0:
476,336,43708,1,2,1:2:0:0:
237,381,43873,1,0,1:0:0:0:
196,371,43955,1,2,1:2:0:0:
155,361,44037,1,8,1:0:0:0:
232,111,44203,6,0,P|282:98|322:65,1,105.599996777344,2|0,1:2|1:0,1:0:0:0:
60,24,44533,1,0,1:0:0:0:
280,268,44697,1,8,1:0:0:0:
236,16,44862,1,0,1:0:0:0:
56,240,45027,1,2,1:2:0:0:
376,160,45192,1,0,1:0:0:0:
376,160,45274,1,2,1:2:0:0:
376,160,45357,1,0,1:0:0:0:
120,104,45522,1,2,1:2:0:0:
104,384,45686,6,0,P|152:362|204:355,1,105.599996777344,4|0,1:0|1:0,1:0:0:0:
488,216,46016,1,8,1:0:0:0:
204,260,46181,1,0,1:0:0:0:
480,364,46346,1,8,1:0:0:0:
188,260,46511,1,0,1:0:0:0:
504,216,46675,1,8,1:0:0:0:
172,260,46840,1,0,1:0:0:0:
348,0,47005,6,0,P|345:52|359:103,1,105.599996777344,4|0,1:0|1:0,1:0:0:0:
151,359,47335,1,8,1:0:0:0:
151,359,47417,1,0,1:0:0:0:
151,359,47500,1,2,1:3:0:0:
151,359,47582,1,2,1:3:0:0:
151,359,47664,5,8,1:0:0:0:
175,312,47747,1,8,1:0:0:0:
172,260,47829,1,8,1:0:0:0:
143,217,47912,1,8,1:0:0:0:
96,195,47994,6,0,L|32:208,1,52.7999983886719,8|8,1:2|1:0,1:0:0:0:
248,368,48159,2,0,L|312:355,1,52.7999983886719,8|8,1:0|1:0,1:0:0:0:
452,240,48324,5,4,1:0:0:0:
160,128,48489,1,0,1:0:0:0:
512,40,48653,5,8,1:2:0:0:
324,332,48818,5,0,1:0:0:0:
284,52,48983,1,0,1:0:0:0:
304,344,49148,1,0,1:0:0:0:
512,40,49313,5,8,1:2:0:0:
168,16,49478,6,0,P|148:88|248:172,1,211.199993554688,0|0,1:0|1:0,1:0:0:0:
484,152,49972,1,8,1:0:0:0:
220,320,50137,1,0,1:0:0:0:
260,68,50302,1,0,1:0:0:0:
500,272,50467,2,0,P|485:329|484:394,1,105.599996777344,2|8,1:2|1:0,2:0:0:0:
204,212,50796,6,0,P|305:218|373:142,1,211.199993554688,0|0,1:0|1:0,2:0:0:0:
99,79,51291,1,8,1:0:0:0:
179,319,51456,1,0,1:0:0:0:
255,99,51620,1,0,1:0:0:0:
15,255,51785,1,0,1:0:0:0:
0,23,51950,1,8,1:0:0:0:
203,211,52115,1,0,1:0:0:0:
436,32,52280,6,0,P|344:64|244:-8,1,211.199993554688,0|8,1:0|1:0,2:0:0:0:
108,200,52774,1,0,1:0:0:0:
108,200,52857,1,0,1:0:0:0:
108,200,52939,1,10,1:2:0:0:
328,284,53104,1,0,1:0:0:0:
40,372,53269,1,8,1:0:0:0:
212,248,53434,1,8,1:0:0:0:
52,100,53598,6,0,P|-14:176|16:272,1,211.199993554688,12|8,1:0|1:0,1:0:0:0:
260,148,54093,1,0,1:0:0:0:
260,148,54175,1,0,3:0:0:0:
260,148,54258,1,0,1:0:0:0:
340,336,54423,2,0,L|232:352,1,105.599996777344,2|8,1:2|1:0,2:0:0:0:
356,116,54752,6,0,P|404:95|438:56,1,105.599996777344,2|0,1:2|1:0,2:0:0:0:
176,64,55082,1,0,1:0:0:0:
344,264,55247,1,8,1:0:0:0:
292,32,55412,1,0,1:0:0:0:
152,308,55576,1,0,1:0:0:0:
120,148,55741,1,0,1:0:0:0:
120,148,55824,1,0,1:0:0:0:
120,148,55906,2,0,L|224:164,1,105.599996777344,8|0,1:0|1:0,1:0:0:0:
448,328,56236,5,8,1:0:0:0:
200,260,56401,1,0,1:0:0:0:
448,120,56565,1,8,1:0:0:0:
316,372,56730,1,0,1:0:0:0:
316,372,56813,1,0,1:0:0:0:
316,372,56895,1,8,1:0:0:0:
296,132,57060,1,0,1:0:0:0:
164,384,57225,1,8,1:0:0:0:
144,144,57390,1,0,1:0:0:0:
440,324,57554,5,12,1:0:0:0:
129,267,57719,1,0,1:0:0:0:
414,131,57884,1,8,1:0:0:0:
114,267,58049,1,0,1:0:0:0:
452,340,58214,5,0,1:0:0:0:
288,80,58379,1,8,1:0:0:0:
208,380,58543,1,8,1:0:0:0:
136,40,58708,1,0,1:0:0:0:
136,40,58791,1,8,1:0:0:0:
136,40,58873,5,12,1:0:0:0:
408,192,59038,1,0,1:0:0:0:
98,228,59203,1,8,1:0:0:0:
326,16,59368,1,0,1:0:0:0:
265,321,59533,1,8,1:0:0:0:
