osu file format v14

[General]
AudioFilename: audio.mp3
AudioLeadIn: 0
PreviewTime:37588
Countdown: 0
SampleSet: Normal
StackLeniency: 0.7
Mode: 0
LetterboxInBreaks: 0
WidescreenStoryboard: 1

[Editor]
Bookmarks: 521,45714,59899
DistanceSpacing: 0.4
BeatDivisor: 4
GridSize: 4
TimelineZoom: 2.799999

[Metadata]
Title:Telecaster B-boy
TitleUnicode:テレキャスタービーボーイ
Artist:Three feat. Kagamine Len
ArtistUnicode:すりぃ feat.鏡音レン
Creator:Ryuusei Aika
Version:Acyl's Extra
Source:
Tags:パラドックス Paradox 3 Surii VOCALOID ボーカロイド Japanese Male vocal rock j-rock jrock pop j-pop jpop pappl e 104 pappl_e_104 papple papple104 Sodarose Noffy gary00737 _lai Remapper [Hatsune Miku] Crystal Momochikun Nao Tomori Nao_Tomori Naotoshi Nevo DTM9 Nowa DTM9_Nowa Tokiko Koiyuki Minakami Yuki Minakami_Yuki Taeyang CoLouRed GlazeE CoLouRed_GlazeE Irohas MugiwaraSekai Lasse Riana Doormat Acyl Acylica Little CloudSplash16 AirinCat Hanazawa Kana Hanazawa_Kana Reillia Curi C_u_r_i [C_u_r_i]
BeatmapID:2040423
BeatmapSetID:972025

[Difficulty]
HPDrainRate:5.3
CircleSize:4.3
OverallDifficulty:8.5
ApproachRate:9
SliderMultiplier:1.8
SliderTickRate:1

[Events]
//Background and Video events
Video,140,"boy.mp4"
0,0,"boy.jpg",0,0
//Break Periods
//Storyboard Layer 0 (Background)
//Storyboard Layer 1 (Fail)
//Storyboard Layer 2 (Pass)
//Storyboard Layer 3 (Foreground)
//Storyboard Layer 4 (Overlay)
//Storyboard Sound Samples

[TimingPoints]
-467,329.67032967033,4,1,1,45,1,0
521,-100,4,1,1,45,0,0
604,-100,4,1,1,5,0,0
851,329.67032967033,4,1,1,60,1,0
851,-100,4,1,1,60,0,0
11400,-100,4,1,1,45,0,0
21619,-100,4,1,1,60,0,0
32499,-133.333333333333,4,1,1,45,0,0
37608,-100,4,1,1,45,0,0
37773,-100,4,1,1,75,0,0

[Colours]
Combo1 : 240,227,155
Combo2 : 214,146,243
Combo3 : 155,245,146
Combo4 : 156,243,245

[HitObjects]
400,284,522,6,0,P|404:232|436:188,1,90
288,128,851,6,0,B|262:237|335:184|285:337,1,180,4|8,1:2|1:2,1:0:0:0:
220,360,1346,1,0,1:0:0:0:
120,280,1511,2,0,P|172:280|220:252,1,90,0|0,1:0|1:0,0:0:0:0:
184,176,1840,1,8,1:2:0:0:
295,303,2005,1,0,1:0:0:0:
384,104,2170,6,0,L|396:304,1,180,0|8,1:0|1:2,1:0:0:0:
400,380,2664,1,0,1:0:0:0:
232,368,2829,2,0,P|280:340|348:344,1,90,0|0,1:0|1:0,0:0:0:0:
314,336,3076,1,0,1:0:0:0:
314,336,3159,1,8,1:2:0:0:
88,232,3324,1,0,1:0:0:0:
48,328,3489,6,0,P|120:332|192:224,1,180,0|8,1:0|1:2,1:0:0:0:
56,148,3983,1,0,1:0:0:0:
152,84,4148,2,0,P|148:140|164:212,1,90,0|0,1:0|1:0,0:0:0:0:
292,224,4478,1,8,1:2:0:0:
312,136,4642,1,0,1:0:0:0:
488,244,4807,6,0,B|368:244|436:316|284:308,1,180,0|8,1:0|1:2,1:0:0:0:
200,212,5302,1,0,1:0:0:0:
216,384,5467,2,0,P|224:332|244:280,1,90,0|0,1:0|1:0,0:0:0:0:
237,296,5714,1,0,1:0:0:0:
237,296,5796,1,8,1:0:0:0:
48,208,5961,1,0,1:0:0:0:
96,300,6126,6,0,P|148:240|120:132,1,180,4|8,1:2|1:2,1:0:0:0:
44,104,6620,1,0,1:0:0:0:
208,16,6785,2,0,P|208:76|224:124,1,90,0|0,1:0|1:0,0:0:0:0:
360,160,7115,1,8,1:2:0:0:
424,96,7280,1,0,1:0:0:0:
400,256,7445,6,0,P|332:180|240:200,1,180,0|8,1:0|1:2,1:0:0:0:
176,324,7939,1,0,1:0:0:0:
120,152,8104,2,0,P|160:180|168:248,1,90,0|0,1:0|1:0,0:0:0:0:
173,218,8351,1,0,1:0:0:0:
173,218,8434,1,8,1:2:0:0:
36,104,8598,1,0,1:0:0:0:
120,60,8763,6,0,B|224:40|192:116|308:92,1,180,0|8,1:0|1:2,1:0:0:0:
360,32,9258,1,0,1:0:0:0:
408,216,9423,2,0,P|372:176|312:168,1,90,0|0,1:0|1:0,0:0:0:0:
256,204,9752,1,8,1:2:0:0:
444,328,9917,1,0,1:0:0:0:
496,252,10082,6,0,P|416:240|352:332,1,180,0|8,1:0|1:0,1:0:0:0:
180,320,10576,1,0,1:0:0:0:
256,368,10741,5,0,1:0:0:0:
261,357,10823,1,0,1:0:0:0:
265,347,10905,1,0,1:0:0:0:
267,336,10988,1,0,1:0:0:0:
269,325,11070,1,8,1:0:0:0:
104,264,11236,1,0,1:0:0:0:
172,124,11401,6,0,L|180:256,1,90,4|0,1:2|0:0,1:0:0:0:
88,76,11730,1,8,1:0:0:0:
10,277,11895,2,0,B|122:269|74:333|202:317,1,180,0|0,1:0|1:0,1:0:0:0:
216,172,12390,1,8,1:0:0:0:
268,344,12554,1,0,1:0:0:0:
240,256,12719,6,0,P|296:256|348:300,1,90,0|0,1:0|0:0,1:0:0:0:
180,320,13049,1,8,1:0:0:0:
96,276,13214,6,0,P|72:220|168:124,1,180,0|0,1:0|1:0,1:0:0:0:
216,172,13708,1,8,1:0:0:0:
144,44,13873,1,0,1:0:0:0:
316,112,14038,6,0,P|264:100|232:56,1,90,0|0,1:0|0:0,1:0:0:0:
388,60,14368,1,8,1:0:0:0:
364,208,14533,2,0,P|396:164|532:176,1,180,0|0,1:0|1:0,1:0:0:0:
380,300,15027,2,0,P|304:284|284:252,1,90,8|0,1:0|1:0,0:0:0:0:
184,128,15357,6,0,L|196:240,1,90,0|0,1:0|0:0,1:0:0:0:
124,284,15686,1,8,1:0:0:0:
282,365,15851,2,0,P|290:297|318:249,1,90,0|0,1:0|1:0,1:0:0:0:
440,160,16181,5,0,1:0:0:0:
440,160,16263,1,0,1:0:0:0:
440,160,16346,1,8,1:0:0:0:
380,300,16511,1,0,1:0:0:0:
296,124,16675,6,0,P|344:116|400:76,1,90,0|0,1:0|0:0,1:0:0:0:
404,8,17005,1,8,1:0:0:0:
228,56,17170,6,0,P|168:44|76:136,1,180,0|0,1:0|1:0,1:0:0:0:
232,200,17664,1,8,1:0:0:0:
300,4,17829,1,0,1:0:0:0:
340,168,17994,6,0,P|312:124|340:60,1,90,0|0,1:0|0:0,1:0:0:0:
384,32,18324,1,8,1:0:0:0:
440,192,18489,2,0,B|328:176|372:248|260:232,1,180,0|0,1:0|1:0,1:0:0:0:
200,168,18983,1,8,1:0:0:0:
104,316,19148,1,0,1:0:0:0:
96,228,19313,6,0,P|136:232|180:272,1,90,0|0,1:0|0:0,1:0:0:0:
240,376,19642,2,0,P|288:324|404:332,1,180,8|0,1:0|1:0,0:0:0:0:
456,384,20137,1,0,1:0:0:0:
504,196,20302,2,0,P|480:240|432:264,1,90,8|0,1:0|1:0,0:0:0:0:
280,236,20631,5,0,1:0:0:0:
360,192,20796,2,0,L|372:88,1,90,0|8,0:0|1:0,0:0:0:0:
188,212,21126,2,0,L|200:316,1,90,0|0,1:0|1:0,1:0:0:0:
280,352,21456,5,0,1:0:0:0:
93,125,21620,2,0,L|85:176,4,30,8|0|0|0|0,1:2|0:0|0:0|1:0|0:0,1:0:0:0:
8,184,21950,6,0,P|32:236|32:304,1,90,4|0,1:2|1:0,0:0:0:0:
0,352,22280,1,8,1:0:0:0:
128,272,22445,2,0,B|244:260|184:332|320:316,1,180,0|0,1:0|1:0,1:0:0:0:
464,204,22939,1,8,1:0:0:0:
376,364,23104,1,0,1:0:0:0:
304,144,23269,5,0,1:0:0:0:
468,300,23434,2,0,P|408:284|376:236,1,90,8|0,1:2|1:0,1:0:0:0:
364,16,23763,2,0,P|388:68|384:120,1,90,8|0,1:2|1:0,1:0:0:0:
276,236,24093,1,0,1:0:0:0:
276,236,24175,1,0,1:0:0:0:
276,236,24258,1,8,1:0:0:0:
196,40,24423,1,0,1:0:0:0:
100,252,24587,6,0,P|156:232|188:176,1,90,0|0,1:0|1:0,0:0:0:0:
16,204,24917,1,8,1:0:0:0:
40,16,25082,2,0,P|96:56|88:168,1,180,0|0,1:0|1:0,1:0:0:0:
16,292,25576,1,8,1:0:0:0:
176,210,25741,1,0,1:0:0:0:
92,360,25906,5,0,1:0:0:0:
95,159,26071,1,0,0:0:0:0:
95,159,26153,1,2,2:0:0:0:
95,159,26236,1,8,1:0:0:0:
232,320,26401,2,0,P|248:264|280:228,1,90,0|0,1:0|1:0,0:0:0:0:
424,184,26730,1,0,1:0:0:0:
424,184,26813,1,0,1:0:0:0:
424,184,26895,2,0,L|372:176,4,30,8|0|0|0|0,1:0|0:0|0:0|1:0|0:0,0:0:0:0:
324,112,27225,6,0,P|304:64|316:12,1,90,0|0,1:0|1:0,0:0:0:0:
112,80,27554,1,8,1:0:0:0:
180,144,27719,2,0,B|200:256|128:212|156:344,1,180,0|0,1:0|1:0,0:0:0:0:
328,360,28214,1,8,1:0:0:0:
268,192,28379,1,0,1:0:0:0:
220,380,28543,5,0,1:0:0:0:
400,304,28708,2,0,P|368:276|316:272,1,90,8|0,1:2|1:0,1:0:0:0:
124,196,29038,2,0,P|172:172|196:124,1,90,8|0,1:2|1:0,1:0:0:0:
204,0,29368,1,0,1:0:0:0:
204,0,29450,1,0,1:0:0:0:
204,0,29533,1,8,1:0:0:0:
268,192,29697,1,0,1:0:0:0:
360,40,29862,6,0,P|324:80|316:152,1,90,0|0,1:0|1:0,1:0:0:0:
220,308,30192,2,0,P|200:252|164:216,1,90,8|0,1:0|1:0,1:0:0:0:
56,72,30522,6,0,B|160:60|120:128|240:112,1,180,0|8,1:0|1:0,1:0:0:0:
360,40,31016,1,0,1:0:0:0:
342,195,31181,6,0,P|334:139|306:107,1,90,0|0,1:0|1:0,0:0:0:0:
226,113,31511,1,8,1:0:0:0:
452,20,31675,2,0,L|444:212,1,180,0|0,1:0|1:0,1:0:0:0:
445,199,32087,1,0,1:0:0:0:
445,199,32170,1,8,1:0:0:0:
360,40,32335,1,0,1:0:0:0:
193,140,32500,5,4,1:2:0:0:
193,140,32664,2,0,P|253:104|345:136,1,135,0|0,0:0|1:0,0:0:0:0:
196,228,33159,1,2,0:3:0:0:
196,228,33324,2,0,B|116:232|144:180|56:184,1,135.000005149842,0|0,1:0|0:0,1:0:0:0:
32,320,33818,6,0,P|84:296|108:296,1,67.5000025749208,2|0,1:3|0:0,1:0:0:0:
164,364,34148,1,2,1:3:0:0:
196,228,34478,2,0,L|356:216,1,135.000005149842,2|2,0:3|1:3,0:0:0:0:
396,284,34972,6,0,P|372:224|420:152,1,135.000005149842
496,176,35467,1,2,1:3:0:0:
368,80,35631,1,0,1:0:0:0:
476,24,35796,2,0,P|460:72|460:116,1,67.5000025749208,2|0,0:3|1:0,0:0:0:0:
296,184,36126,2,0,P|288:128|268:96,1,67.5000025749208,2|0,1:3|0:0,1:0:0:0:
192,72,36456,1,2,1:0:0:0:
100,176,36620,6,0,P|160:168|216:224,1,135.000005149842,0|0,1:0|1:0,0:0:0:0:
400,280,37609,1,0,1:0:0:0:
328,344,37774,6,0,P|304:284|316:232,1,90,4|2,1:0|0:2,1:0:0:0:
448,52,38104,2,0,L|444:160,1,90,8|2,1:0|1:2,1:0:0:0:
248,188,38434,5,0,1:0:0:0:
332,4,38598,1,2,1:2:0:0:
332,4,38681,1,2,0:2:0:0:
332,4,38763,1,8,1:0:0:0:
48,48,38928,6,0,P|100:36|184:148,1,180,2|0,1:2|1:0,1:0:0:0:
320,288,39423,2,0,P|328:228|356:184,1,90,8|0,1:0|1:0,0:0:0:0:
265,64,39752,5,2,1:2:0:0:
188,308,39917,1,2,0:2:0:0:
188,308,40000,1,2,2:2:0:0:
188,308,40082,1,8,1:0:0:0:
0,128,40247,1,2,1:2:0:0:
232,216,40412,1,0,1:0:0:0:
32,360,40576,5,0,1:0:0:0:
84,76,40741,1,8,1:0:0:0:
188,308,40906,1,0,1:0:0:0:
188,308,40989,1,0,1:0:0:0:
188,308,41071,2,0,P|136:300|96:280,1,90,0|0,1:0|1:0,0:0:0:0:
172,36,41401,2,0,P|224:44|264:64,1,90,8|0,1:0|1:0,0:0:0:0:
448,188,41730,6,0,B|344:184|384:256|256:248,1,180,2|8,1:2|0:0,1:0:0:0:
84,76,42225,2,0,P|124:112|132:168,1,90,2|2,1:2|1:3,0:0:0:0:
192,368,42554,1,2,1:3:0:0:
192,368,42637,1,2,1:3:0:0:
192,368,42719,1,8,0:0:0:0:
288,156,42884,1,8,1:0:0:0:
104,312,43049,5,8,1:0:0:0:
104,312,43379,6,0,L|88:192,1,90,12|0,1:0|0:0,1:0:0:0:
172,48,43708,1,2,1:2:0:0:
276,280,43873,1,0,1:0:0:0:
276,280,43956,1,2,0:2:0:0:
276,280,44038,1,8,1:0:0:0:
420,80,44203,6,0,P|344:92|316:212,1,180,2|0,1:2|1:0,1:0:0:0:
420,352,44697,1,8,1:0:0:0:
504,160,44862,1,0,1:0:0:0:
504,160,44945,1,0,0:0:0:0:
504,160,45027,1,2,1:2:0:0:
324,360,45192,1,0,1:0:0:0:
324,360,45274,1,2,0:2:0:0:
324,360,45357,1,8,1:0:0:0:
228,124,45522,2,0,B|332:116|288:176|408:168,1,180,2|0,1:2|1:0,1:0:0:0:
96,244,46016,5,8,1:0:0:0:
288,32,46181,1,0,1:0:0:0:
248,272,46346,1,8,1:0:0:0:
144,0,46511,1,0,1:0:0:0:
60,352,46675,1,8,1:0:0:0:
376,284,46840,1,0,1:0:0:0:
20,100,47005,6,0,P|84:92|148:204,1,180,4|8,1:0|1:0,1:0:0:0:
268,64,47500,1,2,1:3:0:0:
268,64,47582,1,2,1:3:0:0:
268,64,47664,1,8,0:0:0:0:
284,49,47746,1,8,0:0:0:0:
304,38,47828,1,8,0:0:0:0:
326,33,47911,1,8,0:0:0:0:
348,33,47993,1,8,0:0:0:0:
370,39,48076,1,8,0:0:0:0:
390,49,48158,1,8,0:0:0:0:
407,65,48241,1,8,0:0:0:0:
420,84,48323,5,4,1:0:0:0:
264,292,48488,2,0,P|256:236|236:196,1,90,0|8,1:0|1:2,0:0:0:0:
156,156,48818,5,0,1:0:0:0:
352,360,48983,2,0,P|360:304|380:264,1,90,0|0,1:0|1:0,0:0:0:0:
440,208,49313,1,8,1:2:0:0:
256,360,49478,6,0,B|148:376|188:296|52:316,1,180,0|0,1:0|1:0,0:0:0:0:
16,368,49972,1,8,1:0:0:0:
96,80,50137,2,0,P|104:136|124:188,1,90,0|0,1:0|1:0,0:0:0:0:
188,224,50467,1,0,1:0:0:0:
272,16,50631,1,8,1:0:0:0:
440,176,50796,6,0,B|340:172|387:112|262:107,1,180,0|0,1:0|1:0,0:0:0:0:
108,228,51291,1,8,1:0:0:0:
280,360,51456,1,0,1:0:0:0:
176,68,51620,1,0,1:0:0:0:
32,328,51785,1,0,1:0:0:0:
32,108,51950,1,8,1:0:0:0:
220,200,52115,1,0,1:0:0:0:
108,372,52280,6,0,P|156:300|280:300,1,180,0|8,1:0|1:0,1:0:0:0:
372,376,52774,1,0,1:0:0:0:
468,80,52939,5,0,1:0:0:0:
280,360,53104,1,0,1:0:0:0:
308,40,53269,1,8,1:0:0:0:
452,324,53434,1,8,1:0:0:0:
452,324,53516,1,8,1:0:0:0:
452,324,53598,6,0,P|432:256|432:224,1,90,12|2,1:0|1:2,1:0:0:0:
188,152,53928,2,0,P|244:132|340:236,1,180,8|0,1:0|1:0,1:0:0:0:
468,80,54423,2,0,P|416:100|392:148,1,90,2|8,1:2|1:0,0:0:0:0:
296,12,54752,6,0,B|184:4|228:68|112:60,1,180,2|0,1:2|1:0,1:0:0:0:
52,8,55247,1,8,1:0:0:0:
0,192,55412,1,0,1:0:0:0:
176,148,55576,5,0,1:0:0:0:
8,96,55741,1,2,0:2:0:0:
8,96,55823,1,2,2:0:0:0:
8,96,55906,1,8,1:0:0:0:
120,300,56071,2,0,B|228:288|168:232|288:216,1,180,0|0,1:0|1:0,0:0:0:0:
348,276,56565,5,8,1:0:0:0:
408,68,56730,1,0,1:0:0:0:
408,68,56813,1,0,1:0:0:0:
408,68,56895,1,8,1:0:0:0:
456,300,57060,1,0,1:0:0:0:
308,48,57225,1,8,1:0:0:0:
272,344,57390,1,0,1:0:0:0:
64,140,57554,5,12,1:0:0:0:
428,200,57719,1,0,1:0:0:0:
220,0,57884,1,8,1:0:0:0:
272,344,58049,1,0,1:0:0:0:
380,52,58214,5,0,1:0:0:0:
72,36,58379,1,8,1:0:0:0:
360,320,58543,1,8,1:0:0:0:
36,304,58708,1,0,1:0:0:0:
220,0,58873,5,12,1:0:0:0:
180,364,59038,1,0,1:0:0:0:
180,364,59120,1,0,0:0:0:0:
180,364,59203,1,8,1:0:0:0:
512,212,59368,1,0,1:0:0:0:
124,136,59533,5,8,1:0:0:0:
