osu file format v14

[General]
AudioFilename: audio.ogg
AudioLeadIn: 0
PreviewTime: 113773
Countdown: 0
SampleSet: Soft
StackLeniency: 0.3
Mode: 0
LetterboxInBreaks: 0
WidescreenStoryboard: 1

[Editor]
Bookmarks: 15394,28635,41256,51187,55118,61739,67325,68360,74980,84911,88222,101463,111394,114704,143980,147911,154429,161049,167670,168911,175946,189187,206153
DistanceSpacing: 1
BeatDivisor: 4
GridSize: 8
TimelineZoom: 2.899999

[Metadata]
Title:Junky Night Town Orchestra
TitleUnicode:ジャンキーナイトタウンオーケストラ
Artist:Three feat. Kagamine Len
ArtistUnicode:すりぃ feat. 鏡音レン
Creator:SuperBox
Version:Hard
Source:
Tags:newspaper cup npc 2022 npc22 mapping contest vocal track npc2022 Graphical Nimagan Cyanocitcho sorairokarasu VoiceCore SB japanese jpop pop j-pop
BeatmapID:3918332
BeatmapSetID:1867440

[Difficulty]
HPDrainRate:5
CircleSize:3
OverallDifficulty:6
ApproachRate:8
SliderMultiplier:1.9
SliderTickRate:1

[Events]
//Background and Video events
0,0,"bg.jpg",0,0
//Break Periods
2,42077,51058
2,101663,110644
2,132904,133816
//Storyboard Layer 0 (Background)
//Storyboard Layer 1 (Fail)
//Storyboard Layer 2 (Pass)
//Storyboard Layer 3 (Foreground)
//Storyboard Layer 4 (Overlay)
//Storyboard Sound Samples

[TimingPoints]
498,413.793103448276,4,2,33,100,1,0
4945,-100,4,2,35,100,0,0
5048,-100,4,2,33,100,0,0
8256,-100,4,2,35,100,0,0
8359,-100,4,2,32,100,0,0
8980,-100,4,2,33,100,0,0
11565,-100,4,2,35,100,0,0
11668,-100,4,2,33,100,0,0
14566,-100,4,2,34,60,0,0
14876,-100,4,2,32,60,0,0
15187,-100,4,2,32,60,0,0
15600,-100,4,2,32,80,0,0
15808,-100,4,2,33,80,0,0
18911,-100,4,2,35,100,0,0
19532,-100,4,2,32,80,0,0
20153,-100,4,2,32,100,0,0
20360,-100,4,2,35,100,0,0
21187,-100,4,2,32,80,0,0
22015,-100,4,2,33,80,0,0
25532,-100,4,2,35,100,0,0
27394,-100,4,2,32,80,0,0
27808,-100,4,2,33,100,0,0
28015,-100,4,2,34,50,0,0
28429,-100,4,2,33,100,0,0
28635,-133.333333333333,4,2,33,100,0,0
31946,-100,4,2,33,100,0,0
32876,-100,4,2,35,100,0,0
32979,-100,4,2,33,100,0,0
33808,-100,4,2,32,100,0,0
34015,-100,4,2,33,100,0,0
35048,-100,4,2,35,100,0,0
35256,-133.333333333333,4,2,33,100,0,0
38567,-100,4,2,33,100,0,0
39497,-100,4,2,35,100,0,0
39600,-100,4,2,33,100,0,0
40429,-100,4,2,32,100,0,0
40636,-100,4,2,33,100,0,0
41669,-100,4,2,35,100,0,0
51808,-100,4,2,32,100,0,0
53049,-100,4,2,33,80,0,0
54498,-100,4,2,35,80,0,0
55118,-83.3333333333333,4,2,32,100,0,0
55532,-83.3333333333333,4,2,33,100,0,0
58429,-83.3333333333333,4,2,32,100,0,0
58842,-83.3333333333333,4,2,33,100,0,0
60187,-83.3333333333333,4,2,35,100,0,0
60290,-83.3333333333333,4,2,33,100,0,0
60601,-83.3333333333333,4,2,35,100,0,0
60911,-83.3333333333333,4,2,33,100,0,0
61739,-83.3333333333333,4,2,32,100,0,0
62153,-83.3333333333333,4,2,33,100,0,0
62774,-83.3333333333333,4,2,35,100,0,0
62981,-83.3333333333333,4,2,33,100,0,0
65050,-83.3333333333333,4,2,32,100,0,0
65463,-83.3333333333333,4,2,33,100,0,0
66084,-83.3333333333333,4,2,35,100,0,0
66187,-83.3333333333333,4,2,32,100,0,0
66290,-83.3333333333333,4,2,33,100,0,0
66808,-83.3333333333333,4,2,35,100,0,0
67119,-83.3333333333333,4,2,33,100,0,0
67222,-83.3333333333333,4,2,35,100,0,0
67532,-100,4,2,33,100,0,0
67635,-100,4,2,35,100,0,0
67739,-100,4,2,33,100,0,0
67842,-100,4,2,35,100,0,0
68048,-100,4,2,33,100,0,0
68153,-83.3333333333333,4,2,33,100,0,0
68360,-83.3333333333333,4,2,32,100,0,0
68774,-83.3333333333333,4,2,33,100,0,0
70118,-83.3333333333333,4,2,35,100,0,0
70222,-83.3333333333333,4,2,33,100,0,0
70325,-83.3333333333333,4,2,35,100,0,0
70428,-83.3333333333333,4,2,33,100,0,0
71152,-83.3333333333333,4,2,35,100,0,0
71255,-83.3333333333333,4,2,33,100,0,0
73739,-83.3333333333333,4,2,33,60,0,0
74360,-83.3333333333333,4,2,35,60,0,0
74566,-83.3333333333333,4,2,33,80,0,0
74980,-100,4,2,33,80,0,0
78497,-100,4,2,35,70,0,0
79739,-100,4,2,33,70,0,0
80152,-100,4,2,35,70,0,0
80360,-100,4,2,33,70,0,0
80773,-100,4,2,35,70,0,0
81601,-100,4,2,33,80,0,0
83049,-100,4,2,33,40,0,0
83256,-100,4,2,33,80,0,0
83463,-100,4,2,33,50,0,0
83670,-100,4,2,33,80,0,0
83773,-100,4,2,33,60,0,0
84084,-100,4,2,33,80,0,0
84290,-100,4,2,33,60,0,0
84497,-100,4,2,33,80,0,0
85118,-100,4,2,35,80,0,0
85945,-100,4,2,33,80,0,0
86049,-100,4,2,35,80,0,0
87394,-100,4,2,33,80,0,0
88222,-133.333333333333,4,2,33,100,0,0
91532,-100,4,2,33,100,0,0
92462,-100,4,2,35,100,0,0
92565,-100,4,2,33,100,0,0
93394,-100,4,2,32,100,0,0
93601,-100,4,2,33,100,0,0
94634,-100,4,2,35,100,0,0
94842,-133.333333333333,4,2,33,100,0,0
98153,-100,4,2,33,100,0,0
99083,-100,4,2,35,100,0,0
99186,-100,4,2,33,100,0,0
100015,-100,4,2,32,100,0,0
100222,-100,4,2,33,100,0,0
101255,-100,4,2,35,100,0,0
101463,-100,4,2,32,80,0,0
111394,-100,4,2,32,100,0,0
112635,-100,4,2,33,70,0,0
113256,-100,4,2,33,80,0,0
114084,-100,4,2,35,80,0,0
114704,-83.3333333333333,4,2,32,100,0,0
115118,-83.3333333333333,4,2,33,100,0,0
115739,-83.3333333333333,4,2,35,100,0,0
115946,-83.3333333333333,4,2,33,100,0,0
118015,-83.3333333333333,4,2,32,100,0,0
118428,-83.3333333333333,4,2,33,100,0,0
119773,-83.3333333333333,4,2,35,100,0,0
120084,-83.3333333333333,4,2,33,100,0,0
120187,-83.3333333333333,4,2,35,100,0,0
120497,-83.3333333333333,4,2,33,100,0,0
121325,-83.3333333333333,4,2,32,100,0,0
121739,-83.3333333333333,4,2,33,100,0,0
122360,-83.3333333333333,4,2,35,100,0,0
122567,-83.3333333333333,4,2,33,100,0,0
124636,-83.3333333333333,4,2,32,100,0,0
125049,-83.3333333333333,4,2,33,100,0,0
125670,-83.3333333333333,4,2,35,100,0,0
125773,-83.3333333333333,4,2,33,100,0,0
126394,-83.3333333333333,4,2,35,100,0,0
126705,-83.3333333333333,4,2,33,100,0,0
126808,-83.3333333333333,4,2,35,100,0,0
127118,-100,4,2,33,100,0,0
127428,-100,4,2,35,100,0,0
127634,-100,4,2,33,100,0,0
127739,-83.3333333333333,4,2,33,100,0,0
127946,-83.3333333333333,4,2,32,100,0,0
128360,-83.3333333333333,4,2,33,100,0,0
129704,-83.3333333333333,4,2,35,100,0,0
129808,-83.3333333333333,4,2,33,100,0,0
129911,-83.3333333333333,4,2,35,100,0,0
130014,-83.3333333333333,4,2,33,100,0,0
130738,-83.3333333333333,4,2,35,100,0,0
130841,-83.3333333333333,4,2,33,100,0,0
134566,-83.3333333333333,4,2,33,90,0,0
134773,-100,4,2,33,90,0,0
135291,-100,4,2,32,90,0,0
136222,-100,4,2,33,90,0,0
137049,-100,4,2,33,80,0,0
137670,-100,4,2,32,100,0,0
138187,-100,4,2,32,90,0,0
139532,-100,4,2,33,90,0,0
140359,-100,4,2,33,80,0,0
140980,-100,4,2,33,100,0,0
141601,-100,4,2,32,100,0,0
142842,-100,4,2,33,80,0,0
143359,-100,4,2,32,80,0,0
143670,-100,4,2,33,80,0,0
145946,-100,4,2,33,70,0,0
146153,-100,4,2,33,100,0,0
147601,-100,4,2,33,80,0,0
147808,-100,4,2,33,100,0,0
151532,-100,4,2,35,100,0,0
151946,-100,4,2,33,100,0,0
153911,-100,4,2,35,100,0,0
154015,-100,4,2,33,100,0,0
158359,-100,4,2,35,100,0,0
158566,-100,4,2,33,100,0,0
159704,-100,4,2,35,100,0,0
159807,-100,4,2,33,100,0,0
161463,-100,4,2,32,100,0,0
161877,-100,4,2,33,100,0,0
162291,-100,4,2,32,100,0,0
162704,-100,4,2,33,100,0,0
163118,-100,4,2,32,100,0,0
163532,-100,4,2,33,100,0,0
163945,-100,4,2,32,100,0,0
164360,-100,4,2,33,100,0,0
165187,-100,4,2,33,80,0,0
165601,-100,4,2,32,80,0,0
166015,-100,4,2,33,90,0,0
168084,-100,4,2,32,100,0,0
168497,-100,4,2,33,90,0,0
168912,-100,4,2,32,100,0,0
169325,-100,4,2,33,90,0,0
169739,-100,4,2,32,100,0,0
170152,-100,4,2,33,80,0,0
170566,-100,4,2,32,100,0,0
170980,-100,4,2,33,80,0,0
172635,-100,4,2,33,100,0,0
175946,-133.333333333333,4,2,64,40,0,0
182566,-100,4,2,64,60,0,0
182979,-100,4,2,64,50,0,0
188360,-100,4,2,33,100,0,0
188567,-100,4,2,35,100,0,0
189187,-83.3333333333333,4,2,32,100,0,0
189601,-83.3333333333333,4,2,33,100,0,0
190222,-83.3333333333333,4,2,35,100,0,0
190429,-83.3333333333333,4,2,33,100,0,0
192498,-83.3333333333333,4,2,32,100,0,0
192911,-83.3333333333333,4,2,33,100,0,0
193532,-83.3333333333333,4,2,35,100,0,0
193635,-83.3333333333333,4,2,33,100,0,0
194256,-83.3333333333333,4,2,35,100,0,0
194359,-83.3333333333333,4,2,33,100,0,0
194670,-83.3333333333333,4,2,35,100,0,0
194980,-83.3333333333333,4,2,33,100,0,0
195808,-83.3333333333333,4,2,32,50,0,0
196222,-83.3333333333333,4,2,33,100,0,0
196843,-83.3333333333333,4,2,35,100,0,0
197050,-83.3333333333333,4,2,33,100,0,0
199119,-83.3333333333333,4,2,32,100,0,0
199532,-83.3333333333333,4,2,33,100,0,0
200153,-83.3333333333333,4,2,35,100,0,0
200256,-83.3333333333333,4,2,33,100,0,0
200877,-83.3333333333333,4,2,35,100,0,0
201187,-83.3333333333333,4,2,33,100,0,0
201291,-83.3333333333333,4,2,35,100,0,0
201601,-100,4,2,33,100,0,0
201704,-100,4,2,35,100,0,0
201808,-100,4,2,33,100,0,0
201911,-100,4,2,35,100,0,0
202117,-100,4,2,32,100,0,0
202222,-83.3333333333333,4,2,32,100,0,0
202843,-83.3333333333333,4,2,33,100,0,0
204187,-83.3333333333333,4,2,35,100,0,0
204291,-83.3333333333333,4,2,33,100,0,0
204394,-83.3333333333333,4,2,35,100,0,0
204497,-83.3333333333333,4,2,33,100,0,0
205221,-83.3333333333333,4,2,35,100,0,0
205324,-83.3333333333333,4,2,33,100,0,0

[Colours]
Combo1 : 255,0,0
Combo2 : 255,255,0
Combo3 : 255,128,192

[HitObjects]
223,159,498,5,10,2:0:0:0:
311,144,704,1,10,2:0:0:0:
399,129,911,2,0,L|415:79,1,47.5,10|0,2:0|2:0,2:0:0:0:
396,251,1222,5,8,2:0:0:0:
309,226,1429,2,0,L|314:281,1,47.5,2|10,2:0|2:0,2:0:0:0:
223,205,1739,1,10,2:0:0:0:
106,222,1946,5,10,2:0:0:0:
113,266,2049,1,10,2:0:0:0:
113,266,2360,6,0,P|164:274|218:275,2,95,2|10|2,2:0|2:0|2:0,2:0:0:0:
40,204,2980,2,0,P|42:157|67:116,1,95,10|2,2:0|2:0,2:0:0:0:
81,70,3291,2,0,L|133:77,1,47.5,2|8,2:0|2:0,2:0:0:0:
214,158,3601,2,0,P|269:154|321:143,1,95,2|0,2:0|2:0,2:0:0:0:
400,122,4015,1,2,2:0:0:0:
477,176,4222,2,0,P|467:233|459:278,1,95,10|2,2:0|2:0,2:0:0:0:
367,361,4635,5,10,2:0:0:0:
291,303,4842,2,0,L|240:297,2,47.5,2|2|10,2:0|2:0|2:0,2:0:0:0:
291,303,5256,1,2,2:0:0:0:
472,246,5670,6,0,P|468:299|463:351,2,95,2|10|2,2:0|2:0|2:0,2:0:0:0:
492,135,6290,2,0,P|489:89|464:48,1,95,10|2,2:0|2:0,2:0:0:0:
427,16,6601,2,0,L|375:18,1,47.5,2|8,2:0|2:0,2:0:0:0:
261,40,6911,2,0,P|268:134|280:236,1,190,2|2,2:0|2:0,2:0:0:0:
373,242,7532,1,10,2:0:0:0:
211,142,7946,5,10,2:0:0:0:
211,142,8049,1,0,2:0:0:0:
211,142,8153,2,0,L|152:151,2,47.5,2|2|2,2:0|2:0|2:0,2:0:0:0:
304,122,8566,1,2,2:0:0:0:
299,312,8980,6,0,P|350:320|404:321,2,95,2|10|2,2:0|2:0|2:0,2:0:0:0:
200,380,9600,2,0,P|154:377|113:352,1,95,10|2,2:0|2:0,2:0:0:0:
69,332,9911,2,0,L|76:280,1,47.5,2|8,2:0|2:0,2:0:0:0:
37,176,10221,2,0,P|92:172|144:161,1,95,2|0,2:0|2:0,2:0:0:0:
222,137,10635,1,2,2:0:0:0:
313,161,10842,2,0,P|323:104|331:59,1,95,10|2,2:0|2:0,2:0:0:0:
238,0,11255,5,10,2:0:0:0:
144,15,11462,2,0,L|93:9,2,47.5,2|2|10,2:0|2:0|2:0,2:0:0:0:
144,15,11876,1,2,2:0:0:0:
155,205,12291,6,0,P|163:256|164:310,2,95,2|10|2,2:0|2:0|2:0,2:0:0:0:
22,187,12911,2,0,P|24:140|49:99,1,95,10|2,2:0|2:0,2:0:0:0:
88,73,13222,2,0,L|140:80,1,47.5,2|8,2:0|2:0,2:0:0:0:
239,12,13532,2,0,P|294:8|340:31,1,95,2|0,2:0|2:0,2:0:0:0:
360,113,13946,1,2,2:0:0:0:
449,145,14153,2,0,P|439:202|431:247,1,95,10|2,2:0|2:0,2:0:0:0:
444,375,14566,5,10,2:0:0:0:
350,358,14773,2,0,L|335:301,1,47.5,0|10,2:0|2:0,2:0:0:0:
247,346,15084,2,0,L|231:292,1,47.5,0|10,2:0|2:0,2:0:0:0:
221,185,15394,6,0,P|279:179|333:167,1,95,8|2,2:0|2:0,2:0:0:0:
409,158,15808,2,0,P|431:112|421:57,1,95,10|2,2:0|2:0,2:0:0:0:
343,22,16222,2,0,P|295:20|241:9,1,95,10|0,2:0|2:0,2:0:0:0:
201,15,16532,1,2,2:0:0:0:
201,15,16635,2,0,P|161:64|109:82,1,95,10|2,2:0|2:0,2:0:0:0:
126,215,17049,6,0,P|179:218|240:227,1,95,8|2,2:0|2:0,2:0:0:0:
313,202,17463,1,10,2:0:0:0:
249,378,17877,2,0,P|201:380|154:380,1,95,10|2,2:0|2:0,2:0:0:0:
111,359,18187,1,2,2:0:0:0:
111,359,18291,2,0,P|120:310|115:242,1,95,10|2,2:0|2:0,2:0:0:0:
34,189,18704,5,8,2:0:0:0:
77,104,18911,2,0,L|65:10,2,95,2|10|2,2:0|2:0|2:0,2:0:0:0:
139,234,19532,2,0,P|205:237|246:217,1,95,10|0,2:0|2:0,2:0:0:0:
266,195,19842,2,0,L|254:134,1,47.5,2|8,2:0|2:0,2:0:0:0:
338,258,20153,2,0,L|352:311,1,47.5,0|0,2:0|2:0,2:0:0:0:
335,349,20360,6,0,P|279:373|231:372,1,95,10|2,2:0|2:0,2:0:0:0:
168,319,20773,1,10,2:0:0:0:
154,129,21187,2,0,P|212:132|264:137,1,95,2|10,2:0|2:0,2:0:0:0:
292,156,21498,2,0,L|305:207,1,47.5,10|10,2:0|2:0,2:0:0:0:
376,105,21808,1,2,2:0:0:0:
455,53,22015,5,10,2:0:0:0:
497,238,22429,2,0,P|428:230|392:208,1,95,10|2,2:0|2:0,2:0:0:0:
321,175,22842,2,0,L|297:54,1,95,10|2,2:0|2:0,2:0:0:0:
308,34,23153,2,0,L|254:23,1,47.5,8|2,2:0|2:0,2:0:0:0:
169,48,23463,6,0,L|103:36,1,47.5,2|0,2:0|2:0,2:0:0:0:
80,176,23877,2,0,L|146:188,1,47.5,2|2,2:0|2:0,2:0:0:0:
153,224,24084,2,0,P|214:221|264:193,1,95,10|2,2:0|2:0,2:0:0:0:
255,76,24498,1,10,2:0:0:0:
356,74,24704,1,2,2:0:0:0:
356,74,24808,1,2,2:0:0:0:
356,74,24911,2,0,P|369:133|382:191,1,95,10|2,2:0|2:0,2:0:0:0:
405,257,25325,5,8,2:0:0:0:
389,350,25532,2,0,L|450:363,2,47.5,2|2|10,2:0|2:0|2:0,2:0:0:0:
295,367,25946,1,2,2:0:0:0:
173,333,26153,2,0,P|153:283|169:225,1,95,10|0,2:0|2:0,2:0:0:0:
181,200,26463,2,0,L|232:203,1,47.5,2|8,2:0|2:0,2:0:0:0:
319,230,26773,2,0,L|308:290,1,47.5,2|2,2:0|2:0,2:0:0:0:
318,323,26980,6,0,P|365:343|409:335,1,95,10|2,2:0|2:0,2:0:0:0:
496,251,27394,1,2,2:0:0:0:
395,83,27808,1,10,2:0:0:0:
300,88,28015,2,0,L|291:33,2,47.5,10|0|8,2:3|2:0|2:0,2:0:0:0:
201,93,28429,2,0,L|212:152,1,47.5,10|10,2:0|2:0,2:0:0:0:
193,184,28635,6,0,P|273:221|340:216,2,142.500005435944,10|10|10,2:0|2:0|2:0,2:0:0:0:
58,231,29877,2,0,L|43:144,1,71.2500027179719,10|2,2:0|2:0,2:0:0:0:
32,18,30498,1,10,2:0:0:0:
9,158,30911,2,0,L|96:143,1,71.2500027179719,2|10,2:0|2:0,2:0:0:0:
220,126,31532,1,10,2:0:0:0:
237,218,31739,5,2,2:0:0:0:
204,300,31946,2,0,P|256:317|305:314,1,95,10|2,2:0|2:0,2:0:0:0:
384,281,32360,2,0,P|390:234|398:180,1,95,10|2,2:0|2:0,2:0:0:0:
326,98,32773,2,0,L|321:32,2,47.5,10|2|2,2:0|2:0|2:0,2:0:0:0:
232,80,33187,1,10,2:0:0:0:
140,54,33394,1,2,2:0:0:0:
37,188,33808,5,2,2:0:0:0:
130,202,34015,2,0,L|139:250,1,47.5,10|0,2:0|2:0,2:0:0:0:
229,206,34325,1,0,2:0:0:0:
229,206,34429,2,0,P|245:157|240:105,1,95,10|2,2:0|2:0,2:0:0:0:
254,19,34842,2,0,L|364:3,1,95,10|2,2:0|2:0,2:0:0:0:
438,36,35256,6,0,P|475:116|470:183,2,142.500005435944,10|10|10,2:0|2:0|2:0,2:0:0:0:
315,109,36498,2,0,L|228:94,1,71.2500027179719,10|2,2:0|2:0,2:0:0:0:
102,83,37119,1,10,2:0:0:0:
242,61,37532,2,0,L|227:148,1,71.2500027179719,2|10,2:0|2:0,2:0:0:0:
210,271,38153,1,2,2:0:0:0:
132,307,38360,5,2,2:0:0:0:
53,345,38567,2,0,P|26:297|19:248,1,95,10|2,2:0|2:0,2:0:0:0:
58,174,38981,2,0,P|105:168|159:160,1,95,10|2,2:0|2:0,2:0:0:0:
242,190,39394,2,0,L|308:195,2,47.5,10|2|2,2:0|2:0|2:0,2:0:0:0:
171,254,39808,1,10,2:0:0:0:
92,308,40015,1,2,2:0:0:0:
273,363,40429,5,2,2:0:0:0:
349,310,40636,2,0,L|397:319,1,47.5,10|2,2:0|2:0,2:0:0:0:
302,225,40946,1,2,2:0:0:0:
302,225,41049,2,0,P|253:220|200:202,1,95,10|2,2:0|2:0,2:0:0:0:
121,169,41463,2,0,P|109:121|109:66,1,95,10|2,2:0|2:0,2:0:0:0:
203,64,41877,5,0,2:0:0:0:
216,117,51808,5,10,2:0:0:0:
127,83,52015,2,0,L|110:27,2,47.5,2|2|10,2:0|2:0|2:0,2:0:0:0:
23,242,52635,2,0,P|84:253|141:249,1,95,10|2,2:0|2:0,2:0:0:0:
218,244,53049,1,8,2:0:0:0:
218,244,53153,1,8,2:0:0:0:
218,244,53256,6,0,L|226:301,1,47.5,10|0,2:0|2:0,2:0:0:0:
314,180,53670,2,0,L|322:237,1,47.5,10|0,2:0|2:0,2:0:0:0:
425,129,54084,2,0,L|433:186,1,47.5,10|0,2:0|2:0,2:0:0:0:
472,201,54291,5,10,2:0:0:0:
493,293,54498,2,0,P|472:340|414:362,2,95,2|2|2,2:0|2:0|2:0,2:0:0:0:
362,223,55118,6,0,P|301:237|231:250,1,113.999996520996,12|0,2:1|2:0,2:0:0:0:
114,225,55532,2,0,P|82:173|87:105,1,113.999996520996,10|0,2:0|2:0,2:0:0:0:
122,81,55842,2,0,L|178:91,1,56.9999982604981,0|10,2:0|2:0,2:0:0:0:
283,135,56153,2,0,L|281:209,1,56.9999982604981
264,252,56360,1,10,2:0:0:0:
264,252,56463,1,2,2:0:0:0:
264,252,56566,6,0,P|194:257|131:274,2,113.999996520996,2|0|2,2:0|2:0|2:0,2:0:0:0:
294,363,57187,2,0,L|366:369,1,56.9999982604981,10|2,2:0|2:0,2:0:0:0:
394,261,57498,2,0,L|452:271,1,56.9999982604981,2|2,2:0|2:0,2:0:0:0:
484,167,57808,1,2,2:0:0:0:
484,167,57911,1,2,2:0:0:0:
484,167,58015,1,8,2:0:0:0:
373,140,58222,5,2,2:0:0:0:
225,155,58429,2,0,P|192:112|189:40,1,113.999996520996,8|0,2:1|2:0,2:0:0:0:
294,18,58842,2,0,P|352:31|423:34,1,113.999996520996,10|2,2:0|2:0,2:0:0:0:
464,38,59153,2,0,L|474:104,1,56.9999982604981,0|10,2:0|2:0,2:0:0:0:
437,202,59463,2,0,L|451:270,2,56.9999982604981,0|2|10,2:0|2:0|2:0,2:0:0:0:
392,96,59877,1,2,2:0:0:0:
288,175,60084,6,0,P|206:160|140:167,1,113.999996520996,10|2,2:0|2:0,2:0:0:0:
136,268,60498,2,0,P|196:284|264:281,1,113.999996520996,10|2,2:0|2:0,2:0:0:0:
361,280,60911,1,10,2:0:0:0:
361,280,61015,1,0,2:0:0:0:
361,280,61118,1,2,2:0:0:0:
377,190,61325,1,10,2:0:0:0:
398,101,61532,2,0,L|339:90,1,56.9999982604981,10|10,2:0|2:0,2:0:0:0:
284,89,61739,6,0,P|276:151|263:221,1,113.999996520996,8|0,2:1|2:0,2:0:0:0:
164,296,62153,2,0,P|108:302|57:278,1,113.999996520996,10|0,2:0|2:0,2:0:0:0:
17,238,62463,2,0,L|27:182,1,56.9999982604981,0|10,2:0|2:0,2:0:0:0:
131,135,62773,2,0,L|212:127,1,56.9999982604981
213,83,62980,1,8,2:0:0:0:
213,83,63084,1,2,2:0:0:0:
213,83,63187,6,0,P|283:78|346:61,2,113.999996520996,2|0|2,2:0|2:0|2:0,2:0:0:0:
114,22,63808,2,0,L|42:16,1,56.9999982604981,8|2,2:0|2:0,2:0:0:0:
23,126,64119,2,0,L|81:136,1,56.9999982604981,2|2,2:0|2:0,2:0:0:0:
200,156,64429,1,2,2:0:0:0:
200,156,64532,1,2,2:0:0:0:
200,156,64636,1,8,2:0:0:0:
208,269,64843,5,2,2:0:0:0:
342,240,65050,2,0,P|375:283|378:355,1,113.999996520996,8|0,2:1|2:0,2:0:0:0:
273,376,65463,2,0,P|211:369|144:360,1,113.999996520996,10|2,2:0|2:0,2:0:0:0:
102,357,65774,2,0,L|92:291,1,56.9999982604981,0|10,2:0|2:0,2:0:0:0:
26,208,66084,2,0,L|12:140,2,56.9999982604981,2|2|10,2:0|2:0|2:0,2:0:0:0:
119,274,66498,1,2,2:0:0:0:
236,206,66705,6,0,P|251:124|244:58,1,113.999996520996,10|2,2:0|2:0,2:0:0:0:
136,76,67119,2,0,P|120:136|123:204,1,113.999996520996,10|2,2:0|2:0,2:0:0:0:
183,295,67532,2,0,L|238:285,1,47.5,10|2,2:0|2:0,2:0:0:0:
264,319,67739,1,2,2:0:0:0:
264,319,67842,2,0,P|304:317|359:336,1,95,2|2,2:0|2:0,2:0:0:0:
411,320,68153,6,0,L|398:261,1,56.9999982604981,2|0,2:0|2:0,2:0:0:0:
412,208,68360,1,8,2:1:0:0:
507,32,68774,2,0,P|455:0|387:5,1,113.999996520996,10|2,2:0|2:0,2:0:0:0:
363,40,69084,2,0,L|373:96,1,56.9999982604981,0|10,2:0|2:0,2:0:0:0:
259,103,69394,2,0,L|267:174,2,56.9999982604981,0|2|10,2:0|2:0|2:0,2:0:0:0:
158,157,69808,1,2,2:0:0:0:
48,89,70015,6,0,B|30:154|30:154|52:243|52:243|37:324,1,227.999993041992,8|10,2:0|2:0,2:0:0:0:
39,310,70842,1,10,2:0:0:0:
148,342,71049,2,0,L|154:279,2,56.9999982604981,2|2|10,2:0|2:0|2:0,2:0:0:0:
258,370,71463,6,0,L|264:300,1,56.9999982604981,2|0,2:0|2:0,2:0:0:0:
299,269,71670,2,0,P|275:215|217:180,1,113.999996520996,10|2,2:0|2:0,2:0:0:0:
126,136,72084,2,0,P|67:140|3:144,1,113.999996520996,10|2,2:0|2:0,2:0:0:0:
15,258,72498,2,0,P|72:269|126:244,1,113.999996520996,10|0,2:0|2:0,2:0:0:0:
163,207,72808,2,0,L|244:200,1,56.9999982604981,2|8,2:0|2:0,2:0:0:0:
333,190,73118,1,10,2:0:0:0:
416,144,73739,5,10,2:0:0:0:
410,258,73946,1,10,2:0:0:0:
402,372,74153,1,10,2:0:0:0:
294,333,74360,2,0,L|282:261,2,56.9999982604981,2|2|10,2:0|2:0|2:0,2:0:0:0:
260,145,74980,6,0,P|202:151|148:163,1,95,10|2,2:0|2:0,2:0:0:0:
87,213,75394,2,0,L|31:204,2,47.5,10|2|2,2:0|2:0|2:0,2:0:0:0:
159,275,75808,2,0,P|164:328|146:377,1,95,10|2,2:0|2:0,2:0:0:0:
28,365,76222,1,10,2:0:0:0:
101,190,76635,6,0,P|154:193|215:202,1,95,10|2,2:0|2:0,2:0:0:0:
290,212,77049,2,0,L|307:272,2,47.5,10|2|2,2:0|2:0|2:0,2:0:0:0:
366,154,77463,2,0,P|378:109|368:59,1,95,10|2,2:0|2:0,2:0:0:0:
280,27,77877,1,10,2:0:0:0:
243,114,78084,1,2,2:0:0:0:
201,199,78290,5,10,2:0:0:0:
107,216,78497,2,0,L|119:310,2,95,2|10|2,2:0|2:0|2:0,2:0:0:0:
18,140,79118,2,0,P|15:74|35:33,1,95,10|0,2:0|2:0,2:0:0:0:
57,13,79428,2,0,L|118:25,1,47.5,2|8,2:0|2:0,2:0:0:0:
153,103,79739,2,0,L|162:155,1,47.5,2|0,2:0|2:0,2:0:0:0:
201,174,79946,6,0,P|261:174|305:154,1,95,10|2,2:0|2:0,2:0:0:0:
385,138,80360,2,0,P|380:193|377:248,1,95,2|2,2:0|2:0,2:0:0:0:
343,321,80773,2,0,P|288:316|233:313,2,95,10|2|2,2:0|2:0|2:0,2:0:0:0:
142,379,81601,5,10,2:0:0:0:
87,192,82015,2,0,P|156:200|192:222,1,95,10|2,2:0|2:0,2:0:0:0:
270,192,82428,2,0,L|246:71,1,95,10|2,2:0|2:0,2:0:0:0:
267,53,82739,2,0,L|321:64,1,47.5,2|10,2:0|2:0,2:0:0:0:
407,46,83049,5,8,2:3:0:0:
407,46,83153,1,8,2:3:0:0:
407,46,83256,1,10,2:0:0:0:
496,120,83463,2,0,L|484:186,1,47.5,8|8,2:3|2:3,2:0:0:0:
450,197,83670,2,0,P|389:200|339:228,1,95,10|8,2:0|2:3,2:0:0:0:
297,286,84084,2,0,P|250:275|204:265,1,95,10|8,2:0|2:3,2:0:0:0:
163,283,84393,1,8,2:3:0:0:
163,283,84497,1,10,2:0:0:0:
99,212,84703,1,2,2:0:0:0:
35,122,84911,5,8,2:0:0:0:
127,85,85118,2,0,L|104:43,2,47.5,2|2|10,2:0|2:0|2:0,2:0:0:0:
220,65,85532,1,2,2:0:0:0:
338,99,85739,2,0,P|358:149|342:207,1,95,10|8,2:0|2:0,2:0:0:0:
330,232,86049,2,0,L|279:229,1,47.5,2|8,2:0|2:0,2:0:0:0:
217,160,86359,2,0,L|228:100,1,47.5,2|2,2:0|2:0,2:0:0:0:
220,65,86566,6,0,P|173:45|129:53,1,95,10|2,2:0|2:0,2:0:0:0:
35,56,86980,1,10,2:0:0:0:
16,245,87394,1,10,2:0:0:0:
108,271,87601,2,0,L|98:325,2,47.5,10|0|10,2:0|2:0|2:0,2:0:0:0:
203,299,88015,2,0,L|211:239,1,47.5,10|10,2:0|2:0,2:0:0:0:
192,207,88222,6,0,P|155:127|160:60,2,142.500005435944,10|10|10,2:0|2:0|2:0,2:0:0:0:
284,315,89463,2,0,L|370:297,1,71.2500027179719,10|2,2:0|2:0,2:0:0:0:
492,263,90084,1,10,2:0:0:0:
370,334,90497,2,0,L|352:247,1,71.2500027179719,2|10,2:0|2:0,2:0:0:0:
324,126,91118,1,10,2:0:0:0:
413,122,91325,5,2,2:0:0:0:
438,41,91532,2,0,P|386:24|337:27,1,95,10|2,2:0|2:0,2:0:0:0:
250,28,91946,2,0,P|244:75|236:129,1,95,10|2,2:0|2:0,2:0:0:0:
181,199,92359,2,0,L|115:204,2,47.5,10|2|2,2:0|2:0|2:0,2:0:0:0:
226,282,92773,1,10,2:0:0:0:
320,289,92980,1,2,2:0:0:0:
460,160,93394,5,2,2:0:0:0:
374,119,93601,2,0,L|365:71,1,47.5,10|0,2:0|2:0,2:0:0:0:
283,148,93911,1,0,2:0:0:0:
283,148,94015,2,0,P|278:199|295:248,1,95,10|2,2:0|2:0,2:0:0:0:
303,334,94428,2,0,L|193:350,1,95,10|2,2:0|2:0,2:0:0:0:
114,357,94842,6,0,P|77:277|82:210,2,142.500005435944,10|10|10,2:0|2:0|2:0,2:0:0:0:
208,249,96084,2,0,L|193:161,1,71.2500027179719,10|2,2:0|2:0,2:0:0:0:
163,40,96705,1,10,2:0:0:0:
229,165,97118,2,0,L|141:179,1,71.2500027179719,2|10,2:0|2:0,2:0:0:0:
20,203,97739,1,10,2:0:0:0:
26,106,97946,1,2,2:0:0:0:
76,21,98153,6,0,P|128:4|177:7,1,95,10|2,2:0|2:0,2:0:0:0:
256,40,98567,2,0,P|262:87|270:141,1,95,10|2,2:0|2:0,2:0:0:0:
240,224,98980,2,0,L|235:290,2,47.5,10|2|2,2:0|2:0|2:0,2:0:0:0:
333,241,99394,1,10,2:0:0:0:
426,255,99601,1,2,2:0:0:0:
408,57,100015,5,2,2:0:0:0:
313,71,100222,2,0,L|286:30,1,47.5,10|0,2:0|2:0,2:0:0:0:
213,101,100532,1,0,2:0:0:0:
213,101,100635,2,0,P|218:150|236:203,1,95,10|2,2:0|2:0,2:0:0:0:
320,229,101049,2,0,P|332:277|332:332,1,95,10|2,2:0|2:0,2:0:0:0:
251,371,101463,5,10,2:0:0:0:
296,267,111394,5,10,2:0:0:0:
385,301,111601,2,0,L|402:357,2,47.5,2|2|2,2:0|2:0|2:0,2:0:0:0:
489,142,112221,2,0,P|428:131|371:135,1,95,10|2,2:0|2:0,2:0:0:0:
294,140,112635,1,10,2:0:0:0:
294,140,112739,1,10,2:0:0:0:
294,140,112842,6,0,L|286:83,1,47.5,10|0,2:0|2:0,2:0:0:0:
149,56,113256,1,10,2:0:0:0:
137,150,113463,1,10,2:0:0:0:
125,244,113670,2,0,L|187:237,1,47.5,10|0,2:0|2:0,2:0:0:0:
210,267,113877,5,10,2:0:0:0:
299,299,114084,2,0,P|343:324|403:308,2,95,2|2|2,2:0|2:0|2:0,2:0:0:0:
283,185,114704,6,0,P|344:174|415:166,1,113.999996520996,12|0,2:1|2:0,2:0:0:0:
499,248,115118,2,0,P|498:309|458:364,1,113.999996520996,10|0,2:0|2:0,2:0:0:0:
413,355,115428,2,0,L|403:299,1,56.9999982604981,0|10,2:0|2:0,2:0:0:0:
330,209,115739,2,0,L|338:136,1,56.9999982604981
319,108,115946,1,10,2:0:0:0:
319,108,116049,1,2,2:0:0:0:
319,108,116152,6,0,P|389:103|452:86,2,113.999996520996,2|2|2,2:0|2:0|2:0,2:0:0:0:
218,21,116773,2,0,L|146:15,1,56.9999982604981,10|2,2:0|2:0,2:0:0:0:
118,123,117084,2,0,L|60:113,1,56.9999982604981,2|2,2:0|2:0,2:0:0:0:
28,217,117394,1,2,2:0:0:0:
28,217,117497,1,2,2:0:0:0:
28,217,117601,1,8,2:0:0:0:
139,244,117808,5,2,2:0:0:0:
223,120,118015,2,0,P|276:111|341:144,1,113.999996520996,8|0,2:1|2:0,2:0:0:0:
441,160,118428,2,0,P|450:218|457:289,1,113.999996520996,10|2,2:0|2:0,2:0:0:0:
439,328,118739,2,0,L|373:338,1,56.9999982604981,0|10,2:0|2:0,2:0:0:0:
283,279,119049,2,0,L|288:208,2,56.9999982604981,0|2|10,2:0|2:0|2:0,2:0:0:0:
187,341,119463,1,2,2:0:0:0:
154,193,119670,6,0,P|139:111|146:45,1,113.999996520996,10|0,2:0|2:0,2:0:0:0:
247,41,120084,2,0,P|263:101|260:169,1,113.999996520996,10|2,2:0|2:0,2:0:0:0:
364,224,120497,1,10,2:0:0:0:
364,224,120601,1,0,2:0:0:0:
364,224,120704,1,2,2:0:0:0:
380,134,120911,1,10,2:0:0:0:
401,45,121118,2,0,L|342:34,1,56.9999982604981,8|8,2:0|2:0,2:0:0:0:
291,13,121325,6,0,P|229:21|159:34,1,113.999996520996,8|0,2:1|2:0,2:0:0:0:
51,23,121739,2,0,P|43:83|77:143,1,113.999996520996,10|0,2:0|2:0,2:0:0:0:
92,181,122049,2,0,L|148:171,1,56.9999982604981,0|10,2:0|2:0,2:0:0:0:
259,197,122360,2,0,L|274:279,1,56.9999982604981
312,298,122566,1,8,2:0:0:0:
312,298,122670,1,2,2:0:0:0:
312,298,122773,6,0,P|242:303|179:320,2,113.999996520996,2|2|0,2:0|2:0|2:0,2:0:0:0:
408,359,123394,2,0,L|480:365,1,56.9999982604981,10|2,2:0|2:0,2:0:0:0:
474,250,123705,2,0,L|416:240,1,56.9999982604981,2|2,2:0|2:0,2:0:0:0:
312,228,124015,1,2,2:0:0:0:
312,228,124118,1,2,2:0:0:0:
312,228,124222,1,8,2:0:0:0:
304,115,124429,5,2,2:0:0:0:
170,144,124636,2,0,P|137:101|134:29,1,113.999996520996,8|0,2:1|2:0,2:0:0:0:
239,8,125049,2,0,P|301:15|368:24,1,113.999996520996,10|2,2:0|2:0,2:0:0:0:
410,27,125360,2,0,L|420:93,1,56.9999982604981,0|10,2:0|2:0,2:0:0:0:
486,176,125670,2,0,L|500:244,2,56.9999982604981,2|2|10,2:0|2:0|2:0,2:0:0:0:
393,110,126084,1,2,2:0:0:0:
295,205,126291,6,0,P|213:190|147:197,1,113.999996520996,10|2,2:0|2:0,2:0:0:0:
165,305,126705,2,0,P|225:321|293:318,1,113.999996520996,10|2,2:0|2:0,2:0:0:0:
380,274,127118,2,0,L|370:219,1,47.5,10|2,2:0|2:0,2:0:0:0:
391,186,127325,1,2,2:0:0:0:
391,186,127428,2,0,P|431:184|486:203,1,95,2|2,2:0|2:0,2:0:0:0:
508,252,127739,6,0,L|498:315,1,56.9999982604981,2|0,2:0|2:0,2:0:0:0:
464,354,127946,1,8,2:1:0:0:
254,263,128360,2,0,P|222:211|227:143,1,113.999996520996,10|2,2:0|2:0,2:0:0:0:
262,119,128670,2,0,L|318:129,1,56.9999982604981,0|10,2:0|2:0,2:0:0:0:
325,16,128980,2,0,L|396:24,2,56.9999982604981,0|2|10,2:0|2:0|2:0,2:0:0:0:
212,39,129394,1,2,2:0:0:0:
99,57,129601,6,0,B|117:122|117:122|95:211|95:211|110:292,1,227.999993041992,10|10,2:0|2:0,2:0:0:0:
107,278,130428,1,10,2:0:0:0:
216,310,130635,2,0,L|222:247,2,56.9999982604981,2|2|10,2:0|2:0|2:0,2:0:0:0:
326,338,131049,6,0,L|332:268,1,56.9999982604981,2|2,2:0|2:0,2:0:0:0:
367,237,131256,2,0,P|343:183|285:148,1,113.999996520996,10|2,2:0|2:0,2:0:0:0:
239,54,131670,2,0,P|298:50|362:46,1,113.999996520996,10|2,2:0|2:0,2:0:0:0:
466,56,132084,2,0,P|477:113|452:167,1,113.999996520996,10|0,2:0|2:0,2:0:0:0:
415,204,132394,2,0,L|344:195,1,56.9999982604981,2|0,2:0|2:0,2:0:0:0:
244,186,132704,1,10,2:0:0:0:
244,186,134566,5,10,2:0:0:0:
152,159,134773,2,0,L|147:101,1,47.5,2|2,2:0|2:0,2:0:0:0:
117,74,134980,2,0,L|111:19,1,47.5,2|2,2:0|2:0,2:0:0:0:
205,10,135291,2,0,P|272:32|355:37,1,142.5,8|2,2:0|2:0,2:0:0:0:
435,12,135808,1,2,2:0:0:0:
390,127,136015,5,2,2:0:0:0:
483,145,136222,1,10,2:0:0:0:
471,239,136429,2,0,L|405:250,1,47.5,0|2,2:0|2:0,2:0:0:0:
457,335,136739,2,0,L|403:345,1,47.5,2|2,2:0|2:0,2:0:0:0:
319,372,137049,5,10,2:0:0:0:
281,234,137360,1,10,2:0:0:0:
247,95,137670,2,0,P|200:78|142:75,1,95,10|0,2:0|2:0,2:0:0:0:
62,96,138084,6,0,L|67:158,1,47.5,2|2,2:0|2:0,2:0:0:0:
108,164,138291,2,0,L|116:225,1,47.5,2|2,2:0|2:0,2:0:0:0:
85,301,138601,2,0,P|153:323|224:329,1,142.5,8|2,2:0|2:0,2:0:0:0:
318,314,139118,1,2,2:0:0:0:
294,198,139325,5,2,2:0:0:0:
278,104,139532,1,10,2:0:0:0:
184,116,139739,2,0,L|173:182,1,47.5,0|2,2:0|2:0,2:0:0:0:
88,130,140049,2,0,L|78:184,1,47.5,2|2,2:0|2:0,2:0:0:0:
145,245,140359,5,10,2:0:0:0:
283,209,140670,1,10,2:0:0:0:
411,270,140980,2,0,P|460:269|516:251,1,95,10|0,2:0|2:0,2:0:0:0:
489,162,141394,6,0,L|484:100,1,47.5,2|2,2:0|2:0,2:0:0:0:
444,89,141601,2,0,L|436:28,1,47.5,8|2,2:0|2:0,2:0:0:0:
350,19,141911,1,2,2:0:0:0:
350,19,142015,2,0,P|307:56|295:99,1,95,8|2,2:0|2:0,2:0:0:0:
315,183,142428,1,10,2:0:0:0:
208,148,142635,5,2,2:0:0:0:
201,242,142842,1,10,2:0:0:0:
115,200,143049,2,0,L|104:134,1,47.5,0|2,2:0|2:0,2:0:0:0:
14,162,143359,2,0,L|4:108,1,47.5,2|2,2:0|2:0,2:0:0:0:
87,67,143670,5,10,2:0:0:0:
243,54,143980,1,10,2:0:0:0:
399,34,144291,1,10,2:0:0:0:
256,192,144498,12,0,147808,2:0:0:0:
319,201,148222,6,0,P|228:214|182:217,1,95,10|2,2:0|2:0,2:0:0:0:
250,122,148635,2,0,P|159:135|113:138,1,95,10|2,2:0|2:0,2:0:0:0:
193,47,149049,2,0,P|102:60|56:63,1,95,10|2,2:0|2:0,2:0:0:0:
30,127,149463,6,0,P|17:218|14:264,1,95,10|2,2:0|2:0,2:0:0:0:
79,293,149877,2,0,L|133:308,2,47.5,10|2|2,2:0|2:0|2:0,2:0:0:0:
129,212,150291,1,10,2:0:0:0:
318,198,150704,1,10,2:0:0:0:
318,198,150808,1,2,2:0:0:0:
318,198,150911,2,0,L|375:206,1,47.5,2|2,2:0|2:0,2:0:0:0:
406,180,151118,6,0,P|424:143|424:72,1,95,10|2,2:0|2:0,2:0:0:0:
376,9,151532,2,0,P|311:15|265:22,1,95,2|2,2:0|2:0,2:0:0:0:
186,27,151946,1,10,2:0:0:0:
129,212,152360,2,0,P|172:167|218:164,1,95,10|2,2:0|2:0,2:0:0:0:
288,200,152773,6,0,P|297:266|300:306,1,95,10|2,2:0|2:0,2:0:0:0:
214,337,153187,2,0,L|193:292,1,47.5,10|2,2:0|2:0,2:0:0:0:
54,264,153601,2,0,L|73:307,1,47.5,8|0,2:0|2:0,2:0:0:0:
37,162,153911,1,0,2:0:0:0:
37,162,154015,2,0,P|110:169|156:153,1,95,10|2,2:0|2:0,2:0:0:0:
183,84,154429,6,0,B|243:95|243:95|296:145|296:145|384:163,1,190,10|10,2:0|2:0,2:0:0:0:
175,230,155256,2,0,P|220:221|257:186,1,95,10|2,2:0|2:0,2:0:0:0:
294,101,155670,2,0,L|289:40,2,47.5,10|0|2,2:0|2:0|2:0,2:0:0:0:
386,77,156084,6,0,B|451:94|473:184|409:227,1,190,10|10,2:0|2:0,2:0:0:0:
228,279,156911,2,0,B|162:261|140:171|203:129,2,190,10|10|10,2:0|2:0|2:0,2:0:0:0:
402,355,158153,2,0,P|397:301|385:229,1,95,10|2,2:0|2:0,2:0:0:0:
353,231,158463,6,0,L|342:171,1,47.5,0|10,2:0|2:0,2:0:0:0:
254,216,158773,1,2,2:0:0:0:
159,211,158980,2,0,L|149:145,2,47.5,10|2|2,2:0|2:0|2:0,2:0:0:0:
183,333,159394,2,0,P|131:347|66:341,1,95,10|2,2:0|2:0,2:0:0:0:
55,313,159704,6,0,L|63:245,1,47.5,2|10,2:0|2:0,2:0:0:0:
24,177,160015,2,0,L|31:124,1,47.5,0|2,2:0|2:0,2:0:0:0:
23,82,160222,2,0,B|126:57|126:57|193:82|193:82|309:47,1,285,10|2,2:0|2:0,2:0:0:0:
384,17,161049,5,10,2:0:0:0:
454,80,161256,2,0,L|462:140,1,47.5,2|2,2:0|2:0,2:0:0:0:
451,174,161463,2,0,P|382:191|337:189,1,95,10|2,2:0|2:0,2:0:0:0:
271,151,161877,1,10,2:0:0:0:
219,230,162084,1,2,2:0:0:0:
126,206,162291,2,0,P|119:150|109:105,1,95,10|2,2:0|2:0,2:0:0:0:
65,96,162601,2,0,L|69:30,1,47.5,2|10,2:0|2:0,2:0:0:0:
194,8,162911,6,0,L|264:11,1,47.5,2|2,2:0|2:0,2:0:0:0:
285,27,163118,2,0,P|286:79|301:142,1,95,10|2,2:0|2:0,2:0:0:0:
388,135,163532,1,10,2:0:0:0:
376,229,163739,2,0,L|320:210,2,47.5,2|0|10,2:0|2:0|2:0,2:0:0:0:
357,322,164153,1,2,2:0:0:0:
256,371,164360,6,0,B|184:361|151:293|200:226,1,190,10|2,2:0|2:0,2:0:0:0:
318,220,164980,1,2,2:0:0:0:
369,139,165187,2,0,P|362:78|355:25,1,95,10|10,2:0|2:0,2:0:0:0:
318,16,165498,2,0,L|256:12,1,47.5,2|10,2:0|2:0,2:0:0:0:
203,79,165808,2,0,L|216:135,1,47.5,2|0,2:0|2:0,2:0:0:0:
257,144,166015,5,10,2:0:0:0:
274,237,166222,2,0,L|321:233,1,47.5,2|0,2:0|2:0,2:0:0:0:
358,262,166429,2,0,P|354:309|346:356,1,95,10|2,2:0|2:0,2:0:0:0:
252,372,166842,2,0,P|168:338|34:342,1,190,10|2,2:0|2:0,2:0:0:0:
66,236,167463,2,0,L|63:176,1,47.5,2|0,2:0|2:0,2:0:0:0:
84,145,167670,5,10,2:0:0:0:
172,179,167877,2,0,L|167:235,1,47.5,2|2,2:0|2:0,2:0:0:0:
193,266,168084,2,0,P|235:257|281:213,1,95,10|2,2:0|2:0,2:0:0:0:
279,176,168394,2,0,L|333:184,1,47.5,2|10,2:0|2:0,2:0:0:0:
419,200,168705,1,8,2:0:0:0:
483,130,168912,2,0,P|476:74|466:29,1,95,10|2,2:0|2:0,2:0:0:0:
425,14,169222,6,0,L|359:10,1,47.5,2|10,2:0|2:0,2:0:0:0:
296,59,169532,2,0,L|230:55,1,47.5,2|2,2:0|2:0,2:0:0:0:
209,83,169739,2,0,P|187:135|188:175,1,95,10|2,2:0|2:0,2:0:0:0:
214,212,170049,2,0,L|223:265,1,47.5,2|10,2:0|2:0,2:0:0:0:
232,353,170360,1,10,2:0:0:0:
324,335,170566,1,10,2:0:0:0:
415,307,170773,1,0,2:0:0:0:
419,200,170980,6,0,P|374:190|308:178,2,95,10|0|2,2:0|2:0|2:0,2:0:0:0:
481,127,171601,6,0,L|468:66,1,47.5,2|2,2:0|2:0,2:0:0:0:
445,40,171808,2,0,P|390:40|350:70,1,95,8|2,2:0|2:0,2:0:0:0:
262,54,172222,2,0,P|258:105|252:171,1,95,2|2,2:0|2:0,2:0:0:0:
162,175,172635,1,10,2:0:0:0:
33,236,172946,6,0,L|40:339,2,95,10|10|10,2:0|2:0|2:0,2:0:0:0:
4,71,173670,1,10,2:0:0:0:
4,71,173877,2,0,B|52:70|52:70|95:55|95:55|164:52,1,142.5,8|0,2:0|2:0,2:0:0:0:
185,92,174291,6,0,L|237:83,1,47.5,10|10,2:0|2:0,2:0:0:0:
201,188,174601,1,8,2:0:0:0:
214,281,174808,1,10,2:0:0:0:
309,260,175015,1,10,2:0:0:0:
319,213,175118,1,10,2:0:0:0:
108,172,175946,6,0,P|118:256|124:321,1,142.500005435944,10|8,2:3|2:0,2:0:0:0:
293,338,176773,2,0,P|348:357|414:354,1,106.875004076958,2|8,2:0|2:0,2:0:0:0:
492,272,177394,2,0,P|500:203|505:104,1,142.500005435944,8|8,2:3|2:0,2:0:0:0:
458,59,178015,2,0,L|407:57,1,35.625001358986,4|4,2:0|2:0,2:0:0:0:
368,124,178325,2,0,P|316:153|248:131,1,106.875004076958,4|8,2:0|2:0,2:0:0:0:
237,134,178739,2,0,L|230:83,1,35.625001358986,4|8,2:0|2:0,2:0:0:0:
154,54,179049,1,2,2:0:0:0:
149,146,179256,6,0,P|143:228|135:299,1,142.500005435944,4|8,2:0|2:0,2:0:0:0:
288,367,180084,2,0,P|334:344|357:295,1,106.875004076958,4|0,2:0|2:0,2:0:0:0:
433,192,180704,2,0,L|426:102,2,71.2500027179719,8|4|8,2:0|2:0|2:0,2:0:0:0:
442,277,181325,1,4,2:0:0:0:
317,159,181739,6,0,P|278:142|223:138,1,71.2500027179719,4|4,2:0|2:0,2:0:0:0:
219,217,182153,2,0,P|258:234|313:238,1,71.2500027179719,2|8,2:0|2:0,2:0:0:0:
377,211,182566,6,0,P|368:121|360:16,1,190,10|4,2:3|2:0,2:0:0:0:
170,10,183394,2,0,P|146:58|192:146,1,142.5,2|4,2:0|2:0,2:0:0:0:
257,254,184015,2,0,P|325:260|375:266,1,95,2|0,2:0|2:0,2:0:0:0:
444,242,184429,1,8,2:0:0:0:
480,157,184635,1,2,2:0:0:0:
480,157,184739,2,0,P|489:97|481:40,1,95,8|2,2:0|2:0,2:0:0:0:
471,18,185049,1,0,2:0:0:0:
393,72,185256,2,0,L|396:126,2,47.5,4|4|8,2:0|2:0|2:0,2:0:0:0:
305,110,185670,1,2,2:0:0:0:
281,202,185877,6,0,P|336:217|392:216,1,95,4|8,2:0|2:0,2:0:0:0:
442,151,186291,2,0,P|385:134|335:133,1,95,2|4,2:0|2:0,2:0:0:0:
264,89,186704,6,0,L|193:75,1,47.5,2|0,2:0|2:0,2:0:0:0:
199,173,187015,2,0,L|140:160,1,47.5,4|8,2:0|2:0,2:0:0:0:
134,257,187325,2,0,L|75:244,1,47.5,8|0,2:3|2:0,2:0:0:0:
87,246,188360,5,10,2:0:0:0:
179,225,188567,2,0,P|226:246|248:304,2,95,2|2|2,2:0|2:0|2:0,2:0:0:0:
198,358,189187,6,0,P|259:347|329:331,1,113.999996520996,12|0,2:1|2:0,2:0:0:0:
372,212,189601,2,0,P|392:154|373:89,1,113.999996520996,10|0,2:0|2:0,2:0:0:0:
367,48,189911,2,0,L|303:42,1,56.9999982604981,0|10,2:0|2:0,2:0:0:0:
232,127,190222,2,0,L|239:208,1,56.9999982604981
217,240,190429,1,8,2:0:0:0:
217,240,190532,1,2,2:0:0:0:
217,240,190635,6,0,P|147:235|84:218,2,113.999996520996,2|2|2,2:0|2:0|2:0,2:0:0:0:
295,347,191256,2,0,L|289:275,1,56.9999982604981,10|2,2:0|2:0,2:0:0:0:
397,247,191567,2,0,L|393:188,1,56.9999982604981,2|2,2:0|2:0,2:0:0:0:
491,157,191877,1,2,2:0:0:0:
491,157,191980,1,2,2:0:0:0:
491,157,192084,1,8,2:0:0:0:
490,271,192291,5,2,2:0:0:0:
368,325,192498,2,0,P|314:330|251:294,1,113.999996520996,8|0,2:1|2:0,2:0:0:0:
185,219,192911,2,0,P|194:159|207:90,1,113.999996520996,10|0,2:0|2:0,2:0:0:0:
205,48,193222,2,0,L|271:58,1,56.9999982604981,0|10,2:0|2:0,2:0:0:0:
364,104,193532,2,0,L|378:172,2,56.9999982604981,2|2|10,2:0|2:0|2:0,2:0:0:0:
439,17,193946,1,2,2:0:0:0:
462,128,194153,6,0,P|477:210|470:276,1,113.999996520996,10|2,2:0|2:0,2:0:0:0:
410,334,194567,2,0,P|350:350|282:347,1,113.999996520996,10|2,2:0|2:0,2:0:0:0:
157,329,194980,1,10,2:0:0:0:
157,329,195084,1,0,2:0:0:0:
157,329,195187,1,2,2:0:0:0:
141,239,195394,1,10,2:0:0:0:
120,150,195601,2,0,L|179:139,1,56.9999982604981,10|10,2:0|2:0,2:0:0:0:
226,166,195808,6,0,P|245:222|192:269,1,113.999996520996,10|0,2:1|2:0,2:0:0:0:
59,285,196222,2,0,P|47:219|33:156,1,113.999996520996,10|0,2:0|2:0,2:0:0:0:
5,125,196532,2,0,L|18:65,1,56.9999982604981,0|10,2:0|2:0,2:0:0:0:
121,21,196842,2,0,L|193:49,1,56.9999982604981
231,31,197049,1,10,2:0:0:0:
231,31,197153,1,2,2:0:0:0:
231,31,197256,6,0,P|298:12|363:8,2,113.999996520996,2|2|2,2:0|2:0|2:0,2:0:0:0:
168,126,197877,2,0,L|180:200,1,56.9999982604981,10|2,2:0|2:0,2:0:0:0:
107,273,198188,2,0,L|117:331,1,56.9999982604981,2|2,2:0|2:0,2:0:0:0:
232,380,198498,1,2,2:0:0:0:
232,380,198601,1,2,2:0:0:0:
232,380,198705,1,10,2:0:0:0:
312,298,198912,5,2,2:0:0:0:
218,201,199119,2,0,P|204:148|229:81,1,113.999996520996,8|0,2:1|2:0,2:0:0:0:
301,11,199532,2,0,P|363:18|430:27,1,113.999996520996,10|2,2:0|2:0,2:0:0:0:
472,30,199843,2,0,L|482:96,1,56.9999982604981,0|10,2:0|2:0,2:0:0:0:
459,198,200153,2,0,L|473:266,2,56.9999982604981,2|2|10,2:0|2:0|2:0,2:0:0:0:
344,188,200567,1,2,2:0:0:0:
377,335,200774,6,0,P|295:320|229:327,1,113.999996520996,10|2,2:0|2:0,2:0:0:0:
151,339,201187,2,0,P|91:355|23:352,1,113.999996520996,8|2,2:0|2:0,2:0:0:0:
5,245,201601,2,0,L|17:192,1,47.5,10|2,2:0|2:0,2:0:0:0:
66,174,201808,1,2,2:0:0:0:
66,174,201911,2,0,P|112:182|152:206,1,95,2|2,2:0|2:0,2:0:0:0:
210,201,202222,6,0,L|223:142,1,56.9999982604981,2|0,2:0|2:0,2:0:0:0:
205,90,202429,1,8,2:1:0:0:
417,6,202843,2,0,P|449:58|444:126,1,113.999996520996,10|0,2:0|2:0,2:0:0:0:
409,150,203153,2,0,L|353:140,1,56.9999982604981,0|10,2:0|2:0,2:0:0:0:
316,248,203463,2,0,L|308:319,2,56.9999982604981,0|2|10,2:0|2:0|2:0,2:0:0:0:
425,280,203877,1,2,2:0:0:0:
512,134,204084,6,0,B|447:152|447:152|358:130|358:130|277:145,1,227.999993041992,10|10,2:0|2:0,2:0:0:0:
290,142,204911,1,10,2:0:0:0:
181,174,205118,2,0,L|175:111,2,56.9999982604981,2|2|10,2:0|2:0|2:0,2:0:0:0:
71,202,205532,6,0,L|65:132,1,56.9999982604981,2|0,2:0|2:0,2:0:0:0:
30,101,205739,2,0,P|70:57|136:43,1,113.999996520996,10|2,2:0|2:0,2:0:0:0:
251,73,206153,2,0,P|310:77|374:81,1,113.999996520996,10|2,2:0|2:0,2:0:0:0:
480,170,206567,2,0,P|487:230|496:289,1,113.999996520996,10|2,2:0|2:0,2:0:0:0:
458,327,206877,2,0,L|377:320,1,56.9999982604981,2|8,2:0|2:0,2:0:0:0:
278,369,207187,6,0,L|208:360,1,56.9999982604981,2|2,2:0|2:0,2:0:0:0:
168,384,207394,2,0,P|124:343|110:277,1,113.999996520996,10|2,2:0|2:0,2:0:0:0:
131,156,207808,2,0,P|72:152|8:148,1,113.999996520996,10|2,2:0|2:0,2:0:0:0:
128,19,208222,2,0,P|188:12|247:3,1,113.999996520996,10|2,2:0|2:0,2:0:0:0:
285,41,208532,2,0,L|278:122,1,56.9999982604981,2|8,2:0|2:0,2:0:0:0:
268,237,208842,5,2,2:0:0:0:
268,237,208946,1,2,2:0:0:0:
268,237,209049,2,0,P|334:225|389:221,1,113.999996520996,10|2,2:0|2:0,2:0:0:0:
214,154,209463,2,0,P|148:166|93:170,1,113.999996520996,10|2,2:0|2:0,2:0:0:0:
49,297,209877,6,0,L|53:229,1,56.9999982604981,10|0,2:0|2:0,2:0:0:0:
187,326,210187,2,0,L|190:254,1,56.9999982604981,2|10,2:0|2:0,2:0:0:0:
324,356,210498,1,8,2:0:0:0:
219,33,211118,1,10,2:0:0:0:
219,33,211222,1,0,2:0:0:0:
219,33,211325,2,0,P|180:41|147:46,1,56.9999982604981,2|2,2:0|2:0,2:0:0:0:
95,56,211532,5,10,2:0:0:0:
