osu file format v14

[General]
AudioFilename: audio.mp3
AudioLeadIn: 0
PreviewTime: 34704
Countdown: 0
SampleSet: Normal
StackLeniency: 0.7
Mode: 1
LetterboxInBreaks: 0
WidescreenStoryboard: 1

[Editor]
DistanceSpacing: 0.1
BeatDivisor: 4
GridSize: 32
TimelineZoom: 3.299999

[Metadata]
Title:Ego Rock
TitleUnicode:エゴロック
Artist:Three feat. Kagamine Len
ArtistUnicode:すりぃ feat. 鏡音レン
Creator:Hivie
Version:Anguish
Source:
Tags:collage 3 surii vocaloid male vocals japanese rock j-rock jrock ryxliee arcpotato GIGACHAD dako kyex ねこぜもん nekozemon まめでん mamedenkun egorokku ボーカロイド
BeatmapID:3963367
BeatmapSetID:1920337

[Difficulty]
HPDrainRate:7
CircleSize:2
OverallDifficulty:7
ApproachRate:10
SliderMultiplier:1.4
SliderTickRate:1

[Events]
//Background and Video events
0,0,"bg.jpg",0,-18
//Break Periods
//Storyboard Layer 0 (Background)
//Storyboard Layer 1 (Fail)
//Storyboard Layer 2 (Pass)
//Storyboard Layer 3 (Foreground)
//Storyboard Layer 4 (Overlay)
//Storyboard Sound Samples

[TimingPoints]
76,266.666666666667,4,1,0,70,1,0
76,-142.857142857143,4,1,0,70,0,0
1142,-100,4,1,0,70,0,0
18206,-90.9090909090908,4,1,0,60,0,0
18342,-111.111111111111,4,1,0,60,0,0
25673,-100,4,1,0,70,0,0
25939,-100,4,1,0,70,0,0
26073,-100,4,1,0,70,0,0
26206,-100,4,1,0,70,0,0
26473,-125,4,1,0,60,0,0
26739,-100,4,1,0,65,0,0
26876,-111.111111111111,4,1,0,65,0,0
32873,-107.138074193116,4,1,0,65,0,0
33006,-105.263157894737,4,1,0,65,0,0
33139,-103.452735031682,4,1,0,65,0,0
33406,-100,4,1,0,65,0,0
33539,-98.3646870773392,4,1,0,65,0,0
33673,-96.7702915205032,4,1,0,65,0,0
33939,-93.7536622524317,4,1,0,65,0,0
34073,-92.3041421483789,4,1,0,65,0,0
34206,-90.9090909090909,4,1,0,65,0,0
34473,-71.4285714285714,4,1,0,65,0,0
34739,-55.5555555555556,4,1,0,65,0,0
35276,-100,4,1,0,80,0,1
56609,-100,4,1,0,75,0,0
56676,-125,4,1,0,75,0,0
57609,-100,4,1,0,75,0,0
57742,-125,4,1,0,75,0,0
58742,-100,4,1,0,75,0,0
59006,-111.111111111111,4,1,0,75,0,0
59273,-107.138074193116,4,1,0,75,0,0
59406,-105.263157894737,4,1,0,75,0,0
59539,-103.452735031682,4,1,0,75,0,0
59806,-71.4285714285714,4,1,0,75,0,0

[HitObjects]
256,192,1142,5,4,0:0:0:0:
256,192,1409,1,8,0:0:0:0:
256,192,1609,1,8,0:0:0:0:
256,192,1676,1,0,0:0:0:0:
256,192,1809,1,0,0:0:0:0:
256,192,1942,1,8,0:0:0:0:
256,192,2009,1,0,0:0:0:0:
256,192,2076,1,8,0:0:0:0:
256,192,2342,1,0,0:0:0:0:
256,192,2476,1,8,0:0:0:0:
256,192,2609,1,0,0:0:0:0:
256,192,2676,1,8,0:0:0:0:
256,192,2742,1,0,0:0:0:0:
256,192,2876,1,0,0:0:0:0:
256,192,3009,1,8,0:0:0:0:
256,192,3076,1,8,0:0:0:0:
256,192,3142,1,0,0:0:0:0:
256,192,3209,1,0,0:0:0:0:
256,192,3276,1,8,0:0:0:0:
256,192,3409,1,0,0:0:0:0:
256,192,3542,1,8,0:0:0:0:
256,192,3676,1,0,0:0:0:0:
256,192,3742,1,8,0:0:0:0:
256,192,3809,1,0,0:0:0:0:
256,192,3942,1,0,0:0:0:0:
256,192,4076,1,8,0:0:0:0:
256,192,4142,1,0,0:0:0:0:
256,192,4209,1,8,0:0:0:0:
256,192,4476,1,0,0:0:0:0:
256,192,4609,1,8,0:0:0:0:
256,192,4742,1,0,0:0:0:0:
256,192,4809,1,8,0:0:0:0:
256,192,4876,1,0,0:0:0:0:
256,192,5009,1,8,0:0:0:0:
256,192,5076,1,0,0:0:0:0:
256,192,5142,1,8,0:0:0:0:
256,192,5209,1,8,0:0:0:0:
256,192,5276,1,0,0:0:0:0:
256,192,5409,1,12,0:0:0:0:
256,192,5676,1,8,0:0:0:0:
256,192,5876,1,0,0:0:0:0:
256,192,5942,1,8,0:0:0:0:
256,192,6076,1,0,0:0:0:0:
256,192,6209,1,8,0:0:0:0:
256,192,6276,1,8,0:0:0:0:
256,192,6342,1,0,0:0:0:0:
256,192,6609,1,0,0:0:0:0:
256,192,6742,1,8,0:0:0:0:
256,192,6876,1,0,0:0:0:0:
256,192,6942,1,8,0:0:0:0:
256,192,7009,1,0,0:0:0:0:
256,192,7142,1,0,0:0:0:0:
256,192,7276,1,8,0:0:0:0:
256,192,7342,1,8,0:0:0:0:
256,192,7409,1,0,0:0:0:0:
256,192,7476,1,0,0:0:0:0:
256,192,7542,1,8,0:0:0:0:
256,192,7676,1,0,0:0:0:0:
256,192,7809,1,8,0:0:0:0:
256,192,7942,1,0,0:0:0:0:
256,192,8009,1,8,0:0:0:0:
256,192,8076,1,0,0:0:0:0:
256,192,8209,1,0,0:0:0:0:
256,192,8342,1,8,0:0:0:0:
256,192,8476,1,0,0:0:0:0:
256,192,8542,1,0,0:0:0:0:
256,192,8609,1,8,0:0:0:0:
256,192,8676,1,0,0:0:0:0:
256,192,8742,1,0,0:0:0:0:
256,192,8876,1,8,0:0:0:0:
256,192,9009,1,0,0:0:0:0:
256,192,9076,1,0,0:0:0:0:
256,192,9142,1,8,0:0:0:0:
256,192,9276,1,0,0:0:0:0:
256,192,9409,1,8,0:0:0:0:
256,192,9476,1,8,0:0:0:0:
256,192,9542,1,8,0:0:0:0:
256,192,9609,1,8,0:0:0:0:
256,192,9676,5,4,0:0:0:0:
256,192,9942,1,8,0:0:0:0:
256,192,10142,1,8,0:0:0:0:
256,192,10209,1,0,0:0:0:0:
256,192,10342,1,0,0:0:0:0:
256,192,10476,1,8,0:0:0:0:
256,192,10542,1,0,0:0:0:0:
256,192,10609,1,8,0:0:0:0:
256,192,10876,1,0,0:0:0:0:
256,192,11009,1,8,0:0:0:0:
256,192,11142,1,0,0:0:0:0:
256,192,11209,1,8,0:0:0:0:
256,192,11276,1,0,0:0:0:0:
256,192,11409,1,0,0:0:0:0:
256,192,11542,1,8,0:0:0:0:
256,192,11609,1,8,0:0:0:0:
256,192,11676,1,0,0:0:0:0:
256,192,11742,1,8,0:0:0:0:
256,192,11809,1,0,0:0:0:0:
256,192,11942,1,0,0:0:0:0:
256,192,12076,1,8,0:0:0:0:
256,192,12209,1,0,0:0:0:0:
256,192,12276,1,8,0:0:0:0:
256,192,12342,1,0,0:0:0:0:
256,192,12476,1,0,0:0:0:0:
256,192,12609,1,8,0:0:0:0:
256,192,12676,1,0,0:0:0:0:
256,192,12742,1,8,0:0:0:0:
256,192,13009,1,0,0:0:0:0:
256,192,13142,1,8,0:0:0:0:
256,192,13276,1,0,0:0:0:0:
256,192,13342,1,8,0:0:0:0:
256,192,13409,1,0,0:0:0:0:
256,192,13542,1,0,0:0:0:0:
256,192,13609,1,0,0:0:0:0:
256,192,13676,1,8,0:0:0:0:
256,192,13742,1,8,0:0:0:0:
256,192,13809,1,0,0:0:0:0:
256,192,13942,1,12,0:0:0:0:
256,192,14209,1,8,0:0:0:0:
256,192,14409,1,0,0:0:0:0:
256,192,14476,1,8,0:0:0:0:
256,192,14609,1,0,0:0:0:0:
256,192,14742,1,8,0:0:0:0:
256,192,14809,1,8,0:0:0:0:
256,192,14876,1,0,0:0:0:0:
256,192,15142,1,0,0:0:0:0:
256,192,15276,1,8,0:0:0:0:
256,192,15409,1,0,0:0:0:0:
256,192,15476,1,8,0:0:0:0:
256,192,15542,1,0,0:0:0:0:
256,192,15676,1,0,0:0:0:0:
256,192,15809,1,8,0:0:0:0:
256,192,15876,1,0,0:0:0:0:
256,192,15942,1,8,0:0:0:0:
256,192,16009,1,8,0:0:0:0:
256,192,16076,1,0,0:0:0:0:
256,192,16209,1,0,0:0:0:0:
256,192,16342,1,8,0:0:0:0:
256,192,16476,1,0,0:0:0:0:
256,192,16542,1,0,0:0:0:0:
256,192,16609,1,8,0:0:0:0:
256,192,16676,1,8,0:0:0:0:
256,192,16742,1,0,0:0:0:0:
256,192,16809,1,0,0:0:0:0:
256,192,16876,1,8,0:0:0:0:
256,192,16942,1,8,0:0:0:0:
256,192,17009,1,8,0:0:0:0:
256,192,17076,1,8,0:0:0:0:
256,192,17142,1,0,0:0:0:0:
256,192,17209,1,8,0:0:0:0:
256,192,17276,1,0,0:0:0:0:
256,192,17409,1,8,0:0:0:0:
256,192,17476,1,8,0:0:0:0:
256,192,17542,1,8,0:0:0:0:
256,192,17676,1,4,0:0:0:0:
256,192,17809,1,4,0:0:0:0:
256,192,18209,1,12,0:0:0:0:
256,192,18476,1,0,0:0:0:0:
256,192,18609,1,8,0:0:0:0:
256,192,18742,1,0,0:0:0:0:
256,192,18876,1,0,0:0:0:0:
256,192,19009,1,8,0:0:0:0:
256,192,19142,1,0,0:0:0:0:
256,192,19276,1,8,0:0:0:0:
256,192,19542,1,8,0:0:0:0:
256,192,19809,1,0,0:0:0:0:
256,192,20076,1,8,0:0:0:0:
256,192,20209,1,0,0:0:0:0:
256,192,20342,1,0,0:0:0:0:
256,192,20609,1,8,0:0:0:0:
256,192,20742,1,8,0:0:0:0:
256,192,20876,1,0,0:0:0:0:
256,192,21009,1,0,0:0:0:0:
256,192,21142,1,8,0:0:0:0:
256,192,21409,1,8,0:0:0:0:
256,192,21676,1,0,0:0:0:0:
256,192,21809,1,8,0:0:0:0:
256,192,21942,1,0,0:0:0:0:
256,192,22076,1,8,0:0:0:0:
256,192,22209,1,8,0:0:0:0:
256,192,22342,1,4,0:0:0:0:
256,192,22609,1,8,0:0:0:0:
256,192,22742,1,8,0:0:0:0:
256,192,22876,1,0,0:0:0:0:
256,192,23009,1,8,0:0:0:0:
256,192,23142,1,0,0:0:0:0:
256,192,23276,1,8,0:0:0:0:
256,192,23409,1,8,0:0:0:0:
256,192,23542,1,0,0:0:0:0:
256,192,23676,1,0,0:0:0:0:
256,192,23809,1,8,0:0:0:0:
256,192,24076,1,8,0:0:0:0:
256,192,24342,1,0,0:0:0:0:
256,192,24476,1,0,0:0:0:0:
256,192,24609,1,8,0:0:0:0:
256,192,24742,1,8,0:0:0:0:
256,192,24876,1,0,0:0:0:0:
256,192,25009,1,8,0:0:0:0:
256,192,25142,1,0,0:0:0:0:
256,192,25409,1,8,0:0:0:0:
256,192,25676,1,12,0:0:0:0:
256,192,25942,1,8,0:0:0:0:
256,192,26076,1,0,0:0:0:0:
256,192,26209,1,8,0:0:0:0:
256,192,26476,1,0,0:0:0:0:
256,192,26742,1,12,0:0:0:0:
256,192,27009,1,8,0:0:0:0:
256,192,27142,1,0,0:0:0:0:
256,192,27276,1,8,0:0:0:0:
256,192,27409,1,0,0:0:0:0:
256,192,27542,1,8,0:0:0:0:
256,192,27676,1,8,0:0:0:0:
256,192,27809,1,8,0:0:0:0:
256,192,27942,1,0,0:0:0:0:
256,192,28009,1,0,0:0:0:0:
256,192,28076,1,8,0:0:0:0:
256,192,28142,1,8,0:0:0:0:
256,192,28209,1,0,0:0:0:0:
256,192,28342,1,8,0:0:0:0:
256,192,28609,1,0,0:0:0:0:
256,192,28742,1,8,0:0:0:0:
256,192,28876,1,0,0:0:0:0:
256,192,29142,1,8,0:0:0:0:
256,192,29276,1,8,0:0:0:0:
256,192,29409,1,0,0:0:0:0:
256,192,29542,1,0,0:0:0:0:
256,192,29676,1,8,0:0:0:0:
256,192,29942,1,0,0:0:0:0:
256,192,30076,1,0,0:0:0:0:
256,192,30209,1,8,0:0:0:0:
256,192,30342,1,0,0:0:0:0:
256,192,30609,1,0,0:0:0:0:
256,192,30742,1,8,0:0:0:0:
256,192,30876,1,4,0:0:0:0:
256,192,31142,1,0,0:0:0:0:
256,192,31276,1,8,0:0:0:0:
256,192,31409,1,0,0:0:0:0:
256,192,31542,1,8,0:0:0:0:
256,192,31676,1,8,0:0:0:0:
256,192,31809,1,0,0:0:0:0:
256,192,31942,1,8,0:0:0:0:
256,192,32076,1,8,0:0:0:0:
256,192,32209,1,0,0:0:0:0:
256,192,32276,1,0,0:0:0:0:
256,192,32342,1,8,0:0:0:0:
256,192,32409,1,8,0:0:0:0:
256,192,32476,1,8,0:0:0:0:
256,192,32609,1,0,0:0:0:0:
256,192,32876,1,8,0:0:0:0:
256,192,33009,1,0,0:0:0:0:
256,192,33142,1,12,0:0:0:0:
256,192,33409,1,0,0:0:0:0:
256,192,33542,1,0,0:0:0:0:
256,192,33676,1,12,0:0:0:0:
256,192,33942,1,8,0:0:0:0:
256,192,34076,1,0,0:0:0:0:
256,192,34209,1,12,0:0:0:0:
256,192,34476,1,12,0:0:0:0:
256,192,34742,1,12,0:0:0:0:
256,192,35276,1,4,0:0:0:0:
256,192,35476,1,0,0:0:0:0:
256,192,35542,1,8,0:0:0:0:
256,192,35676,1,0,0:0:0:0:
256,192,35809,1,8,0:0:0:0:
256,192,35876,1,0,0:0:0:0:
256,192,35942,1,8,0:0:0:0:
256,192,36009,1,8,0:0:0:0:
256,192,36076,1,0,0:0:0:0:
256,192,36209,1,8,0:0:0:0:
256,192,36342,1,0,0:0:0:0:
256,192,36476,1,8,0:0:0:0:
256,192,36542,1,8,0:0:0:0:
256,192,36609,1,0,0:0:0:0:
256,192,36676,1,8,0:0:0:0:
256,192,36742,1,0,0:0:0:0:
256,192,36809,1,0,0:0:0:0:
256,192,36876,1,8,0:0:0:0:
256,192,37009,1,0,0:0:0:0:
256,192,37142,1,8,0:0:0:0:
256,192,37209,1,0,0:0:0:0:
256,192,37276,1,8,0:0:0:0:
256,192,37409,1,0,0:0:0:0:
256,192,37609,1,0,0:0:0:0:
256,192,37676,1,8,0:0:0:0:
256,192,37809,1,0,0:0:0:0:
256,192,37876,1,0,0:0:0:0:
256,192,37942,1,8,0:0:0:0:
256,192,38076,1,0,0:0:0:0:
256,192,38209,1,8,0:0:0:0:
256,192,38276,1,0,0:0:0:0:
256,192,38342,1,8,0:0:0:0:
256,192,38409,1,0,0:0:0:0:
256,192,38476,1,8,0:0:0:0:
256,192,38542,1,8,0:0:0:0:
256,192,38609,1,0,0:0:0:0:
256,192,38742,1,8,0:0:0:0:
256,192,38876,1,0,0:0:0:0:
256,192,38942,1,0,0:0:0:0:
256,192,39009,1,8,0:0:0:0:
256,192,39076,1,0,0:0:0:0:
256,192,39142,1,0,0:0:0:0:
256,192,39209,1,0,0:0:0:0:
256,192,39276,1,8,0:0:0:0:
256,192,39409,1,0,0:0:0:0:
256,192,39542,1,12,0:0:0:0:
256,192,39742,1,0,0:0:0:0:
256,192,39809,1,8,0:0:0:0:
256,192,39942,1,0,0:0:0:0:
256,192,40076,1,8,0:0:0:0:
256,192,40142,1,0,0:0:0:0:
256,192,40209,1,8,0:0:0:0:
256,192,40276,1,8,0:0:0:0:
256,192,40342,1,0,0:0:0:0:
256,192,40409,1,0,0:0:0:0:
256,192,40476,1,8,0:0:0:0:
256,192,40609,1,0,0:0:0:0:
256,192,40742,1,8,0:0:0:0:
256,192,40876,1,0,0:0:0:0:
256,192,40942,1,0,0:0:0:0:
256,192,41009,1,8,0:0:0:0:
256,192,41076,1,0,0:0:0:0:
256,192,41142,1,8,0:0:0:0:
256,192,41209,1,8,0:0:0:0:
256,192,41276,1,0,0:0:0:0:
256,192,41409,1,8,0:0:0:0:
256,192,41542,1,0,0:0:0:0:
256,192,41609,1,0,0:0:0:0:
256,192,41676,1,8,0:0:0:0:
256,192,41876,1,0,0:0:0:0:
256,192,41942,1,8,0:0:0:0:
256,192,42076,1,0,0:0:0:0:
256,192,42142,1,0,0:0:0:0:
256,192,42209,1,8,0:0:0:0:
256,192,42342,1,0,0:0:0:0:
256,192,42409,1,0,0:0:0:0:
256,192,42476,1,0,0:0:0:0:
256,192,42609,1,12,0:0:0:0:
256,192,42876,1,0,0:0:0:0:
256,192,43009,1,8,0:0:0:0:
256,192,43142,1,0,0:0:0:0:
256,192,43209,1,0,0:0:0:0:
256,192,43276,1,8,0:0:0:0:
256,192,43342,1,8,0:0:0:0:
256,192,43409,1,0,0:0:0:0:
256,192,43476,1,0,0:0:0:0:
256,192,43542,1,8,0:0:0:0:
256,192,43609,1,8,0:0:0:0:
256,192,43676,1,8,0:0:0:0:
256,192,43742,1,8,0:0:0:0:
256,192,43809,1,4,0:0:0:0:
256,192,44076,1,8,0:0:0:0:
256,192,44209,1,0,0:0:0:0:
256,192,44342,1,8,0:0:0:0:
256,192,44409,1,8,0:0:0:0:
256,192,44476,1,0,0:0:0:0:
256,192,44609,1,8,0:0:0:0:
256,192,44742,1,0,0:0:0:0:
256,192,44809,1,0,0:0:0:0:
256,192,44876,1,8,0:0:0:0:
256,192,45142,1,8,0:0:0:0:
256,192,45209,1,8,0:0:0:0:
256,192,45276,1,0,0:0:0:0:
256,192,45409,1,8,0:0:0:0:
256,192,45542,1,0,0:0:0:0:
256,192,45609,1,0,0:0:0:0:
256,192,45676,1,8,0:0:0:0:
256,192,45742,1,0,0:0:0:0:
256,192,45809,1,0,0:0:0:0:
256,192,45942,1,8,0:0:0:0:
256,192,46209,1,8,0:0:0:0:
256,192,46342,1,0,0:0:0:0:
256,192,46476,1,8,0:0:0:0:
256,192,46542,1,8,0:0:0:0:
256,192,46609,1,0,0:0:0:0:
256,192,46676,1,0,0:0:0:0:
256,192,46742,1,8,0:0:0:0:
256,192,46876,1,0,0:0:0:0:
256,192,47009,1,8,0:0:0:0:
256,192,47276,1,8,0:0:0:0:
256,192,47409,1,0,0:0:0:0:
256,192,47542,1,0,0:0:0:0:
256,192,47676,1,8,0:0:0:0:
256,192,47742,1,8,0:0:0:0:
256,192,47809,1,0,0:0:0:0:
256,192,47876,1,8,0:0:0:0:
256,192,47942,1,0,0:0:0:0:
256,192,48076,1,12,0:0:0:0:
256,192,48342,1,0,0:0:0:0:
256,192,48476,1,8,0:0:0:0:
256,192,48542,1,0,0:0:0:0:
256,192,48609,1,8,0:0:0:0:
256,192,48676,1,8,0:0:0:0:
256,192,48742,1,0,0:0:0:0:
256,192,48876,1,8,0:0:0:0:
256,192,49009,1,4,0:0:0:0:
256,192,49276,1,0,0:0:0:0:
256,192,49409,1,8,0:0:0:0:
256,192,49476,1,8,0:0:0:0:
256,192,49542,1,0,0:0:0:0:
256,192,49676,1,8,0:0:0:0:
256,192,49809,1,0,0:0:0:0:
256,192,49942,1,8,0:0:0:0:
256,192,50009,1,0,0:0:0:0:
256,192,50076,1,0,0:0:0:0:
256,192,50209,1,12,0:0:0:0:
256,192,50476,1,0,0:0:0:0:
256,192,50609,1,0,0:0:0:0:
256,192,50742,1,8,0:0:0:0:
256,192,50809,1,0,0:0:0:0:
256,192,50876,1,8,0:0:0:0:
256,192,51009,1,8,0:0:0:0:
256,192,51142,1,4,0:0:0:0:
256,192,51409,1,0,0:0:0:0:
256,192,51542,1,8,0:0:0:0:
256,192,51676,1,0,0:0:0:0:
256,192,51809,1,8,0:0:0:0:
256,192,51942,1,0,0:0:0:0:
256,192,52009,1,0,0:0:0:0:
256,192,52076,1,8,0:0:0:0:
256,192,52142,1,8,0:0:0:0:
256,192,52209,1,8,0:0:0:0:
256,192,52276,1,8,0:0:0:0:
256,192,52342,1,4,0:0:0:0:
256,192,52609,1,8,0:0:0:0:
256,192,52742,1,0,0:0:0:0:
256,192,52809,1,0,0:0:0:0:
256,192,52876,1,8,0:0:0:0:
256,192,52942,1,0,0:0:0:0:
256,192,53009,1,0,0:0:0:0:
256,192,53142,1,8,0:0:0:0:
256,192,53276,1,0,0:0:0:0:
256,192,53409,1,8,0:0:0:0:
256,192,53476,1,8,0:0:0:0:
256,192,53542,1,0,0:0:0:0:
256,192,53676,1,8,0:0:0:0:
256,192,53809,1,0,0:0:0:0:
256,192,53942,1,8,0:0:0:0:
256,192,54009,1,8,0:0:0:0:
256,192,54076,1,0,0:0:0:0:
256,192,54142,1,0,0:0:0:0:
256,192,54209,1,8,0:0:0:0:
256,192,54276,1,0,0:0:0:0:
256,192,54342,1,8,0:0:0:0:
256,192,54476,1,0,0:0:0:0:
256,192,54742,1,8,0:0:0:0:
256,192,54876,1,0,0:0:0:0:
256,192,55009,1,8,0:0:0:0:
256,192,55076,1,8,0:0:0:0:
256,192,55142,1,8,0:0:0:0:
256,192,55209,1,8,0:0:0:0:
256,192,55276,1,0,0:0:0:0:
256,192,55409,1,8,0:0:0:0:
256,192,55542,1,0,0:0:0:0:
256,192,55742,1,0,0:0:0:0:
256,192,55809,1,8,0:0:0:0:
256,192,55942,1,0,0:0:0:0:
256,192,56076,1,8,0:0:0:0:
256,192,56142,1,8,0:0:0:0:
256,192,56209,1,8,0:0:0:0:
256,192,56276,1,8,0:0:0:0:
256,192,56342,1,0,0:0:0:0:
256,192,56409,1,0,0:0:0:0:
256,192,56476,1,0,0:0:0:0:
256,192,56542,1,0,0:0:0:0:
256,192,56609,1,12,0:0:0:0:
256,192,57142,1,0,0:0:0:0:
256,192,57676,1,12,0:0:0:0:
256,192,58076,1,0,0:0:0:0:
256,192,58120,1,0,0:0:0:0:
256,192,58164,1,0,0:0:0:0:
256,192,58209,1,8,0:0:0:0:
256,192,58742,1,12,0:0:0:0:
256,192,59009,1,0,0:0:0:0:
256,192,59276,1,0,0:0:0:0:
256,192,59409,1,0,0:0:0:0:
256,192,59542,1,8,0:0:0:0:
256,192,59809,1,4,0:0:0:0:
