osu file format v14

[General]
AudioFilename: audio.mp3
AudioLeadIn: 0
PreviewTime: 33779
Countdown: 0
SampleSet: Soft
StackLeniency: 0.3
Mode: 0
LetterboxInBreaks: 0
WidescreenStoryboard: 0

[Editor]
Bookmarks: 667,10879,21092,31305,33858,54284,59390
DistanceSpacing: 1.3
BeatDivisor: 4
GridSize: 32
TimelineZoom: 1.7

[Metadata]
Title:Watashi, Kekkyoku Net ni Juujun
TitleUnicode:私、結局ネットに従順
Artist:Three feat. Hatsune Miku
ArtistUnicode:すりぃ feat. 初音ミク
Creator:Wanpachi
Version:Insane
Source:
Tags:japanese rock jrock j-rock パンデミック pandemic vocaloid i'm im obedient to the netto after all surii 3
BeatmapID:3036599
BeatmapSetID:1480284

[Difficulty]
HPDrainRate:6
CircleSize:4
OverallDifficulty:8
ApproachRate:9
SliderMultiplier:1.7
SliderTickRate:1

[Events]
//Background and Video events
0,0,"hatsune mike.jpg",0,0
//Break Periods
2,31346,33258
//Storyboard Layer 0 (Background)
//Storyboard Layer 1 (Fail)
//Storyboard Layer 2 (Pass)
//Storyboard Layer 3 (Foreground)
//Storyboard Layer 4 (Overlay)
//Storyboard Sound Samples

[TimingPoints]
-4439,319.148936170213,4,2,1,40,1,0
29,-125,4,2,1,40,0,0
5614,-111.111111111111,4,2,1,50,0,0
10720,-100,4,2,1,70,0,0
20933,-111.111111111111,4,2,1,50,0,0
26039,-105.263157894737,4,2,1,60,0,0
31146,-125,4,2,1,50,0,0
33858,-90.9090909090909,4,2,1,80,0,1
34098,-90.9090909090909,4,2,1,5,0,1
34178,-90.9090909090909,4,2,1,80,0,1
35374,-90.9090909090909,4,2,1,5,0,1
35454,-90.9090909090909,4,2,1,80,0,1
36651,-90.9090909090909,4,2,1,5,0,1
36731,-90.9090909090909,4,2,1,80,0,1
37928,-90.9090909090909,4,2,1,5,0,1
38008,-90.9090909090909,4,2,1,80,0,1
39204,-90.9090909090909,4,2,1,5,0,1
39284,-90.9090909090909,4,2,1,80,0,1
41757,-90.9090909090909,4,2,1,5,0,1
41837,-90.9090909090909,4,2,1,80,0,1
43433,-90.9090909090909,4,2,1,80,0,0
44071,-90.9090909090909,4,2,1,80,0,1
44311,-90.9090909090909,4,2,1,5,0,1
44391,-90.9090909090909,4,2,1,80,0,1
45587,-90.9090909090909,4,2,1,5,0,1
45667,-90.9090909090909,4,2,1,80,0,1
48140,-90.9090909090909,4,2,1,5,0,1
48220,-90.9090909090909,4,2,1,80,0,1
49417,-90.9090909090909,4,2,1,5,0,1
49497,-90.9090909090909,4,2,1,80,0,1
50693,-90.9090909090909,4,2,1,5,0,1
50773,-90.9090909090909,4,2,1,80,0,1
51731,-100,4,2,1,70,0,0
53007,-111.111111111111,4,2,1,70,0,0
54124,-125,4,2,1,50,0,0

[Colours]
Combo1 : 234,104,175
Combo2 : 129,211,203

[HitObjects]
9,100,507,6,0,P|76:104|142:120,1,136,2|2,0:2|0:2,0:0:0:0:
142,120,986,2,0,P|109:129|79:144,1,68,2|0,0:2|0:2,0:0:0:0:
86,28,1305,2,0,P|119:19|149:4,1,68,2|0,0:2|0:2,0:0:0:0:
142,120,1624,2,0,P|118:144|99:172,1,68,2|0,0:2|0:2,0:0:0:0:
86,28,1943,5,2,0:2:0:0:
86,28,2103,1,2,0:2:0:0:
142,120,2263,2,0,P|133:152|130:186,1,68,2|0,0:2|0:2,0:0:0:0:
194,27,2582,5,2,0:2:0:0:
262,44,2741,1,2,0:2:0:0:
331,61,2901,1,2,0:2:0:0:
408,133,3061,6,0,P|341:137|275:153,1,136,2|2,0:2|0:2,0:0:0:0:
275,153,3539,2,0,P|308:162|338:177,1,68,2|0,0:2|0:2,0:0:0:0:
331,61,3858,5,2,0:2:0:0:
331,61,4017,1,2,0:2:0:0:
275,153,4178,2,0,P|298:177|317:205,1,68,2|0,0:2|0:2,0:0:0:0:
331,61,4497,5,2,0:2:0:0:
331,61,4656,1,2,0:2:0:0:
275,153,4816,2,0,P|283:185|286:219,1,68,2|0,0:2|0:2,0:0:0:0:
223,60,5135,5,2,0:2:0:0:
165,116,5295,1,2,0:2:0:0:
86,94,5454,1,2,0:2:0:0:
0,175,5614,6,0,P|75:179|149:197,1,152.999995330811,2|2,3:2|0:2,0:0:0:0:
150,197,6092,2,0,P|112:207|79:224,1,76.4999976654053,2|0,0:3|0:2,0:0:0:0:
87,94,6412,2,0,P|125:84|158:67,1,76.4999976654053,2|0,0:2|0:2,0:0:0:0:
150,197,6731,2,0,P|123:224|102:256,1,76.4999976654053,2|0,0:3|0:2,0:0:0:0:
87,94,7050,5,2,0:2:0:0:
87,94,7209,1,2,0:2:0:0:
150,197,7369,2,0,P|140:233|137:271,1,76.4999976654053,2|0,0:3|0:2,0:0:0:0:
208,92,7688,5,2,0:2:0:0:
284,112,7848,1,2,0:2:0:0:
362,131,8007,1,2,0:3:0:0:
449,212,8167,6,0,P|373:216|299:234,1,152.999995330811,2|2,3:2|0:2,0:0:0:0:
299,234,8646,2,0,P|336:244|369:261,1,76.4999976654053,2|0,0:3|0:2,0:0:0:0:
362,131,8965,5,2,0:2:0:0:
362,131,9125,1,2,0:2:0:0:
299,234,9284,2,0,P|325:261|346:293,1,76.4999976654053,2|0,0:3|0:2,0:0:0:0:
362,131,9603,5,2,0:2:0:0:
362,131,9763,1,2,0:2:0:0:
299,234,9922,2,0,P|308:270|311:308,1,76.4999976654053,2|0,0:3|0:2,0:0:0:0:
240,130,10241,5,2,1:2:0:0:
112,49,10401,1,2,1:2:0:0:
34,180,10561,1,2,1:2:0:0:
170,294,10720,6,0,P|252:274|337:269,1,170,6|2,3:2|3:2,0:0:0:0:
486,223,11199,6,0,P|448:204|407:191,1,85,2|0,1:3|0:2,0:0:0:0:
415,62,11518,5,2,3:3:0:0:
348,114,11678,1,2,3:2:0:0:
240,42,11837,6,0,P|242:84|252:125,1,85,2|0,1:3|0:2,0:0:0:0:
136,183,12156,5,2,3:3:0:0:
214,215,12316,1,2,3:2:0:0:
206,345,12475,6,0,P|241:321|272:292,1,85,2|0,1:3|0:2,0:0:0:0:
380,364,12795,5,2,3:3:0:0:
369,280,12954,1,2,3:2:0:0:
358,197,13114,1,2,1:3:0:0:
252,125,13273,6,0,P|246:209|227:292,1,170,2|2,3:2|3:2,0:0:0:0:
332,305,13752,6,0,P|350:343|362:383,1,85,2|0,1:3|0:2,0:0:0:0:
379,216,14071,5,2,3:3:0:0:
462,229,14231,1,2,3:2:0:0:
325,131,14390,6,0,P|347:95|376:65,1,85,2|0,1:3|0:2,0:0:0:0:
224,134,14709,5,2,3:3:0:0:
192,56,14869,1,2,3:2:0:0:
177,224,15029,6,0,P|134:221|92:212,1,85,2|0,1:3|0:2,0:0:0:0:
230,309,15348,5,2,3:3:0:0:
177,377,15507,1,2,3:2:0:0:
296,362,15667,1,2,1:3:0:0:
281,242,15826,6,0,P|286:157|305:74,1,170,6|2,3:2|3:2,0:0:0:0:
446,45,16305,6,0,P|416:75|393:111,1,85,2|0,1:3|0:2,0:0:0:0:
512,212,16624,5,2,3:3:0:0:
428,199,16784,1,2,3:2:0:0:
400,352,16943,6,0,P|387:311|368:273,1,85,2|0,1:3|0:2,0:0:0:0:
222,325,17263,5,2,3:3:0:0:
274,258,17422,1,2,3:2:0:0:
157,158,17582,6,0,P|198:167|240:170,1,85,2|0,1:3|0:2,0:0:0:0:
269,18,17901,5,2,3:3:0:0:
299,95,18061,1,2,3:2:0:0:
330,173,18220,1,2,1:3:0:0:
254,285,18380,6,0,P|171:266|86:261,1,170,2|2,3:2|3:2,0:0:0:0:
131,180,18858,6,0,P|99:151|65:127,1,85,2|0,1:3|0:2,0:0:0:0:
159,84,19178,5,2,3:3:0:0:
170,0,19337,1,2,3:2:0:0:
256,60,19497,6,0,P|296:47|334:28,1,85,2|0,1:3|0:2,0:0:0:0:
325,132,19816,5,2,3:3:0:0:
391,184,19975,1,2,3:2:0:0:
297,228,20135,6,0,P|287:269|285:311,1,85,2|0,1:3|0:2,0:0:0:0:
199,251,20454,5,2,3:3:0:0:
119,281,20614,1,2,3:2:0:0:
168,171,20773,1,2,1:3:0:0:
297,228,20933,5,4,3:2:0:0:
480,352,21252,1,2,3:2:0:0:
480,352,21412,2,0,P|482:314|491:277,1,76.4999976654053,2|0,1:2|0:2,0:0:0:0:
392,248,21731,2,0,P|371:216|344:188,1,76.4999976654053,2|0,3:2|3:2,0:0:0:0:
442,150,22050,2,0,P|475:133|512:122,1,76.4999976654053,2|0,1:2|0:2,0:0:0:0:
374,67,22369,6,0,P|298:71|224:89,1,152.999995330811,2|2,3:2|1:2,0:0:0:0:
134,145,22848,2,0,P|100:128|63:117,1,76.4999976654053,2|0,0:2|3:2,0:0:0:0:
182,235,23167,2,0,P|202:203|229:175,1,76.4999976654053,0|0,3:2|1:2,0:0:0:0:
51,319,23486,6,0,P|127:323|202:341,1,152.999995330811,0|2,3:2|3:2,0:0:0:0:
338,287,23965,2,0,P|301:278|263:276,1,76.4999976654053,2|0,1:2|0:2,0:0:0:0:
337,370,24284,1,2,3:2:0:0:
407,342,24443,1,2,3:2:0:0:
469,243,24603,1,2,1:2:0:0:
399,215,24763,1,2,0:2:0:0:
465,148,24922,6,0,P|397:181|324:203,1,152.999995330811,2|2,3:2|1:2,0:0:0:0:
248,161,25401,1,2,0:2:0:0:
188,346,25561,5,0,3:2:0:0:
179,271,25720,1,0,3:2:0:0:
171,197,25880,1,0,1:2:0:0:
54,95,26039,6,0,P|34:173|30:253,1,161.499995687485,4|2,3:2|3:2,0:0:0:0:
138,109,26518,2,0,P|159:75|187:46,1,80.7499978437424,2|0,1:2|0:2,0:0:0:0:
171,197,26837,2,0,P|173:237|182:276,1,80.7499978437424,2|0,3:2|3:2,0:0:0:0:
247,145,27156,2,0,P|268:111|296:82,1,80.7499978437424,2|0,1:2|0:2,0:0:0:0:
410,251,27475,6,0,P|331:231|251:227,1,161.499995687485,2|0,3:2|1:2,0:0:0:0:
182,276,27954,1,2,0:2:0:0:
263,362,28114,5,0,3:2:0:0:
338,353,28273,1,2,3:2:0:0:
412,345,28433,1,2,1:2:0:0:
494,220,28592,6,0,P|413:215|335:196,1,161.499995687485,2|0,3:2|3:2,0:0:0:0:
325,103,29071,2,0,P|291:81|262:53,1,80.7499978437424,2|2,1:2|0:2,0:0:0:0:
408,50,29390,5,2,3:2:0:0:
417,125,29550,1,2,3:2:0:0:
494,220,29709,1,2,1:2:0:0:
503,145,29869,1,2,0:2:0:0:
392,223,30029,6,0,P|371:302|368:382,1,161.499995687485,2|2,3:2|1:2,0:0:0:0:
273,316,30507,2,0,P|254:280|243:241,1,80.7499978437424,2|0,0:2|3:2,0:0:0:0:
199,379,30826,1,0,1:2:0:0:
181,368,30906,1,0,1:2:0:0:
165,357,30986,1,0,1:2:0:0:
150,343,31066,1,0,1:2:0:0:
136,328,31146,1,0,3:2:0:0:
500,29,33858,6,0,P|482:96|479:166,1,140.25000428009,6|0,3:2|0:2,0:0:0:0:
492,186,34178,1,2,1:2:0:0:
374,131,34337,1,2,0:3:0:0:
268,235,34497,2,0,P|314:237|359:248,1,93.5000028533936,2|2,3:2|0:3,0:0:0:0:
416,339,34816,1,2,1:2:0:0:
335,381,34975,1,2,0:3:0:0:
189,329,35135,6,0,P|157:266|138:199,1,140.25000428009,2|0,3:2|0:2,0:0:0:0:
141,176,35454,2,0,P|101:201|68:233,1,93.5000028533936,2|2,1:2|0:3,0:0:0:0:
51,77,35773,1,0,3:2:0:0:
217,66,35933,1,2,3:3:0:0:
221,42,36013,1,2,3:2:0:0:
225,19,36092,1,2,1:2:0:0:
265,165,36252,1,2,0:3:0:0:
432,67,36412,6,0,P|413:134|381:196,1,140.25000428009,2|0,3:2|0:2,0:0:0:0:
363,212,36731,2,0,P|407:199|449:178,1,93.5000028533936,2|2,1:2|0:3,0:0:0:0:
386,332,37050,2,0,P|340:330|295:319,1,93.5000028533936,2|2,3:2|0:3,0:0:0:0:
216,205,37369,1,2,1:2:0:0:
195,297,37529,1,2,0:3:0:0:
295,158,37688,6,0,P|263:95|244:28,1,140.25000428009,2|0,3:2|0:2,0:0:0:0:
256,8,38007,1,2,1:2:0:0:
416,3,38167,2,0,P|376:28|343:60,1,93.5000028533936,2|0,0:3|3:2,0:0:0:0:
406,194,38486,1,2,0:3:0:0:
281,251,38646,1,0,1:2:0:0:
295,158,38805,1,2,0:3:0:0:
457,312,38965,6,0,P|387:315|319:332,1,140.25000428009,6|0,3:2|0:2,0:0:0:0:
309,354,39284,2,0,P|267:332|222:320,1,93.5000028533936,2|2,1:2|0:3,0:0:0:0:
123,170,39603,1,2,3:2:0:0:
77,302,39763,1,2,0:3:0:0:
222,320,39922,1,2,1:2:0:0:
161,249,40082,1,2,0:3:0:0:
30,208,40241,5,2,3:2:0:0:
12,116,40401,1,2,0:3:0:0:
169,37,40561,1,2,1:2:0:0:
123,170,40720,2,0,P|164:148|209:136,1,93.5000028533936,2|0,0:3|3:2,0:0:0:0:
264,0,41039,1,2,3:3:0:0:
287,3,41119,1,2,3:2:0:0:
310,6,41199,1,2,1:2:0:0:
420,100,41358,1,2,0:3:0:0:
342,250,41518,6,0,P|274:232|204:229,1,140.25000428009,2|0,3:2|0:2,0:0:0:0:
181,235,41837,1,2,1:2:0:0:
282,153,41997,2,0,P|314:119|339:80,1,93.5000028533936,2|0,0:3|3:2,0:0:0:0:
271,257,42316,1,2,0:3:0:0:
188,155,42475,2,0,P|154:122|115:97,1,93.5000028533936,2|2,1:2|0:3,0:0:0:0:
111,293,42795,5,2,3:2:0:0:
200,331,42954,1,2,0:3:0:0:
327,210,43114,1,6,1:2:0:0:
181,235,43273,1,2,0:3:0:0:
339,79,43433,6,0,P|364:119|396:152,1,93.5000028533936,0|0,3:2|1:2,0:0:0:0:
415,166,43672,1,0,1:2:0:0:
415,189,43752,1,0,1:2:0:0:
416,212,43832,1,0,1:2:0:0:
420,235,43912,1,0,1:2:0:0:
425,258,43991,1,0,1:2:0:0:
432,280,44071,6,0,P|361:282|294:299,1,140.25000428009,6|0,3:2|0:2,0:0:0:0:
278,316,44390,2,0,P|300:274|312:230,1,93.5000028533936,2|2,1:2|0:3,0:0:0:0:
184,126,44709,2,0,P|195:171|196:217,1,93.5000028533936,2|2,3:2|0:3,0:0:0:0:
179,350,45029,1,2,1:2:0:0:
96,308,45188,1,2,0:3:0:0:
278,316,45348,6,0,P|347:317|415:334,1,140.25000428009,2|0,3:2|0:2,0:0:0:0:
436,346,45667,2,0,P|423:300|401:259,1,93.5000028533936,2|2,1:2|0:3,0:0:0:0:
455,154,45986,1,0,3:2:0:0:
290,193,46146,1,2,3:3:0:0:
285,215,46225,1,2,3:2:0:0:
280,238,46305,1,2,1:2:0:0:
200,130,46465,1,2,0:3:0:0:
93,194,46624,5,2,3:2:0:0:
123,283,46784,1,2,0:3:0:0:
10,372,46943,1,2,1:2:0:0:
32,261,47103,1,2,0:3:0:0:
179,218,47263,2,0,P|190:263|213:304,1,93.5000028533936,2|2,3:2|0:3,0:0:0:0:
325,379,47582,1,2,1:2:0:0:
406,353,47741,1,2,0:3:0:0:
447,153,47901,6,0,P|379:135|309:133,1,140.25000428009,2|0,3:2|0:2,0:0:0:0:
288,143,48220,1,2,1:2:0:0:
376,221,48380,2,0,P|415:245|449:278,1,93.5000028533936,2|0,0:3|3:2,0:0:0:0:
325,379,48699,1,2,0:3:0:0:
223,352,48858,1,0,1:2:0:0:
312,273,49018,1,2,0:3:0:0:
269,136,49178,6,0,P|199:138|131:155,1,140.25000428009,6|0,3:2|0:2,0:0:0:0:
114,171,49497,1,2,1:2:0:0:
154,296,49656,1,2,0:3:0:0:
312,273,49816,2,0,P|270:251|226:238,1,93.5000028533936,2|2,3:2|0:3,0:0:0:0:
114,171,50135,1,2,1:2:0:0:
201,99,50295,1,2,0:3:0:0:
410,154,50454,6,0,P|407:84|390:16,1,140.25000428009,2|0,3:2|0:2,0:0:0:0:
372,1,50773,2,0,P|338:33|298:58,1,93.5000028533936,2|2,1:2|0:3,0:0:0:0:
410,154,51092,1,2,3:2:0:0:
507,132,51252,1,2,0:3:0:0:
355,242,51412,2,0,P|366:287|367:333,1,93.5000028533936,2|0,1:2|1:2,0:0:0:0:
355,353,51651,1,0,1:2:0:0:
338,366,51731,5,4,3:2:0:0:
283,303,51890,1,2,3:2:0:0:
157,319,52050,5,2,1:2:0:0:
197,200,52209,1,2,3:2:0:0:
0,312,52369,6,0,P|22:348|51:378,1,85,2|0,1:2|3:2,0:0:0:0:
72,382,52608,1,2,3:2:0:0:
91,373,52688,1,2,1:2:0:0:
157,319,52848,1,2,3:2:0:0:
38,205,53007,6,0,P|58:172|84:145,2,76.4999976654053,2|2|2,1:2|0:2|0:2,0:0:0:0:
126,228,53486,1,2,0:2:0:0:
126,228,53646,2,0,P|159:209|196:199,1,76.4999976654053,0|0,1:2|1:2,0:0:0:0:
233,104,53965,1,0,1:2:0:0:
82,59,54124,5,6,3:2:0:0:
0,252,54443,1,2,0:2:0:0:
0,252,54603,2,0,P|16:281|25:314,1,68,10|0,0:2|0:2,0:0:0:0:
86,245,54922,2,0,P|114:227|139:203,1,68,10|0,0:2|0:2,0:0:0:0:
127,357,55241,2,0,P|160:357|193:366,1,68,10|0,0:2|0:2,0:0:0:0:
176,280,55561,6,0,P|204:262|229:238,1,68,10|0,0:2|0:2,0:0:0:0:
329,320,55880,2,0,P|345:349|354:382,1,68,10|0,0:2|0:2,0:0:0:0:
408,269,56199,2,0,P|383:245|354:227,1,68,10|2,0:2|3:2,0:0:0:0:
338,223,56438,1,0,3:2:0:0:
321,226,56518,1,10,0:2:0:0:
480,74,56678,5,2,3:2:0:0:
324,49,56997,1,2,0:2:0:0:
324,49,57156,2,0,P|324:82|333:115,1,68,10|0,0:2|0:2,0:0:0:0:
353,220,57475,2,0,P|370:191|394:166,1,68,10|0,0:2|0:2,0:0:0:0:
244,98,57795,2,0,P|220:73|203:45,1,68,10|0,0:2|0:2,0:0:0:0:
217,206,58114,6,0,P|246:189|279:180,1,68,10|0,0:2|0:2,0:0:0:0:
78,104,58433,2,0,P|107:120|140:129,1,68,10|0,0:2|0:2,0:0:0:0:
121,221,58752,2,0,P|88:212|54:211,1,68,10|2,0:2|3:2,0:0:0:0:
39,219,58991,1,0,3:2:0:0:
28,232,59071,1,10,0:2:0:0:
