osu file format v14

[General]
AudioFilename: audio.mp3
AudioLeadIn: 0
PreviewTime: 33779
Countdown: 0
SampleSet: Soft
StackLeniency: 0.3
Mode: 0
LetterboxInBreaks: 0
WidescreenStoryboard: 1

[Editor]
Bookmarks: 667,10879,21092,31305,33858,54284,59390
DistanceSpacing: 1.3
BeatDivisor: 4
GridSize: 32
TimelineZoom: 1.7

[Metadata]
Title:Watashi, Kekkyoku Net ni Juujun
TitleUnicode:私、結局ネットに従順
Artist:Three feat. Hatsune Miku
ArtistUnicode:すりぃ feat. 初音ミク
Creator:Wanpachi
Version:Hard
Source:
Tags:japanese rock jrock j-rock パンデミック pandemic vocaloid i'm im obedient to the netto after all surii 3
BeatmapID:3036598
BeatmapSetID:1480284

[Difficulty]
HPDrainRate:5
CircleSize:3.5
OverallDifficulty:6
ApproachRate:7.5
SliderMultiplier:1.35
SliderTickRate:1

[Events]
//Background and Video events
0,0,"hatsune mike.jpg",0,0
//Break Periods
2,31345,33033
//Storyboard Layer 0 (Background)
//Storyboard Layer 1 (Fail)
//Storyboard Layer 2 (Pass)
//Storyboard Layer 3 (Foreground)
//Storyboard Layer 4 (Overlay)
//Storyboard Sound Samples

[TimingPoints]
-4439,319.148936170213,4,2,1,40,1,0
29,-111.111111111111,4,2,1,40,0,0
5614,-111.111111111111,4,2,1,50,0,0
10162,-111.111111111111,4,2,1,5,0,0
10241,-111.111111111111,4,2,1,50,0,0
10720,-100,4,2,1,70,0,0
20933,-111.111111111111,4,2,1,50,0,0
26039,-111.111111111111,4,2,1,60,0,0
31146,-111.111111111111,4,2,1,50,0,0
33858,-90.9090909090909,4,2,1,80,0,1
43433,-90.9090909090909,4,2,1,80,0,0
44071,-90.9090909090909,4,2,1,80,0,1
51731,-100,4,2,1,70,0,0
53007,-111.111111111111,4,2,1,70,0,0
54124,-111.111111111111,4,2,1,50,0,0

[Colours]
Combo1 : 234,104,175
Combo2 : 129,211,203

[HitObjects]
0,347,507,6,0,P|58:332|119:329,1,121.499996292114,2|2,0:2|0:2,0:0:0:0:
190,364,986,1,2,0:2:0:0:
126,219,1305,1,2,0:2:0:0:
283,226,1624,1,2,0:2:0:0:
266,70,1943,6,0,P|238:57|209:48,2,60.7499981460572,2|2|2,0:2|0:2|0:2,0:0:0:0:
324,124,2422,2,0,P|378:98|436:80,1,121.499996292114,2|2,0:2|0:2,0:0:0:0:
504,129,2901,1,2,0:2:0:0:
504,129,3061,6,0,P|486:187|459:241,1,121.499996292114,2|2,0:2|0:2,0:0:0:0:
418,308,3539,1,2,0:2:0:0:
372,156,3858,1,2,0:2:0:0:
257,265,4178,1,2,0:2:0:0:
162,138,4497,6,0,P|171:109|183:81,2,60.7499981460572,2|2|2,0:2|0:2|0:2,0:0:0:0:
200,206,4975,2,0,P|142:224|87:251,1,121.499996292114,2|2,0:2|0:2,0:0:0:0:
48,189,5454,1,2,0:2:0:0:
48,189,5614,6,0,P|20:134|3:76,1,121.499996292114,2|2,3:2|0:2,0:0:0:0:
57,19,6092,2,0,P|101:60|151:93,1,121.499996292114,2|2,0:3|0:2,0:0:0:0:
222,141,6571,1,0,0:2:0:0:
222,141,6731,1,2,0:3:0:0:
347,45,7050,6,0,P|361:72|370:101,1,60.7499981460572,2|2,0:2|0:2,0:0:0:0:
336,172,7369,2,0,P|308:227|291:285,1,121.499996292114,2|2,0:3|0:2,0:0:0:0:
332,351,7848,2,0,P|361:343|391:342,1,60.7499981460572,2|2,0:2|0:3,0:0:0:0:
465,313,8167,6,0,P|450:254|447:193,1,121.499996292114,2|2,3:2|0:2,0:0:0:0:
495,129,8646,2,0,P|436:111|382:84,1,121.499996292114,2|2,0:3|0:2,0:0:0:0:
325,30,9124,1,0,0:2:0:0:
325,30,9284,1,2,0:3:0:0:
275,179,9603,6,0,P|262:206|253:235,1,60.7499981460572,2|2,0:2|0:2,0:0:0:0:
176,214,9922,2,0,P|165:169|162:124,1,91.1249972190858,2|0,0:3|0:0,0:0:0:0:
170,111,10241,1,2,1:2:0:0:
97,79,10401,1,2,1:2:0:0:
26,115,10561,1,2,1:2:0:0:
2,213,10720,6,0,P|58:249|107:296,1,135,6|2,3:2|3:2,0:0:0:0:
195,296,11199,2,0,P|175:231|145:171,1,135,2|2,1:3|3:3,0:0:0:0:
92,101,11678,1,2,3:2:0:0:
161,45,11837,2,0,P|193:54|223:69,1,67.5,2|0,1:3|0:2,0:0:0:0:
298,116,12156,5,2,3:3:0:0:
298,116,12316,1,2,3:2:0:0:
365,60,12475,2,0,P|395:120|414:184,1,135,2|2,1:3|3:3,0:0:0:0:
367,259,12954,1,2,3:2:0:0:
436,313,13114,1,2,1:3:0:0:
373,373,13273,6,0,P|307:357|240:353,1,135,2|2,3:2|3:2,0:0:0:0:
188,282,13752,2,0,P|123:301|63:331,1,135,2|2,1:3|3:3,0:0:0:0:
11,261,14231,1,2,3:2:0:0:
61,189,14390,2,0,P|42:160|19:136,1,67.5,2|0,1:3|0:2,0:0:0:0:
53,57,14709,5,2,3:3:0:0:
53,57,14869,1,2,3:2:0:0:
134,89,15029,2,0,P|201:85|266:69,1,135,2|2,1:3|3:3,0:0:0:0:
325,4,15507,1,2,3:2:0:0:
392,60,15667,1,2,1:3:0:0:
490,34,15826,6,0,P|473:99|469:166,1,135,6|2,3:2|3:2,0:0:0:0:
382,177,16305,2,0,P|352:237|333:301,1,135,2|2,1:3|3:3,0:0:0:0:
404,352,16784,1,2,3:2:0:0:
486,322,16943,2,0,P|478:289|476:255,1,67.5,2|0,1:3|0:2,0:0:0:0:
512,177,17263,5,2,3:3:0:0:
512,177,17422,1,2,3:2:0:0:
457,108,17582,2,0,P|392:127|332:157,1,135,2|2,1:3|3:3,0:0:0:0:
248,184,18061,1,2,3:2:0:0:
189,119,18220,1,2,1:3:0:0:
101,116,18380,6,0,P|70:176|51:240,1,135,2|2,3:2|3:2,0:0:0:0:
39,327,18858,2,0,P|104:311|171:307,1,135,2|2,1:3|3:3,0:0:0:0:
243,357,19337,1,2,3:2:0:0:
292,285,19497,2,0,P|310:256|333:232,1,67.5,2|0,1:3|0:2,0:0:0:0:
410,190,19816,5,2,3:3:0:0:
410,190,19975,1,2,3:2:0:0:
401,102,20135,2,0,P|340:71|276:52,1,135,2|2,1:3|3:3,0:0:0:0:
195,87,20614,1,2,3:2:0:0:
120,40,20773,1,2,1:3:0:0:
50,97,20933,1,4,3:2:0:0:
115,246,21252,5,2,3:2:0:0:
115,246,21412,2,0,P|136:225|162:208,1,60.7499981460572,2|0,1:2|0:2,0:0:0:0:
153,129,21731,2,0,P|182:121|212:120,1,60.7499981460572,2|0,3:2|3:2,0:0:0:0:
277,165,22050,1,2,1:2:0:0:
399,64,22369,6,0,P|416:122|443:176,1,121.499996292114,2|2,3:2|1:2,0:0:0:0:
502,231,22848,2,0,P|487:289|484:349,1,121.499996292114,2|0,0:2|3:2,0:0:0:0:
411,381,23326,1,0,1:2:0:0:
411,381,23486,1,0,3:2:0:0:
298,277,23805,5,2,3:2:0:0:
298,277,23965,2,0,P|270:263|241:254,1,60.7499981460572,2|0,1:2|0:2,0:0:0:0:
173,294,24284,2,0,P|180:323|181:353,2,60.7499981460572,2|2|2,3:2|3:2|1:2,0:0:0:0:
103,255,24763,1,2,0:2:0:0:
103,255,24922,6,0,P|69:204|27:160,1,121.499996292114,2|2,3:2|1:2,0:0:0:0:
57,89,25401,1,2,0:2:0:0:
57,89,25561,2,0,P|55:58|48:29,2,60.7499981460572,0|0|0,3:2|3:2|1:2,0:0:0:0:
139,130,26039,1,4,3:2:0:0:
299,114,26358,5,2,3:2:0:0:
299,114,26518,2,0,P|285:141|276:170,1,60.7499981460572,2|0,1:2|0:2,0:0:0:0:
204,203,26837,2,0,P|205:233|212:262,1,60.7499981460572,2|0,3:2|3:2,0:0:0:0:
228,344,27156,1,2,1:2:0:0:
228,344,27316,1,0,0:2:0:0:
304,362,27475,6,0,P|337:311|379:267,1,121.499996292114,2|0,3:2|1:2,0:0:0:0:
453,293,27954,1,2,0:2:0:0:
482,137,28273,2,0,P|474:107|473:77,1,60.7499981460572,2|2,3:2|1:2,0:0:0:0:
507,6,28592,6,0,P|452:33|394:50,1,121.499996292114,2|0,3:2|3:2,0:0:0:0:
318,70,29071,2,0,P|297:91|280:117,1,60.7499981460572,2|2,1:2|0:2,0:0:0:0:
210,80,29390,2,0,P|201:50|187:23,2,60.7499981460572,2|2|2,3:2|3:2|1:2,0:0:0:0:
142,118,29869,1,2,0:2:0:0:
142,118,30029,6,0,P|100:161|66:212,1,121.499996292114,2|2,3:2|1:2,0:0:0:0:
40,286,30507,2,0,P|70:287|99:294,1,60.7499981460572,2|0,0:2|3:2,0:0:0:0:
166,337,30826,1,0,1:2:0:0:
180,332,30905,1,0,1:2:0:0:
195,329,30985,1,0,1:2:0:0:
210,328,31065,1,0,1:2:0:0:
225,328,31145,1,0,3:2:0:0:
356,37,33858,6,0,P|392:39|428:47,1,74.2500022659302,6|0,3:2|0:0,0:0:0:0:
502,121,34178,1,2,1:2:0:0:
502,121,34337,1,2,0:3:0:0:
445,199,34497,2,0,P|393:252|353:314,1,148.50000453186,2|2,3:2|1:2,0:0:0:0:
268,360,34975,1,2,0:3:0:0:
188,305,35135,6,0,P|151:296|114:294,1,74.2500022659302,2|0,3:2|0:0,0:0:0:0:
32,243,35454,2,0,P|93:202|147:151,1,148.50000453186,2|0,1:2|3:2,0:0:0:0:
182,60,35933,1,2,3:3:0:0:
267,115,36092,1,2,1:2:0:0:
267,115,36252,1,2,0:3:0:0:
315,30,36412,6,0,P|352:32|388:40,1,74.2500022659302,2|0,3:2|0:0,0:0:0:0:
480,68,36731,2,0,P|491:103|508:136,1,74.2500022659302,2|2,1:2|0:3,0:0:0:0:
448,213,37050,2,0,P|431:246|420:281,1,74.2500022659302,2|2,3:2|0:3,0:0:0:0:
349,347,37369,1,2,1:2:0:0:
349,347,37529,1,2,0:3:0:0:
273,287,37688,6,0,P|239:270|204:259,1,74.2500022659302,2|0,3:2|0:0,0:0:0:0:
126,316,38007,1,2,1:2:0:0:
51,255,38167,2,0,P|46:180|29:108,1,148.50000453186,2|2,0:3|0:3,0:0:0:0:
101,44,38646,1,0,1:2:0:0:
101,44,38805,1,2,0:3:0:0:
190,112,38965,6,0,P|210:142|235:169,1,74.2500022659302,6|0,3:2|0:0,0:0:0:0:
255,264,39284,2,0,P|292:255|329:253,1,74.2500022659302,2|2,1:2|0:3,0:0:0:0:
407,198,39603,1,2,3:2:0:0:
407,198,39763,1,2,0:3:0:0:
363,114,39922,2,0,P|373:78|390:45,1,74.2500022659302,2|2,1:2|0:3,0:0:0:0:
301,18,40241,5,2,3:2:0:0:
301,18,40401,1,2,0:3:0:0:
243,95,40561,1,2,1:2:0:0:
163,42,40720,2,0,P|91:62|25:96,1,148.50000453186,2|2,0:3|3:3,0:0:0:0:
71,187,41199,1,2,1:2:0:0:
71,187,41358,1,2,0:3:0:0:
11,263,41518,6,0,P|62:316|102:378,1,148.50000453186,2|2,3:2|1:2,0:0:0:0:
174,313,41997,2,0,P|248:317|320:334,1,148.50000453186,2|2,0:3|0:3,0:0:0:0:
405,379,42475,2,0,P|431:353|462:333,1,74.2500022659302,2|2,1:2|0:3,0:0:0:0:
500,243,42795,5,2,3:2:0:0:
500,243,42954,1,2,0:3:0:0:
430,175,43114,1,6,1:2:0:0:
491,101,43273,2,0,P|480:65|463:32,1,74.2500022659302,2|0,0:3|3:2,0:0:0:0:
368,11,43592,1,0,1:2:0:0:
364,29,43672,1,0,1:2:0:0:
360,47,43752,2,0,P|349:62|337:76,3,37.1250011329651,0|0|0|0,1:2|1:2|1:2|1:2,0:0:0:0:
320,82,44071,6,0,P|336:115|347:150,1,74.2500022659302,6|0,3:2|0:0,0:0:0:0:
437,187,44390,2,0,P|425:222|409:255,1,74.2500022659302,2|2,1:2|0:3,0:0:0:0:
337,321,44709,2,0,P|262:324|190:341,1,148.50000453186,2|2,3:2|1:2,0:0:0:0:
100,375,45188,1,2,0:3:0:0:
54,289,45348,6,0,P|64:253|81:220,1,74.2500022659302,2|0,3:2|0:0,0:0:0:0:
167,175,45667,2,0,P|150:102|146:28,1,148.50000453186,2|0,1:2|3:2,0:0:0:0:
240,5,46146,1,2,3:3:0:0:
317,61,46305,1,2,1:2:0:0:
317,61,46465,1,2,0:3:0:0:
404,21,46624,6,0,P|412:57|414:94,1,74.2500022659302,2|2,3:2|0:3,0:0:0:0:
507,121,46943,2,0,P|481:148|461:179,1,74.2500022659302,2|2,1:2|0:3,0:0:0:0:
393,248,47263,2,0,P|428:258|461:275,1,74.2500022659302,2|2,3:2|0:3,0:0:0:0:
395,346,47582,1,2,1:2:0:0:
395,346,47741,1,2,0:3:0:0:
310,299,47901,6,0,P|272:300|236:309,1,74.2500022659302,2|0,3:2|0:0,0:0:0:0:
146,342,48220,1,2,1:2:0:0:
78,273,48380,2,0,P|118:210|168:156,1,148.50000453186,2|2,0:3|0:3,0:0:0:0:
254,208,48858,1,0,1:2:0:0:
254,208,49018,1,2,0:3:0:0:
343,142,49178,6,0,P|332:106|315:73,1,74.2500022659302,6|0,3:2|0:0,0:0:0:0:
222,80,49497,1,2,1:2:0:0:
222,80,49656,1,2,0:3:0:0:
147,18,49816,2,0,P|84:58|30:108,1,148.50000453186,2|2,3:2|1:2,0:0:0:0:
77,192,50295,1,2,0:3:0:0:
12,263,50454,6,0,P|28:296|39:331,1,74.2500022659302,2|0,3:2|0:0,0:0:0:0:
126,373,50773,2,0,P|146:341|171:314,1,74.2500022659302,2|2,1:2|0:3,0:0:0:0:
249,257,51092,1,2,3:2:0:0:
249,257,51252,1,2,0:3:0:0:
323,318,51412,2,0,P|361:317|397:308,1,74.2500022659302,2|0,1:2|1:2,0:0:0:0:
410,297,51651,1,0,1:2:0:0:
421,284,51731,5,4,3:2:0:0:
449,201,51890,2,0,P|478:218|502:242,2,67.5,2|2|2,3:2|1:2|3:2,0:0:0:0:
418,118,52369,2,0,P|369:104|325:79,1,101.25,2|2,1:2|3:2,0:0:0:0:
308,79,52688,2,0,P|284:54|267:26,1,67.5,2|2,1:2|3:2,0:0:0:0:
195,60,53007,6,0,P|164:60|135:68,2,60.7499981460572,2|2|2,1:2|0:2|0:2,0:0:0:0:
239,125,53486,2,0,P|217:146|202:172,1,60.7499981460572,2|0,0:2|1:2,0:0:0:0:
148,230,53805,1,0,1:2:0:0:
201,289,53965,1,0,1:2:0:0:
157,369,54124,1,6,3:2:0:0:
25,291,54443,5,2,0:2:0:0:
25,291,54603,1,10,0:2:0:0:
165,219,54922,1,10,0:2:0:0:
33,134,55241,1,10,0:2:0:0:
165,219,55561,5,10,0:2:0:0:
173,63,55880,1,10,0:2:0:0:
165,219,56199,2,0,P|180:245|201:266,2,60.7499981460572,10|2|10,0:2|3:2|0:2,0:0:0:0:
182,141,56678,1,2,3:2:0:0:
341,116,56997,5,2,0:2:0:0:
341,116,57156,1,10,0:2:0:0:
283,266,57475,1,10,0:2:0:0:
341,116,57795,1,10,0:2:0:0:
442,242,58114,5,10,0:2:0:0:
341,116,58433,1,10,0:2:0:0:
501,92,58752,2,0,P|500:60|492:31,2,60.7499981460572,10|2|10,0:2|3:2|0:2,0:0:0:0:
