osu file format v14

[General]
AudioFilename: audio.mp3
AudioLeadIn: 0
PreviewTime: 167363
Countdown: 0
SampleSet: Normal
StackLeniency: 0.7
Mode: 2
LetterboxInBreaks: 0
WidescreenStoryboard: 1

[Editor]
DistanceSpacing: 1
BeatDivisor: 6
GridSize: 32
TimelineZoom: 1

[Metadata]
Title:Animal I Have Become
TitleUnicode:Animal I Have Become
Artist:Three Days Grace
ArtistUnicode:Three Days Grace
Creator:Secre
Version:Platter
Source:
Tags:chickenbible One-X 3DG Alternative Rock Metal Neil Sanderson Brad Matt Walst Barry Stock english adam gontier jive records
BeatmapID:2842835
BeatmapSetID:1371694

[Difficulty]
HPDrainRate:4
CircleSize:2.8
OverallDifficulty:8
ApproachRate:8
SliderMultiplier:2.65
SliderTickRate:2

[Events]
//Background and Video events
0,0,"the animal that pekora has become is unstoppable.jpg",0,0
//Break Periods
2,73133,74151
2,155754,158740
//Storyboard Layer 0 (Background)
//Storyboard Layer 1 (Fail)
//Storyboard Layer 2 (Pass)
//Storyboard Layer 3 (Foreground)
//Storyboard Layer 4 (Overlay)
//Storyboard Sound Samples

[TimingPoints]
152,491.803278688525,4,1,1,60,1,0
152,-125,4,1,1,60,0,0
8020,-111.111111111111,4,1,1,75,0,0
15889,-100,4,1,1,75,0,0
23758,-111.111111111111,4,1,1,75,0,0
27692,-100,4,1,1,75,0,0
31627,-111.111111111111,4,1,1,75,0,0
35561,-100,4,1,1,75,0,0
39496,-111.111111111111,4,1,1,75,0,0
43430,-100,4,1,1,75,0,0
47365,-111.111111111111,4,1,1,75,0,0
54246,491.803278688525,4,1,1,75,1,0
54246,-100,4,1,1,75,0,0
54491,-97.5609756097561,4,1,1,75,0,0
54737,-97.0873786407767,4,1,1,75,0,0
54983,-93.0232558139535,4,1,1,75,0,0
55229,491.803278688525,4,1,1,75,1,0
55229,-90.9090909090909,4,1,1,100,0,1
61376,-90.9090909090909,4,1,1,5,0,1
61458,-90.9090909090909,4,1,1,100,0,1
61530,-90.9090909090909,4,1,1,5,0,1
61622,-90.9090909090909,4,1,1,100,0,1
62360,-90.9090909090909,4,1,1,5,0,1
62442,-90.9090909090909,4,1,1,100,0,1
62514,-90.9090909090909,4,1,1,5,0,1
62606,-90.9090909090909,4,1,1,100,0,1
70229,-90.9090909090909,4,1,1,5,0,1
70311,-90.9090909090909,4,1,1,100,0,1
70383,-90.9090909090909,4,1,1,5,0,1
70475,-90.9090909090909,4,1,1,100,0,1
70966,-90.9090909090909,4,1,1,100,0,0
71089,-125,4,1,1,60,0,0
72933,-111.111111111111,4,1,1,75,0,0
78835,-100,4,1,1,75,0,0
82769,-111.111111111111,4,1,1,75,0,0
86703,-100,4,1,1,75,0,0
90638,-111.111111111111,4,1,1,75,0,0
94572,-100,4,1,1,75,0,0
98507,-111.111111111111,4,1,1,75,0,0
105384,491.803278688525,4,1,1,75,1,0
105384,-100,4,1,1,75,0,0
105629,-97.5609756097561,4,1,1,75,0,0
105875,-97.0873786407767,4,1,1,75,0,0
106121,-93.0232558139535,4,1,1,75,0,0
106375,491.803278688525,4,1,1,75,1,0
106375,-90.9090909090909,4,1,1,100,0,1
112522,-90.9090909090909,4,1,1,5,0,1
112604,-90.9090909090909,4,1,1,100,0,1
112676,-90.9090909090909,4,1,1,5,0,1
112768,-90.9090909090909,4,1,1,100,0,1
113506,-90.9090909090909,4,1,1,5,0,1
113588,-90.9090909090909,4,1,1,100,0,1
113660,-90.9090909090909,4,1,1,5,0,1
113752,-90.9090909090909,4,1,1,100,0,1
121375,-90.9090909090909,4,1,1,5,0,1
121457,-90.9090909090909,4,1,1,100,0,1
121529,-90.9090909090909,4,1,1,5,0,1
121621,-90.9090909090909,4,1,1,100,0,1
129243,-90.9090909090909,4,1,1,5,0,1
129325,-90.9090909090909,4,1,1,100,0,1
129397,-90.9090909090909,4,1,1,5,0,1
129489,-90.9090909090909,4,1,1,100,0,1
129981,-90.9090909090909,4,1,1,100,0,0
130105,-111.111111111111,4,1,1,75,0,0
131949,-100,4,1,1,75,0,0
151867,-100,4,1,1,75,0,0
155555,-125,4,1,1,60,0,0
159490,-125,4,1,1,75,0,0
165637,-125,4,1,1,76,0,0
165883,-125,4,1,1,77,0,0
166129,-125,4,1,1,78,0,0
166375,-125,4,1,1,79,0,0
166621,-125,4,1,1,80,0,0
166867,-125,4,1,1,81,0,0
167113,-96.1538461538461,4,1,1,82,0,0
167358,-94.3396226415094,4,1,1,83,0,0
167481,-125,4,1,1,50,0,0
173506,-90.9090909090909,4,1,1,5,0,0
173588,-90.9090909090909,4,1,1,50,0,0
173660,-90.9090909090909,4,1,1,5,0,0
173752,-90.9090909090909,4,1,1,50,0,0
174237,491.803278688525,4,1,1,50,1,0
174237,-100,4,1,1,75,0,0
175234,491.803278688525,4,1,1,75,1,0
175234,-90.9090909090909,4,1,1,100,0,1
181381,-90.9090909090909,4,1,1,5,0,1
181463,-90.9090909090909,4,1,1,100,0,1
181535,-90.9090909090909,4,1,1,5,0,1
181627,-90.9090909090909,4,1,1,100,0,1
182365,-90.9090909090909,4,1,1,5,0,1
182447,-90.9090909090909,4,1,1,100,0,1
182519,-90.9090909090909,4,1,1,5,0,1
182611,-90.9090909090909,4,1,1,100,0,1
190971,-90.9090909090909,4,1,1,75,0,0
191217,-91.743119266055,4,1,1,75,0,0
191463,-92.5925925925926,4,1,1,75,0,0
191709,-93.4579439252336,4,1,1,75,0,0
191832,-93.8967136150235,4,1,1,75,0,0
191955,-94.3396226415094,4,1,1,75,0,0
192201,-95.2380952380952,4,1,1,75,0,0
192447,-96.1538461538461,4,1,1,75,0,0
192570,-96.6183574879227,4,1,1,75,0,0
192692,-97.0873786407767,4,1,1,75,0,0
192938,-98.0392156862745,4,1,1,75,0,0
193184,-99.009900990099,4,1,1,75,0,0
193430,-100,4,1,1,75,0,0
203020,-100,4,1,1,5,0,0
203102,-100,4,1,1,75,0,0
203174,-100,4,1,1,5,0,0
203266,-100,4,1,1,75,0,0
204004,-100,4,1,1,5,0,0
204086,-100,4,1,1,75,0,0
204158,-100,4,1,1,5,0,0
204250,-100,4,1,1,75,0,0
206955,-100,4,1,1,5,0,0
207037,-100,4,1,1,75,0,0
207109,-100,4,1,1,5,0,0
207201,-100,4,1,1,75,0,0
207938,-100,4,1,1,5,0,0
208020,-100,4,1,1,75,0,0
208092,-100,4,1,1,5,0,0
208184,-100,4,1,1,75,0,0
208922,-100,4,1,1,5,0,0
209004,-100,4,1,1,75,0,0
209076,-100,4,1,1,5,0,0
209168,-100,4,1,1,75,0,0

[HitObjects]
111,195,152,6,0,L|234:195,1,106,0|0,3:0|0:0,0:0:0:0:
378,159,889,1,0,0:0:0:0:
278,153,1135,2,0,L|278:39,1,106,0|0,3:0|0:0,0:0:0:0:
375,135,1627,2,0,L|379:15,1,106,0|0,3:0|0:0,0:0:0:0:
187,111,2119,6,0,L|82:111,1,106,0|0,3:0|0:0,0:0:0:0:
274,182,2856,2,0,L|381:181,1,106,0|0,0:0|3:0,0:0:0:0:
268,118,3348,2,0,L|153:118,2,106,0|0|0,0:0|3:0|0:0,0:0:0:0:
456,173,4086,6,0,L|458:62,1,106,0|0,3:0|0:0,0:0:0:0:
267,152,4824,1,0,0:0:0:0:
364,112,5069,1,0,3:0:0:0:
460,97,5315,1,0,0:0:0:0:
364,112,5561,1,0,3:0:0:0:
267,152,5807,1,0,0:0:0:0:
76,136,6053,6,0,L|75:252,1,106,0|0,3:0|0:0,0:0:0:0:
267,226,6791,2,0,L|138:228,2,106,0|0|0,0:0|3:0|0:0,0:0:0:0:
368,175,7529,2,0,L|372:67,1,106,0|0,3:0|0:0,0:0:0:0:
51,195,8020,6,0,L|40:47,1,119.249996360779,8|0,3:0|0:0,0:0:0:0:
261,143,8758,1,0,0:0:0:0:
141,141,9003,1,0,3:0:0:0:
22,139,9249,1,0,0:0:0:0:
141,141,9496,1,0,3:0:0:0:
261,143,9742,1,0,0:0:0:0:
56,245,9988,6,0,L|48:101,1,119.249996360779,8|0,3:0|0:0,0:0:0:0:
273,266,10725,1,0,0:0:0:0:
386,250,10970,1,0,3:0:0:0:
493,155,11216,1,0,0:0:0:0:
383,47,11462,1,0,3:0:0:0:
269,35,11708,1,0,0:0:0:0:
474,212,11955,6,0,L|482:81,1,119.249996360779,8|0,3:0|0:0,0:0:0:0:
252,147,12692,1,0,0:0:0:0:
371,145,12937,1,0,3:0:0:0:
490,143,13183,1,0,0:0:0:0:
371,145,13430,1,0,3:0:0:0:
252,147,13676,1,0,0:0:0:0:
457,249,13922,6,0,L|465:105,1,119.249996360779,8|0,3:0|0:0,0:0:0:0:
236,192,14660,1,0,0:0:0:0:
350,164,14906,2,0,L|354:36,1,119.249996360779,4|8,3:0|3:0,0:0:0:0:
38,191,15397,2,0,L|33:48,1,119.249996360779,8|0,1:0|0:0,0:0:0:0:
358,145,15889,6,0,L|498:142,2,132.5,8|0|8,3:0|0:0|1:0,0:0:0:0:
226,139,16627,1,0,0:0:0:0:
358,99,16873,2,0,L|362:242,1,132.5,0|0,3:0|0:0,0:0:0:0:
233,222,17365,2,0,L|85:222,1,132.5,8|0,1:0|0:0,0:0:0:0:
349,310,17856,6,0,L|352:157,1,132.5,8|0,3:0|0:0,0:0:0:0:
220,164,18348,1,8,1:0:0:0:
349,167,18594,1,0,0:0:0:0:
220,164,18840,2,0,L|73:166,1,132.5,0|0,3:0|0:0,0:0:0:0:
220,238,19332,2,0,L|397:242,1,132.5,8|0,1:0|0:0,0:0:0:0:
117,208,19824,6,0,L|103:60,1,132.5,8|0,3:0|0:0,0:0:0:0:
234,70,20315,1,8,1:0:0:0:
112,73,20561,1,0,0:0:0:0:
236,135,20807,2,0,L|381:66,1,132.5,0|0,3:0|0:0,0:0:0:0:
230,140,21299,2,0,L|115:65,1,132.5,8|0,1:0|0:0,0:0:0:0:
337,260,21791,6,0,L|482:260,2,132.5,8|0|8,3:0|0:0|1:0,0:0:0:0:
215,182,22529,1,0,0:0:0:0:
338,171,22774,2,0,L|465:102,1,132.5,0|0,3:0|0:0,0:0:0:0:
239,96,23266,2,0,L|75:93,1,132.5,8|0,1:0|0:0,0:0:0:0:
426,106,23758,6,0,L|432:249,1,119.249996360779,8|0,3:0|0:0,0:0:0:0:
312,242,24250,2,0,L|186:237,1,119.249996360779,8|0,1:0|0:0,0:0:0:0:
318,231,24742,2,0,L|327:96,1,119.249996360779,0|0,3:0|3:0,0:0:0:0:
122,150,25233,2,0,L|110:27,1,119.249996360779,8|0,1:0|0:0,0:0:0:0:
320,57,25725,6,0,P|384:90|301:200,1,238.499992721558,0|8,3:0|1:0,0:0:0:0:
196,211,26463,2,0,L|448:213,1,238.499992721558,0|0,0:0|3:0,0:0:0:0:
220,119,27201,2,0,L|91:120,1,119.249996360779,4|0,3:0|0:0,0:0:0:0:
442,212,27692,6,0,L|441:57,1,132.5,8|0,3:0|0:0,0:0:0:0:
316,120,28184,1,8,1:0:0:0:
81,205,28430,2,0,L|227:287,2,132.5,0|0|0,0:0|3:0|0:0,0:0:0:0:
211,120,29168,2,0,L|372:121,1,132.5,8|0,1:0|0:0,0:0:0:0:
113,198,29660,6,0,L|100:48,1,132.5,8|0,3:0|0:0,0:0:0:0:
228,62,30152,1,8,1:0:0:0:
460,177,30397,2,0,L|325:265,2,132.5,0|0|0,0:0|3:0|0:0,0:0:0:0:
222,149,31135,2,0,L|63:153,1,132.5,8|0,1:0|0:0,0:0:0:0:
434,230,31627,6,0,L|429:76,1,119.249996360779,8|0,3:0|0:0,0:0:0:0:
311,104,32119,2,0,L|184:106,1,119.249996360779,8|0,1:0|0:0,0:0:0:0:
310,209,32611,2,0,L|441:207,2,119.249996360779,0|0|8,3:0|3:0|1:0,0:0:0:0:
96,171,33348,6,0,L|86:31,1,119.249996360779,0|0,0:0|3:0,0:0:0:0:
207,51,33840,2,0,L|331:49,1,119.249996360779,0|8,3:0|1:0,0:0:0:0:
203,144,34332,2,0,L|65:145,2,119.249996360779,0|0|0,0:0|3:0|3:0,0:0:0:0:
416,184,35070,2,0,L|424:34,1,119.249996360779,4|0,3:0|0:0,0:0:0:0:
70,212,35561,6,0,L|71:57,1,132.5,8|0,3:0|0:0,0:0:0:0:
196,120,36053,1,8,1:0:0:0:
431,205,36299,2,0,L|246:204,2,132.5,0|0|0,0:0|3:0|0:0,0:0:0:0:
301,120,37037,2,0,L|140:121,1,132.5,8|0,1:0|0:0,0:0:0:0:
399,198,37529,6,0,L|412:48,1,132.5,8|0,3:0|0:0,0:0:0:0:
284,62,38021,1,8,1:0:0:0:
52,177,38266,2,0,L|195:178,2,132.5,0|0|0,0:0|3:0|0:0,0:0:0:0:
290,149,39004,2,0,L|449:153,1,132.5,8|0,1:0|0:0,0:0:0:0:
107,254,39496,6,0,L|91:96,1,119.249996360779,8|0,3:0|0:0,0:0:0:0:
213,127,39988,2,0,L|53:132,1,119.249996360779,8|0,1:0|0:0,0:0:0:0:
210,204,40479,2,0,L|356:209,1,119.249996360779,0|0,3:0|3:0,0:0:0:0:
205,207,40971,2,0,L|188:58,1,119.249996360779,8|0,1:0|0:0,0:0:0:0:
400,83,41463,6,0,P|465:115|369:210,1,238.499992721558,0|8,3:0|1:0,0:0:0:0:
272,267,42201,2,0,L|426:266,2,119.249996360779,0|0|0,0:0|3:0|3:0,0:0:0:0:
61,187,42938,2,0,L|55:42,1,119.249996360779,4|0,3:0|0:0,0:0:0:0:
409,119,43430,6,0,L|416:262,1,132.5,8|0,3:0|0:0,0:0:0:0:
291,266,43922,1,8,1:0:0:0:
72,178,44168,2,0,L|238:172,2,132.5,0|0|0,0:0|3:0|0:0,0:0:0:0:
203,168,44906,2,0,L|352:168,1,132.5,8|0,1:0|0:0,0:0:0:0:
96,170,45397,6,0,L|84:23,1,132.5,8|0,3:0|0:0,0:0:0:0:
216,40,45889,1,8,1:0:0:0:
439,79,46135,2,0,L|450:220,1,132.5,0|0,0:0|3:0,0:0:0:0:
323,200,46627,1,0,0:0:0:0:
92,132,46873,2,0,L|81:-20,1,132.5,8|0,1:0|0:0,0:0:0:0:
406,104,47365,6,0,L|273:103,1,119.249996360779,8|0,3:0|0:0,0:0:0:0:
406,103,47856,2,0,L|410:-41,1,119.249996360779,8|0,1:0|0:0,0:0:0:0:
211,175,48348,2,0,P|143:134|252:42,1,238.499992721558,0|8,3:0|1:0,0:0:0:0:
326,47,49086,1,0,0:0:0:0:
120,184,49332,6,0,L|379:182,2,238.499992721558,0|8|0,3:0|1:0|3:0,0:0:0:0:
335,280,50807,2,0,L|344:142,1,119.249996360779,4|8,3:0|3:0,0:0:0:0:
27,160,51299,6,0,L|20:23,1,119.249996360779,8|0,3:0|0:0,0:0:0:0:
134,57,51791,2,0,L|-6:62,1,119.249996360779,8|0,1:0|0:0,0:0:0:0:
227,217,52283,2,0,L|469:220,1,238.499992721558,0|8,3:0|1:0,0:0:0:0:
350,153,53020,1,0,0:0:0:0:
32,253,53266,6,0,L|20:2,1,238.499992721558,0|0,3:0|0:0,0:0:0:0:
257,134,54246,2,0,L|89:135,1,132.5,8|0,3:0|3:0,0:0:0:0:
259,212,54737,2,0,L|419:217,1,136.474998854656,8|0,3:0|3:0,0:0:0:0:
68,133,55228,5,12,3:0:0:0:
186,132,55474,2,0,L|348:217,2,145.750004447937,0|8|0,0:0|1:0|0:0,0:0:0:0:
393,234,56212,2,0,L|401:79,1,145.750004447937,0|0,3:0|3:0,0:0:0:0:
181,159,56704,2,0,L|170:0,1,145.750004447937,8|0,1:0|0:0,0:0:0:0:
492,200,57196,5,8,3:0:0:0:
375,189,57442,2,0,L|236:253,2,145.750004447937,0|8|0,0:0|1:0|0:0,0:0:0:0:
153,281,58180,2,0,L|145:126,1,145.750004447937,8|0,3:0|3:0,0:0:0:0:
355,172,58672,2,0,L|513:173,1,145.750004447937,8|0,3:0|3:0,0:0:0:0:
182,251,59164,5,8,3:0:0:0:
321,198,59409,2,0,L|324:354,1,145.750004447937,0|8,0:0|1:0,0:0:0:0:
182,251,59901,1,0,0:0:0:0:
377,214,60147,2,0,L|387:69,1,145.750004447937,0|0,3:0|3:0,0:0:0:0:
183,82,60638,2,0,L|34:81,1,145.750004447937,8|0,3:0|0:0,0:0:0:0:
355,244,61130,6,0,L|158:345,2,194.333339263916,8|0|0,3:0|0:0|0:0,0:0:0:0:
36,166,62114,2,0,L|233:73,2,194.333339263916,0|0|0,3:0|0:0|0:0,0:0:0:0:
436,303,63097,6,0,P|490:244|407:43,1,291.500008895874,12|8,3:0|1:0,0:0:0:0:
237,143,63835,1,0,0:0:0:0:
431,153,64081,2,0,L|436:-3,1,145.750004447937,0|0,3:0|3:0,0:0:0:0:
237,143,64573,2,0,L|74:141,1,145.750004447937,8|0,1:0|0:0,0:0:0:0:
404,240,65065,5,8,3:0:0:0:
281,231,65310,2,0,L|277:71,1,145.750004447937,0|8,0:0|1:0,0:0:0:0:
396,103,65802,1,0,0:0:0:0:
199,127,66048,2,0,L|16:133,1,145.750004447937,8|0,3:0|3:0,0:0:0:0:
260,212,66540,2,0,L|420:210,1,145.750004447937,8|0,3:0|3:0,0:0:0:0:
86,115,67032,5,8,3:0:0:0:
204,131,67278,2,0,L|62:219,2,145.750004447937,0|8|0,0:0|1:0|0:0,0:0:0:0:
399,228,68015,2,0,L|402:61,1,145.750004447937,0|0,3:0|3:0,0:0:0:0:
190,162,68507,2,0,L|175:-1,1,145.750004447937,8|0,3:0|0:0,0:0:0:0:
496,59,68999,6,0,L|252:241,1,291.500008895874,8|8,3:0|1:0,0:0:0:0:
390,254,69737,1,0,0:0:0:0:
45,236,69983,2,0,L|221:375,2,194.333339263916,8|8|8,1:0|3:0|3:0,0:0:0:0:
441,182,70966,5,12,3:0:0:0:
256,192,71212,12,0,72933,0:0:0:0:
86,106,74901,6,0,L|80:249,1,119.249996360779,8|0,3:0|0:0,0:0:0:0:
200,242,75392,2,0,L|326:237,1,119.249996360779,8|0,1:0|0:0,0:0:0:0:
194,231,75884,2,0,L|185:96,1,119.249996360779,0|0,3:0|3:0,0:0:0:0:
390,150,76376,2,0,L|402:27,1,119.249996360779,8|0,1:0|0:0,0:0:0:0:
192,57,76868,6,0,P|128:90|211:200,1,238.499992721558,0|8,3:0|1:0,0:0:0:0:
316,211,77605,2,0,L|64:213,1,238.499992721558,0|0,0:0|3:0,0:0:0:0:
292,119,78343,2,0,L|421:120,1,119.249996360779,4|0,3:0|0:0,0:0:0:0:
70,212,78835,6,0,L|71:57,1,132.5,8|0,3:0|0:0,0:0:0:0:
196,120,79326,1,8,1:0:0:0:
431,205,79573,2,0,L|246:204,2,132.5,0|0|0,0:0|3:0|0:0,0:0:0:0:
301,120,80310,2,0,L|140:121,1,132.5,8|0,1:0|0:0,0:0:0:0:
399,198,80802,6,0,L|412:48,1,132.5,8|0,3:0|0:0,0:0:0:0:
284,62,81294,1,8,1:0:0:0:
52,177,81540,2,0,L|195:178,2,132.5,0|0|0,0:0|3:0|0:0,0:0:0:0:
290,149,82278,2,0,L|449:153,1,132.5,8|0,1:0|0:0,0:0:0:0:
78,230,82769,6,0,L|83:76,1,119.249996360779,8|0,3:0|0:0,0:0:0:0:
201,104,83261,2,0,L|328:106,1,119.249996360779,8|0,1:0|0:0,0:0:0:0:
202,209,83753,2,0,L|71:207,2,119.249996360779,0|0|8,3:0|3:0|1:0,0:0:0:0:
416,171,84491,6,0,L|426:31,1,119.249996360779,0|0,0:0|3:0,0:0:0:0:
305,51,84983,2,0,L|181:49,1,119.249996360779,0|8,3:0|1:0,0:0:0:0:
397,207,85474,2,0,L|405:49,1,119.249996360779,0|0,0:0|3:0,0:0:0:0:
282,83,85965,1,0,3:0:0:0:
72,185,86212,2,0,L|64:35,1,119.249996360779,4|0,3:0|0:0,0:0:0:0:
442,212,86704,6,0,L|441:57,1,132.5,8|0,3:0|0:0,0:0:0:0:
316,120,87195,1,8,1:0:0:0:
81,205,87442,2,0,L|266:204,2,132.5,0|0|0,0:0|3:0|0:0,0:0:0:0:
211,120,88179,2,0,L|372:121,1,132.5,8|0,1:0|0:0,0:0:0:0:
113,198,88671,6,0,L|100:48,1,132.5,8|0,3:0|0:0,0:0:0:0:
228,62,89163,1,8,1:0:0:0:
460,177,89409,2,0,L|317:178,2,132.5,0|0|0,0:0|3:0|0:0,0:0:0:0:
222,149,90146,2,0,L|63:153,1,132.5,8|0,1:0|0:0,0:0:0:0:
405,254,90638,6,0,L|421:96,1,119.249996360779,8|0,3:0|0:0,0:0:0:0:
299,127,91130,2,0,L|459:132,1,119.249996360779,8|0,1:0|0:0,0:0:0:0:
302,204,91622,2,0,L|156:209,1,119.249996360779,0|0,3:0|3:0,0:0:0:0:
307,207,92114,2,0,L|324:58,1,119.249996360779,8|0,1:0|0:0,0:0:0:0:
112,83,92606,6,0,P|47:115|143:210,1,238.499992721558,0|8,3:0|1:0,0:0:0:0:
240,267,93343,2,0,L|86:266,2,119.249996360779,0|0|0,0:0|3:0|3:0,0:0:0:0:
451,187,94081,2,0,L|457:42,1,119.249996360779,4|0,3:0|0:0,0:0:0:0:
103,119,94573,6,0,L|96:262,1,132.5,8|0,3:0|0:0,0:0:0:0:
221,266,95064,1,8,1:0:0:0:
440,178,95310,2,0,L|274:172,2,132.5,0|0|0,0:0|3:0|0:0,0:0:0:0:
309,168,96048,2,0,L|160:168,1,132.5,8|0,1:0|0:0,0:0:0:0:
416,170,96540,6,0,L|428:23,1,132.5,8|0,3:0|0:0,0:0:0:0:
296,40,97031,1,8,1:0:0:0:
73,79,97278,2,0,L|62:220,1,132.5,0|0,0:0|3:0,0:0:0:0:
189,200,97769,1,0,0:0:0:0:
420,132,98015,2,0,L|431:-20,1,132.5,8|0,1:0|0:0,0:0:0:0:
106,104,98507,6,0,L|239:103,1,119.249996360779,8|0,3:0|0:0,0:0:0:0:
106,103,98999,2,0,L|102:-41,1,119.249996360779,8|0,1:0|0:0,0:0:0:0:
301,175,99491,2,0,P|369:134|260:42,1,238.499992721558,0|8,3:0|1:0,0:0:0:0:
186,47,100228,1,0,0:0:0:0:
392,184,100474,6,0,L|133:182,2,238.499992721558,0|8|0,3:0|1:0|3:0,0:0:0:0:
177,280,101950,2,0,L|168:142,1,119.249996360779,4|8,3:0|3:0,0:0:0:0:
485,160,102442,6,0,L|492:23,1,119.249996360779,8|0,3:0|0:0,0:0:0:0:
378,57,102933,2,0,L|518:62,1,119.249996360779,8|0,1:0|0:0,0:0:0:0:
285,217,103425,2,0,L|43:220,1,238.499992721558,0|8,3:0|1:0,0:0:0:0:
162,153,104163,1,0,0:0:0:0:
480,253,104409,6,0,L|492:2,1,238.499992721558,0|0,3:0|0:0,0:0:0:0:
255,134,105384,2,0,L|423:135,1,132.5,8|0,3:0|3:0,0:0:0:0:
253,212,105875,2,0,L|93:217,1,136.474998854656,8|0,3:0|3:0,0:0:0:0:
444,133,106375,5,12,3:0:0:0:
326,132,106620,2,0,L|192:270,2,145.750004447937,0|8|0,0:0|1:0|0:0,0:0:0:0:
119,234,107358,2,0,L|111:79,1,145.750004447937,0|0,3:0|3:0,0:0:0:0:
331,159,107850,2,0,L|342:0,1,145.750004447937,8|0,1:0|0:0,0:0:0:0:
20,200,108342,5,8,3:0:0:0:
137,189,108588,2,0,L|258:303,2,145.750004447937,0|8|0,0:0|1:0|0:0,0:0:0:0:
359,281,109326,2,0,L|367:126,1,145.750004447937,8|0,3:0|3:0,0:0:0:0:
148,172,109818,2,0,L|5:243,1,145.750004447937,8|0,3:0|3:0,0:0:0:0:
330,251,110308,5,8,3:0:0:0:
191,198,110555,2,0,L|188:354,1,145.750004447937,0|8,0:0|1:0,0:0:0:0:
330,251,111047,1,0,0:0:0:0:
135,214,111293,2,0,L|125:69,1,145.750004447937,0|0,3:0|3:0,0:0:0:0:
335,82,111784,2,0,L|474:137,1,145.750004447937,8|0,3:0|0:0,0:0:0:0:
157,240,112276,6,0,L|358:132,2,194.333339263916,8|0|0,3:0|0:0|0:0,0:0:0:0:
476,166,113260,2,0,L|311:287,2,194.333339263916,0|0|0,3:0|0:0|0:0,0:0:0:0:
76,303,114243,6,0,P|22:244|105:43,1,291.500008895874,12|8,3:0|1:0,0:0:0:0:
275,143,114981,1,0,0:0:0:0:
81,153,115227,2,0,L|76:-3,1,145.750004447937,0|0,3:0|3:0,0:0:0:0:
275,143,115719,2,0,L|438:141,1,145.750004447937,8|0,1:0|0:0,0:0:0:0:
108,240,116211,5,8,3:0:0:0:
231,231,116456,2,0,L|235:71,1,145.750004447937,0|8,0:0|1:0,0:0:0:0:
116,103,116948,1,0,0:0:0:0:
323,130,117194,2,0,L|506:136,1,145.750004447937,8|0,3:0|3:0,0:0:0:0:
262,215,117686,2,0,L|102:213,1,145.750004447937,8|0,3:0|3:0,0:0:0:0:
466,178,118178,5,8,3:0:0:0:
360,195,118424,2,0,L|502:283,2,145.750004447937,0|8|0,0:0|1:0|0:0,0:0:0:0:
169,291,119161,2,0,L|166:124,1,145.750004447937,0|0,3:0|3:0,0:0:0:0:
392,183,119653,2,0,P|429:93|386:43,1,145.750004447937,8|0,3:0|0:0,0:0:0:0:
92,229,120145,5,8,3:0:0:0:
251,210,120473,1,0,0:0:0:0:
411,199,120801,1,0,0:0:0:0:
14,232,121129,2,0,L|216:296,2,194.333339263916,0|0|0,3:0|0:0|0:0,0:0:0:0:
415,272,122113,6,0,P|480:222|398:54,1,291.500008895874,12|8,3:0|1:0,0:0:0:0:
219,91,122850,1,0,0:0:0:0:
402,114,123096,2,0,L|410:317,1,145.750004447937,0|0,3:0|3:0,0:0:0:0:
218,232,123588,2,0,L|52:229,1,145.750004447937,8|0,1:0|0:0,0:0:0:0:
392,157,124080,5,8,3:0:0:0:
254,168,124326,2,0,L|246:-8,1,145.750004447937,0|8,0:0|1:0,0:0:0:0:
372,45,124818,1,0,0:0:0:0:
185,167,125064,2,0,L|179:14,1,145.750004447937,8|0,3:0|3:0,0:0:0:0:
363,88,125555,2,0,L|509:89,1,145.750004447937,8|0,3:0|3:0,0:0:0:0:
186,197,126047,5,8,3:0:0:0:
321,148,126293,2,0,L|177:217,2,145.750004447937,0|8|0,0:0|1:0|0:0,0:0:0:0:
130,114,127031,2,0,L|119:278,1,145.750004447937,0|0,3:0|3:0,0:0:0:0:
315,247,127523,2,0,L|449:165,1,145.750004447937,8|0,3:0|0:0,0:0:0:0:
87,224,128014,6,0,P|12:192|133:69,1,291.500008895874,8|8,3:0|1:0,0:0:0:0:
454,220,128998,2,0,L|242:220,2,194.333339263916,8|8|8,1:0|3:0|3:0,0:0:0:0:
44,152,129982,5,12,3:0:0:0:
256,192,130227,12,8,131457,1:0:0:0:
134,138,131948,5,12,3:0:0:0:
341,113,132194,2,0,L|487:113,2,132.5,0|8|0,3:0|1:0|0:0,0:0:0:0:
132,166,132932,2,0,L|117:-10,1,132.5,0|0,3:0|3:0,0:0:0:0:
327,104,133424,2,0,L|331:-36,1,132.5,8|0,1:0|0:0,0:0:0:0:
128,233,133916,6,0,P|67:189|174:80,1,265,0|8,3:0|1:0,0:0:0:0:
299,94,134654,1,0,0:0:0:0:
105,169,134900,2,0,L|96:29,1,132.5,0|0,3:0|3:0,0:0:0:0:
294,132,135391,2,0,L|465:138,1,132.5,8|0,1:0|0:0,0:0:0:0:
86,237,135883,6,0,L|76:64,1,132.5,12|0,3:0|3:0,0:0:0:0:
196,115,136375,2,0,L|31:114,1,132.5,8|0,1:0|0:0,0:0:0:0:
268,232,136867,2,0,L|418:231,1,132.5,0|0,3:0|3:0,0:0:0:0:
269,232,137359,2,0,L|120:230,1,132.5,8|0,1:0|0:0,0:0:0:0:
346,293,137850,6,0,P|420:248|315:148,1,265,0|8,3:0|1:0,0:0:0:0:
211,142,138588,1,0,0:0:0:0:
414,223,138834,2,0,L|254:227,1,132.5,0|0,3:0|3:0,0:0:0:0:
414,223,139326,2,0,L|422:73,1,132.5,8|0,1:0|0:0,0:0:0:0:
88,153,139818,5,12,3:0:0:0:
206,194,140064,2,0,L|369:195,2,132.5,0|8|0,3:0|1:0|0:0,0:0:0:0:
387,197,140801,2,0,L|399:37,1,132.5,0|0,3:0|3:0,0:0:0:0:
212,59,141293,2,0,L|55:63,1,132.5,8|0,1:0|0:0,0:0:0:0:
289,238,141785,6,0,P|367:190|249:95,1,265,0|8,3:0|1:0,0:0:0:0:
141,135,142523,1,0,0:0:0:0:
318,197,142768,2,0,L|471:193,1,132.5,0|0,3:0|3:0,0:0:0:0:
260,123,143260,2,0,L|103:130,1,132.5,8|0,1:0|0:0,0:0:0:0:
464,155,143751,6,0,L|478:294,1,132.5,12|0,3:0|3:0,0:0:0:0:
350,312,144243,2,0,L|490:308,1,132.5,8|0,1:0|0:0,0:0:0:0:
281,278,144735,2,0,P|206:239|306:140,1,265,0|8,3:0|1:0,0:0:0:0:
418,142,145472,1,0,0:0:0:0:
233,162,145719,6,0,L|79:162,1,132.5,0|0,3:0|3:0,0:0:0:0:
292,259,146210,2,0,L|440:260,1,132.5,8|0,1:0|0:0,0:0:0:0:
216,282,146702,2,0,P|131:229|236:132,1,265,0|8,3:0|1:0,0:0:0:0:
342,120,147440,1,8,1:0:0:0:
17,195,147686,6,0,L|10:53,1,132.5,12|0,3:0|3:0,0:0:0:0:
140,70,148177,1,8,1:0:0:0:
340,198,148424,2,0,L|199:194,2,132.5,0|0|0,0:0|3:0|3:0,0:0:0:0:
149,200,149161,2,0,L|136:47,1,132.5,8|0,1:0|0:0,0:0:0:0:
463,142,149653,5,8,1:0:0:0:
310,71,149981,1,4,0:0:0:0:
159,66,150308,1,4,0:0:0:0:
413,201,150636,1,8,1:0:0:0:
259,214,150964,1,0,3:0:0:0:
413,201,151292,1,0,3:0:0:0:
18,139,151620,5,12,3:0:0:0:
256,192,151866,12,0,155554,3:0:0:0:
401,195,159490,6,0,L|278:195,1,106,0|0,3:0|0:0,0:0:0:0:
134,159,160227,1,0,0:0:0:0:
234,153,160473,2,0,L|234:39,1,106,0|0,3:0|0:0,0:0:0:0:
137,135,160965,2,0,L|133:15,1,106,0|0,3:0|0:0,0:0:0:0:
325,111,161457,6,0,L|430:111,1,106,0|0,3:0|0:0,0:0:0:0:
238,182,162195,2,0,L|131:181,1,106,0|0,0:0|3:0,0:0:0:0:
244,118,162686,2,0,L|359:118,2,106,0|0|0,0:0|3:0|0:0,0:0:0:0:
56,173,163424,6,0,L|54:62,1,106,0|0,3:0|0:0,0:0:0:0:
245,152,164162,1,0,0:0:0:0:
148,112,164407,1,0,3:0:0:0:
52,97,164653,1,0,0:0:0:0:
148,112,164899,1,0,3:0:0:0:
245,152,165145,1,0,0:0:0:0:
436,136,165391,6,0,L|437:252,1,106,0|0,3:0|0:0,0:0:0:0:
245,226,166129,2,0,L|374:228,2,106,0|0|0,0:0|3:0|0:0,0:0:0:0:
135,174,166867,2,0,L|131:66,1,106,0|0,3:0|0:0,0:0:0:0:
461,66,167359,6,0,L|476:367,1,280.900000428619,8|0,1:0|0:0,0:0:0:0:
270,307,168342,2,0,L|496:231,1,212
156,245,169326,6,0,L|141:-27,1,212,2|0,0:0|0:0,0:0:0:0:
350,124,170309,2,0,L|134:207,1,212
264,256,171047,1,0,0:0:0:0:
444,253,171293,6,0,L|446:12,1,212,2|0,0:0|0:0,0:0:0:0:
236,121,172277,2,0,L|233:-17,1,106
340,66,172768,2,0,L|346:-53,1,106
170,250,173260,6,0,L|363:249,2,141.333333333333,2|0|0,0:0|0:0|0:0,0:0:0:0:
393,152,174237,2,0,L|398:13,1,132.5,8|0,3:0|3:0,0:0:0:0:
208,45,174728,2,0,L|66:46,1,132.5,8|0,3:0|3:0,0:0:0:0:
444,133,175234,5,12,3:0:0:0:
326,132,175479,2,0,L|164:217,2,145.750004447937,0|8|0,0:0|1:0|0:0,0:0:0:0:
119,234,176217,2,0,L|111:79,1,145.750004447937,0|0,3:0|3:0,0:0:0:0:
331,159,176709,2,0,L|342:0,1,145.750004447937,8|0,1:0|0:0,0:0:0:0:
20,200,177201,5,8,3:0:0:0:
137,189,177447,2,0,L|276:253,2,145.750004447937,0|8|0,0:0|1:0|0:0,0:0:0:0:
359,281,178185,2,0,L|367:126,1,145.750004447937,8|0,3:0|3:0,0:0:0:0:
157,172,178677,2,0,L|-1:173,1,145.750004447937,8|0,3:0|3:0,0:0:0:0:
330,251,179169,5,8,3:0:0:0:
205,197,179414,2,0,L|202:353,1,145.750004447937,0|8,0:0|1:0,0:0:0:0:
330,251,179906,1,0,0:0:0:0:
135,214,180152,2,0,L|125:69,1,145.750004447937,0|0,3:0|3:0,0:0:0:0:
329,82,180643,2,0,L|478:81,1,145.750004447937,8|0,3:0|0:0,0:0:0:0:
157,239,181135,6,0,L|353:127,2,194.333339263916,8|0|0,3:0|0:0|0:0,0:0:0:0:
476,166,182119,2,0,L|296:293,2,194.333339263916,0|0|0,3:0|0:0|0:0,0:0:0:0:
76,303,183102,6,0,P|22:244|105:43,1,291.500008895874,12|8,3:0|1:0,0:0:0:0:
275,143,183840,1,0,0:0:0:0:
81,153,184086,2,0,L|76:-3,1,145.750004447937,0|0,3:0|3:0,0:0:0:0:
275,143,184578,2,0,L|438:141,1,145.750004447937,8|0,1:0|0:0,0:0:0:0:
108,240,185070,5,8,3:0:0:0:
231,231,185315,2,0,L|235:71,1,145.750004447937,0|8,0:0|1:0,0:0:0:0:
116,103,185807,1,0,0:0:0:0:
313,127,186053,2,0,L|496:133,1,145.750004447937,8|0,3:0|3:0,0:0:0:0:
252,212,186545,2,0,L|92:210,1,145.750004447937,8|0,3:0|3:0,0:0:0:0:
426,115,187037,5,8,3:0:0:0:
308,131,187283,2,0,L|450:219,2,145.750004447937,0|8|0,0:0|1:0|0:0,0:0:0:0:
113,228,188020,2,0,L|110:61,1,145.750004447937,0|0,3:0|3:0,0:0:0:0:
322,162,188512,2,0,L|337:-1,1,145.750004447937,8|0,3:0|0:0,0:0:0:0:
16,59,189004,6,0,L|254:242,1,291.500008895874,8|8,3:0|1:0,0:0:0:0:
123,245,189742,1,0,0:0:0:0:
446,239,189988,2,0,L|448:89,1,145.750004447937,8|0,3:0|3:0,0:0:0:0:
134,78,190479,2,0,L|12:169,1,145.750004447937,8|0,3:0|3:0,0:0:0:0:
331,122,190971,6,0,L|342:282,1,145.750004447937,12|0,3:0|0:0,0:0:0:0:
203,255,191463,1,8,1:0:0:0:
408,224,191709,2,0,L|241:214,2,141.77499567337,0|0|0,0:0|3:0|0:0,0:0:0:0:
266,215,192447,2,0,L|100:213,1,137.799999158936,8|0,1:0|0:0,0:0:0:0:
364,146,192938,6,0,L|506:147,2,135.15000082489,8|0|8,3:0|0:0|1:0,0:0:0:0:
226,139,193676,1,0,0:0:0:0:
358,99,193922,2,0,L|362:242,1,132.5,0|0,3:0|0:0,0:0:0:0:
233,222,194414,2,0,L|85:222,1,132.5,8|0,1:0|0:0,0:0:0:0:
349,310,194906,6,0,L|352:157,1,132.5,8|0,3:0|0:0,0:0:0:0:
220,164,195397,1,8,1:0:0:0:
349,167,195643,1,0,0:0:0:0:
220,164,195889,2,0,L|73:166,1,132.5,0|0,3:0|0:0,0:0:0:0:
220,238,196381,2,0,L|397:242,1,132.5,8|0,1:0|0:0,0:0:0:0:
117,208,196873,6,0,L|103:60,1,132.5,8|0,3:0|0:0,0:0:0:0:
234,70,197364,1,8,1:0:0:0:
112,73,197610,1,0,0:0:0:0:
236,136,197856,2,0,L|395:134,1,132.5,0|0,3:0|0:0,0:0:0:0:
230,140,198348,2,0,L|90:140,1,132.5,8|0,1:0|0:0,0:0:0:0:
411,101,198840,6,0,L|420:255,1,132.5,8|0,3:0|0:0,0:0:0:0:
303,233,199332,1,8,1:0:0:0:
185,188,199578,2,0,L|172:40,1,132.5,0|0,0:0|3:0,0:0:0:0:
297,73,200070,1,0,0:0:0:0:
171,97,200315,2,0,L|29:99,1,132.5,8|0,1:0|0:0,0:0:0:0:
275,216,200807,6,0,L|410:216,2,132.5,8|0|8,3:0|0:0|1:0,0:0:0:0:
144,144,201545,1,0,0:0:0:0:
272,145,201791,2,0,L|276:-7,1,132.5,0|0,3:0|0:0,0:0:0:0:
147,64,202283,2,0,L|140:222,1,132.5,8|0,1:0|0:0,0:0:0:0:
455,263,202774,6,0,L|249:313,2,198.75,8|2|2,3:0|3:0|3:0,0:0:0:0:
203,202,203758,2,0,L|409:252,2,198.75,8|2|2,3:0|3:0|3:0,0:0:0:0:
434,175,204742,5,8,3:0:0:0:
258,115,205111,1,2,3:0:0:0:
85,127,205479,1,2,3:0:0:0:
321,211,205725,1,8,3:0:0:0:
157,209,206053,1,2,3:0:0:0:
321,211,206381,1,2,3:0:0:0:
93,108,206709,6,0,L|265:174,2,176.666666666667,8|2|2,3:0|3:0|3:0,0:0:0:0:
378,187,207692,2,0,L|206:253,2,176.666666666667,8|2|2,3:0|3:0|3:0,0:0:0:0:
91,218,208676,6,0,L|260:105,2,176.666666666667,8|4|4,3:0|3:0|3:0,0:0:0:0:
386,226,209660,2,0,L|397:100,1,88.3333333333333,8|8,1:0|1:0,0:0:0:0:
112,222,209988,2,0,P|75:134|94:55,1,176.666666666667,8|8,3:0|3:0,0:0:0:0:
496,138,210643,5,12,3:0:0:0:
256,192,210889,12,0,214578,0:0:0:0:
