osu file format v14

[General]
AudioFilename: audio.mp3
AudioLeadIn: 0
PreviewTime: 167363
Countdown: 0
SampleSet: Normal
StackLeniency: 0.7
Mode: 2
LetterboxInBreaks: 0
WidescreenStoryboard: 1

[Editor]
DistanceSpacing: 1
BeatDivisor: 12
GridSize: 32
TimelineZoom: 2.7

[Metadata]
Title:Animal I Have Become
TitleUnicode:Animal I Have Become
Artist:Three Days Grace
ArtistUnicode:Three Days Grace
Creator:Secre
Version:Nightmare
Source:
Tags:chickenbible One-X 3DG Alternative Rock Metal Neil Sanderson Brad Matt Walst Barry Stock english adam gontier jive records
BeatmapID:2835930
BeatmapSetID:1371694

[Difficulty]
HPDrainRate:5
CircleSize:3
OverallDifficulty:9
ApproachRate:9
SliderMultiplier:2.85
SliderTickRate:2

[Events]
//Background and Video events
0,0,"the animal that pekora has become is unstoppable.jpg",0,0
//Break Periods
2,73133,74301
2,155755,158889
//Storyboard Layer 0 (Background)
//Storyboard Layer 1 (Fail)
//Storyboard Layer 2 (Pass)
//Storyboard Layer 3 (Foreground)
//Storyboard Layer 4 (Overlay)
//Storyboard Sound Samples

[TimingPoints]
152,491.803278688525,4,1,1,60,1,0
152,-125,4,1,1,60,0,0
8020,-111.111111111111,4,1,1,75,0,0
15889,-100,4,1,1,75,0,0
23758,-111.111111111111,4,1,1,75,0,0
27692,-100,4,1,1,75,0,0
31627,-111.111111111111,4,1,1,75,0,0
35561,-100,4,1,1,75,0,0
39496,-111.111111111111,4,1,1,75,0,0
43430,-100,4,1,1,75,0,0
47365,-111.111111111111,4,1,1,75,0,0
54246,491.803278688525,4,1,1,75,1,0
54246,-100,4,1,1,75,0,0
54491,-97.5609756097561,4,1,1,75,0,0
54737,-97.0873786407767,4,1,1,75,0,0
54983,-93.0232558139535,4,1,1,75,0,0
55229,491.803278688525,4,1,1,75,1,0
55229,-90.9090909090909,4,1,1,100,0,1
61376,-90.9090909090909,4,1,1,5,0,1
61458,-90.9090909090909,4,1,1,100,0,1
61530,-90.9090909090909,4,1,1,5,0,1
61622,-90.9090909090909,4,1,1,100,0,1
62360,-90.9090909090909,4,1,1,5,0,1
62442,-90.9090909090909,4,1,1,100,0,1
62514,-90.9090909090909,4,1,1,5,0,1
62606,-90.9090909090909,4,1,1,100,0,1
70966,-90.9090909090909,4,1,1,100,0,0
71089,-125,4,1,1,60,0,0
72933,-111.111111111111,4,1,1,75,0,0
78835,-100,4,1,1,75,0,0
82769,-111.111111111111,4,1,1,75,0,0
86703,-100,4,1,1,75,0,0
90638,-111.111111111111,4,1,1,75,0,0
94572,-100,4,1,1,75,0,0
98507,-111.111111111111,4,1,1,75,0,0
105384,491.803278688525,4,1,1,75,1,0
105384,-100,4,1,1,75,0,0
105629,-97.5609756097561,4,1,1,75,0,0
105875,-97.0873786407767,4,1,1,75,0,0
106121,-93.0232558139535,4,1,1,75,0,0
106375,491.803278688525,4,1,1,75,1,0
106375,-90.9090909090909,4,1,1,100,0,1
112522,-90.9090909090909,4,1,1,5,0,1
112604,-90.9090909090909,4,1,1,100,0,1
112676,-90.9090909090909,4,1,1,5,0,1
112768,-90.9090909090909,4,1,1,100,0,1
113506,-90.9090909090909,4,1,1,5,0,1
113588,-90.9090909090909,4,1,1,100,0,1
113660,-90.9090909090909,4,1,1,5,0,1
113752,-90.9090909090909,4,1,1,100,0,1
129981,-90.9090909090909,4,1,1,100,0,0
130105,-111.111111111111,4,1,1,75,0,0
131949,-100,4,1,1,75,0,0
151867,-100,4,1,1,75,0,0
155555,-125,4,1,1,60,0,0
159490,-125,4,1,1,75,0,0
165637,-125,4,1,1,76,0,0
165883,-125,4,1,1,77,0,0
166129,-125,4,1,1,78,0,0
166375,-125,4,1,1,79,0,0
166621,-125,4,1,1,80,0,0
166867,-125,4,1,1,81,0,0
167113,-125,4,1,1,82,0,0
167358,-125,4,1,1,83,0,0
173506,-90.9090909090909,4,1,1,5,0,0
173588,-90.9090909090909,4,1,1,50,0,0
173660,-90.9090909090909,4,1,1,5,0,0
173752,-90.9090909090909,4,1,1,50,0,0
174237,491.803278688525,4,1,1,50,1,0
174237,-100,4,1,1,75,0,0
175234,491.803278688525,4,1,1,75,1,0
175234,-90.9090909090909,4,1,1,100,0,1
181381,-90.9090909090909,4,1,1,5,0,1
181463,-90.9090909090909,4,1,1,100,0,1
181535,-90.9090909090909,4,1,1,5,0,1
181627,-90.9090909090909,4,1,1,100,0,1
182365,-90.9090909090909,4,1,1,5,0,1
182447,-90.9090909090909,4,1,1,100,0,1
182519,-90.9090909090909,4,1,1,5,0,1
182611,-90.9090909090909,4,1,1,100,0,1
190971,-90.9090909090909,4,1,1,75,0,0
191217,-91.743119266055,4,1,1,75,0,0
191463,-92.5925925925926,4,1,1,75,0,0
191709,-93.4579439252336,4,1,1,75,0,0
191832,-93.8967136150235,4,1,1,75,0,0
191955,-94.3396226415094,4,1,1,75,0,0
192201,-95.2380952380952,4,1,1,75,0,0
192447,-96.1538461538461,4,1,1,75,0,0
192570,-96.6183574879227,4,1,1,75,0,0
192692,-97.0873786407767,4,1,1,75,0,0
192938,-98.0392156862745,4,1,1,75,0,0
193184,-99.009900990099,4,1,1,75,0,0
193430,-100,4,1,1,75,0,0
203020,-100,4,1,1,5,0,0
203102,-100,4,1,1,75,0,0
203174,-100,4,1,1,5,0,0
203266,-100,4,1,1,75,0,0
204004,-100,4,1,1,5,0,0
204086,-100,4,1,1,75,0,0
204158,-100,4,1,1,5,0,0
204250,-100,4,1,1,75,0,0
205234,-100,4,1,1,75,0,0
206955,-100,4,1,1,5,0,0
207037,-100,4,1,1,75,0,0
207109,-100,4,1,1,5,0,0
207201,-100,4,1,1,75,0,0
207938,-100,4,1,1,5,0,0
208020,-100,4,1,1,75,0,0
208092,-100,4,1,1,5,0,0
208184,-100,4,1,1,75,0,0
208922,-100,4,1,1,5,0,0
209004,-100,4,1,1,75,0,0
209076,-100,4,1,1,5,0,0
209168,-100,4,1,1,75,0,0
210234,-100,4,1,1,5,0,0
210316,-100,4,1,1,75,0,0
210388,-100,4,1,1,5,0,0
210480,-100,4,1,1,75,0,0

[HitObjects]
426,196,152,6,0,L|296:196,1,114,0|0,3:0|0:0,0:0:0:0:
112,154,889,1,0,0:0:0:0:
230,147,1135,2,0,L|230:7,1,114,0|0,3:0|0:0,0:0:0:0:
116,125,1627,2,0,L|109:2,1,114,0|0,3:0|0:0,0:0:0:0:
337,97,2119,6,0,L|453:97,1,114,0|0,3:0|0:0,0:0:0:0:
234,181,2856,2,0,L|97:180,1,114,0|0,0:0|3:0,0:0:0:0:
241,105,3348,2,0,L|371:105,2,114,0|0|0,0:0|3:0|0:0,0:0:0:0:
20,170,4086,6,0,L|15:36,1,114,0|0,3:0|0:0,0:0:0:0:
242,145,4824,1,0,0:0:0:0:
128,99,5070,1,0,3:0:0:0:
16,81,5315,1,0,0:0:0:0:
128,99,5561,1,0,3:0:0:0:
242,145,5807,1,0,0:0:0:0:
467,127,6053,6,0,L|470:251,1,114,0|0,3:0|0:0,0:0:0:0:
242,233,6791,2,0,L|372:234,2,114,0|0|0,0:0|3:0|0:0,0:0:0:0:
124,172,7529,2,0,L|119:57,1,114,0|0,3:0|0:0,0:0:0:0:
375,94,8020,6,0,L|382:224,1,128.249996086121,8|0,3:0|0:0,0:0:0:0:
254,188,8512,1,0,3:0:0:0:
37,141,8758,1,0,0:0:0:0:
254,188,9004,2,0,L|255:43,1,128.249996086121,0|0,3:0|0:0,0:0:0:0:
126,137,9496,2,0,L|117:3,1,128.249996086121,0|0,3:0|0:0,0:0:0:0:
377,44,9988,6,0,L|384:178,1,128.249996086121,8|0,3:0|0:0,0:0:0:0:
259,155,10479,1,0,3:0:0:0:
468,160,10725,1,0,0:0:0:0:
259,155,10971,2,0,L|251:22,1,128.249996086121,0|0,3:0|0:0,0:0:0:0:
381,149,11463,2,0,L|382:8,1,128.249996086121,0|0,3:0|0:0,0:0:0:0:
133,118,11955,6,0,L|5:118,2,128.249996086121,8|0|0,3:0|0:0|3:0,0:0:0:0:
352,144,12692,1,0,0:0:0:0:
148,150,12938,2,0,L|140:19,1,128.249996086121,0|0,3:0|0:0,0:0:0:0:
271,140,13430,2,0,L|277:-2,1,128.249996086121,0|0,3:0|0:0,0:0:0:0:
24,143,13922,6,0,L|16:13,1,128.249996086121,8|0,3:0|0:0,0:0:0:0:
136,36,14414,1,0,3:0:0:0:
341,109,14660,1,0,0:0:0:0:
136,36,14906,2,0,L|7:37,1,128.249996086121,4|8,3:0|3:0,0:0:0:0:
72,109,15233,1,8,3:0:0:0:
136,116,15315,1,8,3:0:0:0:
336,167,15397,2,0,L|465:167,1,128.249996086121,8|0,1:0|0:0,0:0:0:0:
87,231,15889,6,0,L|74:72,1,142.5,8|0,3:0|0:0,0:0:0:0:
308,93,16381,1,8,1:0:0:0:
95,186,16627,2,0,L|242:184,2,142.5,0|0|0,0:0|3:0|0:0,0:0:0:0:
338,205,17365,2,0,L|343:55,1,142.5,8|0,1:0|0:0,0:0:0:0:
18,152,17856,6,0,L|198:143,1,142.5,8|0,3:0|0:0,0:0:0:0:
381,147,18348,1,8,1:0:0:0:
169,116,18594,1,0,0:0:0:0:
309,89,18840,1,0,3:0:0:0:
446,69,19086,1,0,0:0:0:0:
225,217,19332,2,0,L|72:220,1,142.5,8|0,1:0|0:0,0:0:0:0:
446,249,19824,6,0,L|459:90,1,142.5,8|0,3:0|0:0,0:0:0:0:
225,111,20315,1,8,1:0:0:0:
438,204,20561,2,0,L|291:202,2,142.5,0|0|0,0:0|3:0|0:0,0:0:0:0:
189,206,21299,2,0,L|184:56,1,142.5,8|0,1:0|0:0,0:0:0:0:
497,170,21791,6,0,L|317:161,1,142.5,8|0,3:0|0:0,0:0:0:0:
146,166,22283,1,8,1:0:0:0:
354,134,22529,1,0,0:0:0:0:
229,107,22774,1,0,3:0:0:0:
101,88,23020,1,0,0:0:0:0:
307,244,23266,2,0,P|365:179|283:91,1,213.75,8|0,1:0|0:0,0:0:0:0:
56,178,23758,6,0,L|44:38,1,128.249996086121,8|0,3:0|0:0,0:0:0:0:
231,91,24250,2,0,L|95:91,1,128.249996086121,8|0,1:0|0:0,0:0:0:0:
298,219,24742,2,0,L|439:218,1,128.249996086121,0|0,3:0|3:0,0:0:0:0:
244,142,25233,2,0,L|237:4,1,128.249996086121,8|0,1:0|0:0,0:0:0:0:
466,134,25725,6,0,L|311:136,2,128.249996086121,0|0|8,3:0|3:0|1:0,0:0:0:0:
277,210,26463,2,0,L|113:207,2,128.249996086121,0|0|0,0:0|3:0|3:0,0:0:0:0:
76,269,27201,1,4,3:0:0:0:
23,236,27324,1,0,0:0:0:0:
25,175,27447,1,0,0:0:0:0:
79,146,27570,1,0,0:0:0:0:
393,114,27692,6,0,L|401:262,1,142.5,8|0,3:0|0:0,0:0:0:0:
272,208,28184,1,8,1:0:0:0:
47,158,28430,1,0,0:0:0:0:
272,208,28676,2,0,L|274:53,1,142.5,0|0,3:0|0:0,0:0:0:0:
139,157,29168,2,0,L|131:12,1,142.5,8|0,1:0|0:0,0:0:0:0:
375,69,29660,6,0,L|382:216,1,142.5,8|0,3:0|0:0,0:0:0:0:
255,199,30152,1,8,1:0:0:0:
473,177,30397,1,0,0:0:0:0:
255,199,30643,2,0,L|103:199,1,142.5,0|0,3:0|0:0,0:0:0:0:
364,289,31135,2,0,P|431:218|322:172,1,213.75,8|0,1:0|0:0,0:0:0:0:
120,172,31627,6,0,L|264:169,1,128.249996086121,8|0,3:0|0:0,0:0:0:0:
68,246,32119,2,0,L|59:97,1,128.249996086121,8|0,1:0|0:0,0:0:0:0:
254,149,32611,2,0,L|117:147,2,128.249996086121,0|0|8,3:0|3:0|1:0,0:0:0:0:
453,133,33348,1,0,0:0:0:0:
297,81,33594,5,0,3:0:0:0:
143,74,33840,1,0,3:0:0:0:
340,152,34086,1,8,1:0:0:0:
119,193,34332,2,0,L|252:192,2,128.249996086121,0|0|0,0:0|3:0|3:0,0:0:0:0:
436,281,35070,1,4,3:0:0:0:
485,244,35192,1,0,0:0:0:0:
482,183,35315,1,0,0:0:0:0:
428,153,35438,1,0,0:0:0:0:
106,189,35561,6,0,L|91:39,1,142.5,8|0,3:0|0:0,0:0:0:0:
229,43,36053,1,8,1:0:0:0:
457,101,36299,1,0,0:0:0:0:
229,43,36545,2,0,L|62:52,1,142.5,0|0,3:0|0:0,0:0:0:0:
287,187,37037,2,0,L|435:183,1,142.5,8|0,1:0|0:0,0:0:0:0:
224,107,37529,6,0,L|67:106,2,142.5,8|0|8,3:0|0:0|1:0,0:0:0:0:
414,113,38266,1,0,0:0:0:0:
224,127,38512,2,0,L|212:-27,1,142.5,0|0,3:0|0:0,0:0:0:0:
427,37,39004,2,0,P|501:84|399:153,1,213.75,8|0,1:0|0:0,0:0:0:0:
126,211,39496,6,0,L|116:63,1,128.249996086121,8|0,3:0|0:0,0:0:0:0:
316,116,39988,2,0,L|176:120,1,128.249996086121,8|0,1:0|0:0,0:0:0:0:
383,245,40479,2,0,L|511:243,1,128.249996086121,0|0,3:0|3:0,0:0:0:0:
316,152,40971,2,0,L|172:152,1,128.249996086121,8|0,1:0|0:0,0:0:0:0:
505,207,41463,6,0,L|365:213,2,128.249996086121,0|0|8,3:0|3:0|1:0,0:0:0:0:
279,117,42201,2,0,L|444:117,2,128.249996086121,0|0|0,0:0|3:0|3:0,0:0:0:0:
69,82,42938,1,4,3:0:0:0:
13,104,43061,1,0,0:0:0:0:
10,165,43184,1,0,0:0:0:0:
64,193,43307,1,0,0:0:0:0:
336,185,43430,6,0,L|507:190,1,142.5,8|0,3:0|0:0,0:0:0:0:
269,116,43922,1,8,1:0:0:0:
476,152,44168,2,0,L|318:151,2,142.5,0|0|0,0:0|3:0|0:0,0:0:0:0:
275,183,44906,2,0,L|88:176,1,142.5,8|0,1:0|0:0,0:0:0:0:
349,125,45397,6,0,L|354:277,1,142.5,8|0,3:0|0:0,0:0:0:0:
138,225,45889,1,8,1:0:0:0:
355,182,46135,2,0,L|193:181,2,142.5,0|0|0,0:0|3:0|0:0,0:0:0:0:
150,65,46873,2,0,P|80:101|156:182,1,213.75,8|0,1:0|0:0,0:0:0:0:
402,178,47365,5,8,3:0:0:0:
288,131,47611,2,0,L|151:132,2,128.249996086121,0|8|0,0:0|1:0|0:0,0:0:0:0:
88,190,48348,2,0,L|78:36,1,128.249996086121,0|0,3:0|3:0,0:0:0:0:
287,74,48840,2,0,L|454:75,1,128.249996086121,8|0,1:0|0:0,0:0:0:0:
207,225,49332,6,0,P|140:188|239:66,1,256.499992172241,0|8,3:0|1:0,0:0:0:0:
345,78,50070,1,0,0:0:0:0:
160,167,50315,2,0,L|146:27,1,128.249996086121,0|0,3:0|3:0,0:0:0:0:
343,174,50807,2,0,L|349:32,1,128.249996086121,4|8,3:0|3:0,0:0:0:0:
30,113,51299,6,0,L|177:120,1,128.249996086121,8|0,3:0|0:0,0:0:0:0:
340,132,51791,1,8,1:0:0:0:
155,119,52037,1,0,0:0:0:0:
340,132,52283,2,0,L|347:-11,1,128.249996086121,0|0,3:0|3:0,0:0:0:0:
155,119,52774,2,0,L|13:119,1,128.249996086121,8|0,1:0|0:0,0:0:0:0:
409,237,53266,6,0,P|473:191|373:65,1,256.499992172241,0|0,3:0|0:0,0:0:0:0:
23,142,54246,2,0,L|21:104,1,23.75,8|0,3:0|3:0,0:0:0:0:
215,100,54491,1,0,3:0:0:0:
355,177,54737,2,0,L|357:135,1,24.4624997947025,8|0,3:0|3:0,0:0:0:0:
151,127,54983,1,0,3:0:0:0:
496,187,55229,5,12,3:0:0:0:
156,237,55474,2,0,L|333:233,2,156.750004783631,0|8|0,0:0|1:0|0:0,0:0:0:0:
379,175,56212,2,0,L|384:9,1,156.750004783631,0|0,3:0|3:0,0:0:0:0:
153,171,56704,2,0,P|82:116|169:40,1,235.125007175446,8|0,1:0|0:0,0:0:0:0:
407,112,57196,5,8,3:0:0:0:
275,156,57442,1,0,0:0:0:0:
489,93,57688,2,0,L|498:258,1,156.750004783631,8|0,1:0|0:0,0:0:0:0:
156,262,58179,2,0,L|346:261,1,156.750004783631,8|0,3:0|3:0,0:0:0:0:
76,197,58671,2,0,P|26:127|90:90,1,156.750004783631,8|0,3:0|3:0,0:0:0:0:
143,79,59040,1,0,0:0:0:0:
342,137,59163,5,8,3:0:0:0:
212,223,59409,2,0,L|369:222,2,156.750004783631,0|8|0,0:0|1:0|0:0,0:0:0:0:
437,171,60147,2,0,L|438:12,1,156.750004783631,0|0,3:0|3:0,0:0:0:0:
227,59,60638,1,8,3:0:0:0:
440,44,60884,1,0,0:0:0:0:
82,185,61130,6,0,P|23:95|102:57,1,209.000006378174,8|0,3:0|0:0,0:0:0:0:
329,101,61622,1,8,1:0:0:0:
96,125,61786,2,0,L|89:6,1,104.500003189087
374,95,62114,2,0,P|447:164|370:188,1,209.000006378174,0|0,3:0|0:0,0:0:0:0:
108,121,62606,1,8,1:0:0:0:
261,99,62769,1,0,0:0:0:0:
407,91,62933,1,0,0:0:0:0:
157,284,63097,6,0,P|72:242|206:107,1,313.500009567261,12|8,3:0|1:0,0:0:0:0:
363,161,63835,1,0,0:0:0:0:
126,171,64081,2,0,L|109:11,1,156.750004783631,0|0,3:0|3:0,0:0:0:0:
328,46,64573,2,0,P|404:78|321:166,1,235.125007175446,8|0,1:0|0:0,0:0:0:0:
96,173,65065,5,8,3:0:0:0:
230,128,65310,2,0,L|45:127,2,156.750004783631,0|8|0,0:0|1:0|0:0,0:0:0:0:
434,206,66048,2,0,L|446:30,1,156.750004783631,8|0,3:0|3:0,0:0:0:0:
223,52,66540,2,0,L|39:57,1,156.750004783631,8|0,3:0|3:0,0:0:0:0:
450,253,67032,5,8,3:0:0:0:
251,218,67278,2,0,L|425:223,2,156.750004783631,0|8|0,0:0|1:0|0:0,0:0:0:0:
481,174,68015,2,0,L|488:8,1,156.750004783631,0|0,3:0|3:0,0:0:0:0:
267,57,68507,1,8,3:0:0:0:
487,49,68753,1,0,0:0:0:0:
113,238,68999,6,0,P|30:201|156:57,1,313.500009567261,8|8,3:0|1:0,0:0:0:0:
258,83,69737,1,0,0:0:0:0:
492,142,69983,1,8,1:0:0:0:
258,83,70310,1,8,3:0:0:0:
20,142,70638,1,8,3:0:0:0:
426,187,70966,5,12,3:0:0:0:
256,192,71089,12,0,72933,0:0:0:0:
456,178,74901,6,0,L|468:38,1,128.249996086121,8|0,3:0|0:0,0:0:0:0:
281,91,75392,2,0,L|417:91,1,128.249996086121,8|0,1:0|0:0,0:0:0:0:
214,219,75884,2,0,L|73:218,1,128.249996086121,0|0,3:0|3:0,0:0:0:0:
268,142,76376,2,0,L|275:4,1,128.249996086121,8|0,1:0|0:0,0:0:0:0:
46,134,76868,6,0,L|201:136,2,128.249996086121,0|0|8,3:0|3:0|1:0,0:0:0:0:
235,210,77606,2,0,L|399:207,2,128.249996086121,0|0|0,0:0|3:0|3:0,0:0:0:0:
436,269,78343,1,4,3:0:0:0:
489,236,78466,1,0,0:0:0:0:
487,175,78589,1,0,0:0:0:0:
433,146,78712,1,0,0:0:0:0:
119,114,78835,6,0,L|111:262,1,142.5,8|0,3:0|0:0,0:0:0:0:
240,208,79327,1,8,1:0:0:0:
465,158,79573,1,0,0:0:0:0:
240,208,79819,2,0,L|238:53,1,142.5,0|0,3:0|0:0,0:0:0:0:
373,157,80310,2,0,L|381:12,1,142.5,8|0,1:0|0:0,0:0:0:0:
137,69,80802,6,0,L|130:216,1,142.5,8|0,3:0|0:0,0:0:0:0:
257,199,81294,1,8,1:0:0:0:
39,177,81540,1,0,0:0:0:0:
257,199,81786,2,0,L|409:199,1,142.5,0|0,3:0|0:0,0:0:0:0:
153,297,82278,2,0,P|86:226|195:180,1,213.75,8|0,1:0|0:0,0:0:0:0:
382,174,82769,6,0,L|238:171,1,128.249996086121,8|0,3:0|0:0,0:0:0:0:
426,253,83261,2,0,L|435:104,1,128.249996086121,8|0,1:0|0:0,0:0:0:0:
258,149,83753,2,0,L|395:147,2,128.249996086121,0|0|8,3:0|3:0|1:0,0:0:0:0:
59,133,84491,1,0,0:0:0:0:
215,81,84737,5,0,3:0:0:0:
369,74,84983,1,0,3:0:0:0:
172,152,85229,1,8,1:0:0:0:
393,193,85474,2,0,L|260:192,2,128.249996086121,0|0|0,0:0|3:0|3:0,0:0:0:0:
76,281,86212,1,4,3:0:0:0:
27,244,86335,1,0,0:0:0:0:
30,183,86458,1,0,0:0:0:0:
84,153,86581,1,0,0:0:0:0:
406,189,86704,6,0,L|421:39,1,142.5,8|0,3:0|0:0,0:0:0:0:
283,43,87196,1,8,1:0:0:0:
55,101,87442,1,0,0:0:0:0:
283,43,87688,2,0,L|450:52,1,142.5,0|0,3:0|0:0,0:0:0:0:
225,187,88179,2,0,L|77:183,1,142.5,8|0,1:0|0:0,0:0:0:0:
288,107,88671,6,0,L|445:106,2,142.5,8|0|8,3:0|0:0|1:0,0:0:0:0:
98,113,89409,1,0,0:0:0:0:
288,127,89655,2,0,L|300:-27,1,142.5,0|0,3:0|0:0,0:0:0:0:
85,37,90147,2,0,P|11:84|113:153,1,213.75,8|0,1:0|0:0,0:0:0:0:
386,211,90638,6,0,L|396:63,1,128.249996086121,8|0,3:0|0:0,0:0:0:0:
196,116,91130,2,0,L|336:120,1,128.249996086121,8|0,1:0|0:0,0:0:0:0:
129,245,91622,2,0,L|1:243,1,128.249996086121,0|0,3:0|3:0,0:0:0:0:
196,152,92114,2,0,L|340:152,1,128.249996086121,8|0,1:0|0:0,0:0:0:0:
7,207,92606,6,0,L|147:213,2,128.249996086121,0|0|8,3:0|3:0|1:0,0:0:0:0:
233,117,93343,2,0,L|68:117,2,128.249996086121,0|0|0,0:0|3:0|3:0,0:0:0:0:
443,82,94081,1,4,3:0:0:0:
499,104,94204,1,0,0:0:0:0:
502,165,94327,1,0,0:0:0:0:
448,193,94450,1,0,0:0:0:0:
176,185,94573,6,0,L|5:190,1,142.5,8|0,3:0|0:0,0:0:0:0:
243,116,95065,1,8,1:0:0:0:
36,152,95310,2,0,L|194:151,2,142.5,0|0|0,0:0|3:0|0:0,0:0:0:0:
237,183,96048,2,0,L|424:176,1,142.5,8|0,1:0|0:0,0:0:0:0:
163,125,96540,6,0,L|158:277,1,142.5,8|0,3:0|0:0,0:0:0:0:
374,225,97032,1,8,1:0:0:0:
157,182,97278,2,0,L|319:181,2,142.5,0|0|0,0:0|3:0|0:0,0:0:0:0:
362,65,98015,2,0,P|432:101|356:182,1,213.75,8|0,1:0|0:0,0:0:0:0:
110,178,98507,5,8,3:0:0:0:
224,131,98753,2,0,L|361:132,2,128.249996086121,0|8|0,0:0|1:0|0:0,0:0:0:0:
424,190,99491,2,0,L|434:36,1,128.249996086121,0|0,3:0|3:0,0:0:0:0:
225,74,99983,2,0,L|58:75,1,128.249996086121,8|0,1:0|0:0,0:0:0:0:
305,225,100474,6,0,P|372:188|273:66,1,256.499992172241,0|8,3:0|1:0,0:0:0:0:
167,78,101212,1,0,0:0:0:0:
352,167,101458,2,0,L|366:27,1,128.249996086121,0|0,3:0|3:0,0:0:0:0:
169,174,101950,2,0,L|163:32,1,128.249996086121,4|8,3:0|3:0,0:0:0:0:
482,113,102442,6,0,L|335:120,1,128.249996086121,8|0,3:0|0:0,0:0:0:0:
172,132,102933,1,8,1:0:0:0:
357,119,103179,1,0,0:0:0:0:
172,132,103425,2,0,L|165:-11,1,128.249996086121,0|0,3:0|3:0,0:0:0:0:
357,119,103917,2,0,L|499:119,1,128.249996086121,8|0,1:0|0:0,0:0:0:0:
103,237,104409,6,0,P|39:191|139:65,1,256.499992172241,0|0,3:0|0:0,0:0:0:0:
489,142,105384,2,0,L|489:98,1,23.75,8|0,3:0|0:0,0:0:0:0:
297,100,105629,1,0,3:0:0:0:
157,177,105875,2,0,L|154:133,1,24.4624997947025,8|0,3:0|0:0,0:0:0:0:
361,127,106121,1,0,3:0:0:0:
16,187,106367,5,12,3:0:0:0:
356,237,106620,2,0,L|179:233,2,156.750004783631,0|8|0,0:0|1:0|0:0,0:0:0:0:
133,175,107358,2,0,L|128:9,1,156.750004783631,0|0,3:0|3:0,0:0:0:0:
359,171,107850,2,0,P|430:116|343:40,1,235.125007175446,8|0,1:0|0:0,0:0:0:0:
105,112,108342,5,8,3:0:0:0:
237,156,108588,1,0,0:0:0:0:
23,93,108834,2,0,L|14:258,1,156.750004783631,8|0,1:0|0:0,0:0:0:0:
356,262,109325,2,0,L|166:261,1,156.750004783631,8|0,3:0|3:0,0:0:0:0:
436,197,109817,2,0,P|478:117|413:98,1,156.750004783631,8|0,3:0|3:0,0:0:0:0:
364,89,110186,1,0,0:0:0:0:
170,137,110309,5,8,3:0:0:0:
300,223,110555,2,0,L|143:222,2,156.750004783631,0|8|0,0:0|1:0|0:0,0:0:0:0:
75,171,111293,2,0,L|74:12,1,156.750004783631,0|0,3:0|3:0,0:0:0:0:
285,59,111784,1,8,3:0:0:0:
72,44,112030,1,0,0:0:0:0:
430,185,112276,6,0,P|489:95|410:57,1,209.000006378174,8|0,3:0|0:0,0:0:0:0:
183,101,112768,1,8,1:0:0:0:
416,125,112932,2,0,L|423:6,1,104.500003189087
138,95,113260,2,0,P|65:164|142:188,1,209.000006378174,0|0,3:0|0:0,0:0:0:0:
404,121,113752,1,8,1:0:0:0:
251,99,113915,1,0,0:0:0:0:
105,91,114079,1,0,0:0:0:0:
355,284,114243,6,0,P|440:242|306:107,1,313.500009567261,12|8,3:0|1:0,0:0:0:0:
149,161,114981,1,0,0:0:0:0:
386,171,115227,2,0,L|403:11,1,156.750004783631,0|0,3:0|3:0,0:0:0:0:
184,46,115719,2,0,P|108:78|191:166,1,235.125007175446,8|0,1:0|0:0,0:0:0:0:
416,173,116211,5,8,3:0:0:0:
282,128,116456,2,0,L|467:127,2,156.750004783631,0|8|0,0:0|1:0|0:0,0:0:0:0:
78,206,117194,2,0,L|66:30,1,156.750004783631,8|0,3:0|3:0,0:0:0:0:
289,52,117686,2,0,L|473:57,1,156.750004783631,8|0,3:0|3:0,0:0:0:0:
63,239,118178,5,8,3:0:0:0:
261,218,118424,2,0,L|87:223,2,156.750004783631,0|8|0,0:0|1:0|0:0,0:0:0:0:
31,174,119161,2,0,L|24:8,1,156.750004783631,0|0,3:0|3:0,0:0:0:0:
245,57,119653,1,8,3:0:0:0:
25,49,119899,1,0,0:0:0:0:
341,180,120145,6,0,L|156:176,1,156.750004783631,8|0,3:0|0:0,0:0:0:0:
263,106,120514,1,0,0:0:0:0:
480,134,120637,2,0,L|486:25,1,78.3750023918153,8|0,1:0|0:0,0:0:0:0:
258,36,120883,2,0,L|155:35,1,78.3750023918153
425,244,121129,2,0,P|466:169|383:145,1,156.750004783631,0|0,3:0|3:0,0:0:0:0:
341,137,121497,1,0,0:0:0:0:
123,161,121620,2,0,L|118:47,1,78.3750023918153,8|0,1:0|0:0,0:0:0:0:
327,74,121866,2,0,L|416:71,1,78.3750023918153,0|0,3:0|0:0,0:0:0:0:
119,237,122112,6,0,P|28:187|134:58,1,313.500009567261,12|8,3:0|1:0,0:0:0:0:
348,105,122850,1,0,0:0:0:0:
125,167,123096,2,0,L|299:169,1,156.750004783631,0|0,3:0|3:0,0:0:0:0:
61,262,123588,2,0,P|1:213|103:134,1,235.125007175446,8|0,1:0|0:0,0:0:0:0:
343,150,124079,5,8,3:0:0:0:
192,222,124325,2,0,L|356:217,2,156.750004783631,0|8|0,0:0|1:0|0:0,0:0:0:0:
426,151,125063,2,0,L|257:150,1,156.750004783631,8|0,3:0|3:0,0:0:0:0:
8,191,125555,2,0,L|202:195,1,156.750004783631,8|0,3:0|3:0,0:0:0:0:
476,239,126047,5,8,3:0:0:0:
274,175,126293,2,0,L|443:178,2,156.750004783631,0|8|0,0:0|1:0|0:0,0:0:0:0:
40,150,127030,2,0,L|30:-12,1,156.750004783631,0|0,3:0|3:0,0:0:0:0:
264,96,127522,2,0,L|436:95,1,156.750004783631,8|0,3:0|0:0,0:0:0:0:
74,240,128014,6,0,P|3:194|112:50,1,313.500009567261,8|8,3:0|1:0,0:0:0:0:
249,96,128752,1,0,0:0:0:0:
487,192,128997,2,0,L|487:147,1,26.1250007972718,8|0,1:0|3:0,0:0:0:0:
249,96,129325,2,0,L|249:48,1,26.1250007972718,8|0,3:0|3:0,0:0:0:0:
25,192,129653,2,0,L|25:146,1,26.1250007972718,8|0,3:0|3:0,0:0:0:0:
412,154,129981,5,12,3:0:0:0:
256,192,130104,12,8,131456,1:0:0:0:
211,155,131948,5,12,3:0:0:0:
432,160,132194,2,0,L|278:158,2,142.5,0|8|0,3:0|1:0|0:0,0:0:0:0:
206,100,132932,2,0,L|52:95,1,142.5,0|0,3:0|3:0,0:0:0:0:
297,221,133424,2,0,P|373:177|274:116,1,213.75,8|0,1:0|0:0,0:0:0:0:
51,147,133915,6,0,L|37:0,1,142.5,0|0,3:0|3:0,0:0:0:0:
244,126,134407,2,0,L|246:-32,1,142.5,8|0,1:0|0:0,0:0:0:0:
460,179,134899,1,0,3:0:0:0:
244,126,135145,1,0,3:0:0:0:
460,179,135391,2,0,L|469:32,1,142.5,8|0,1:0|0:0,0:0:0:0:
393,21,135760,1,0,0:0:0:0:
177,166,135883,6,0,L|19:172,1,142.5,12|0,3:0|3:0,0:0:0:0:
267,227,136375,2,0,L|416:222,1,142.5,8|0,1:0|0:0,0:0:0:0:
177,91,136866,2,0,L|18:97,1,142.5,0|0,3:0|3:0,0:0:0:0:
267,227,137358,2,0,L|416:222,1,142.5,8|0,1:0|0:0,0:0:0:0:
338,159,137727,1,0,0:0:0:0:
74,186,137850,6,0,L|55:25,1,142.5,0|0,3:0|3:0,0:0:0:0:
297,99,138342,2,0,L|452:101,1,142.5,8|0,1:0|0:0,0:0:0:0:
112,271,138834,2,0,P|27:214|143:119,1,285,0|8,3:0|1:0,0:0:0:0:
366,133,139571,1,0,0:0:0:0:
38,140,139817,5,12,3:0:0:0:
251,153,140063,2,0,L|97:148,2,142.5,0|8|0,3:0|1:0|0:0,0:0:0:0:
42,254,140801,2,0,L|31:73,1,142.5,0|0,3:0|3:0,0:0:0:0:
245,101,141293,2,0,P|324:136|229:189,1,213.75,8|0,1:0|0:0,0:0:0:0:
34,195,141784,6,0,L|186:200,1,142.5,0|0,3:0|3:0,0:0:0:0:
388,198,142276,2,0,L|217:196,1,142.5,8|0,1:0|0:0,0:0:0:0:
461,142,142768,2,0,L|469:298,1,142.5,0|0,3:0|3:0,0:0:0:0:
246,292,143260,1,8,1:0:0:0:
468,284,143506,1,0,0:0:0:0:
96,202,143752,6,0,L|84:26,1,142.5,12|0,3:0|3:0,0:0:0:0:
292,100,144243,2,0,L|443:105,1,142.5,8|0,1:0|0:0,0:0:0:0:
98,259,144735,2,0,P|33:205|162:107,1,285,0|8,3:0|1:0,0:0:0:0:
356,124,145473,1,0,0:0:0:0:
8,192,145719,6,0,L|163:192,1,142.5,0|0,3:0|3:0,0:0:0:0:
329,206,146211,2,0,L|174:206,1,142.5,8|0,1:0|0:0,0:0:0:0:
505,115,146702,2,0,P|509:208|300:289,1,285,0|8,3:0|1:0,0:0:0:0:
138,171,147440,2,0,L|254:171,1,71.25,8|8,1:0|1:0,0:0:0:0:
441,106,147686,6,0,L|452:253,1,142.5,12|0,3:0|3:0,0:0:0:0:
244,205,148178,1,8,1:0:0:0:
444,143,148424,2,0,L|270:146,2,142.5,0|0|0,0:0|3:0|3:0,0:0:0:0:
205,131,149161,2,0,L|39:134,1,142.5,8|0,1:0|0:0,0:0:0:0:
426,223,149653,6,0,L|428:182,1,23.75,8|0,1:0|3:0,0:0:0:0:
199,99,149981,2,0,L|196:64,1,23.75,4|0,0:0|3:0,0:0:0:0:
415,105,150309,2,0,L|418:62,1,23.75,4|0,0:0|3:0,0:0:0:0:
61,247,150637,2,0,L|57:205,1,23.75,8|0,1:0|3:0,0:0:0:0:
288,123,150965,2,0,L|291:95,1,23.75,0|0,3:0|3:0,0:0:0:0:
72,129,151293,2,0,L|67:91,1,23.75,0|0,3:0|3:0,0:0:0:0:
451,185,151620,5,12,3:0:0:0:
256,192,151866,12,0,155555,3:0:0:0:
86,196,159489,6,0,L|216:196,1,114,0|0,3:0|0:0,0:0:0:0:
400,154,160227,1,0,0:0:0:0:
282,147,160473,2,0,L|282:7,1,114,0|0,3:0|0:0,0:0:0:0:
396,125,160965,2,0,L|403:2,1,114,0|0,3:0|0:0,0:0:0:0:
175,97,161456,6,0,L|59:97,1,114,0|0,3:0|0:0,0:0:0:0:
278,181,162194,2,0,L|415:180,1,114,0|0,0:0|3:0,0:0:0:0:
271,105,162686,2,0,L|141:105,2,114,0|0|0,0:0|3:0|0:0,0:0:0:0:
493,189,163424,6,0,L|500:59,1,114,0|0,3:0|0:0,0:0:0:0:
270,145,164161,1,0,0:0:0:0:
384,99,164407,1,0,3:0:0:0:
496,81,164653,1,0,0:0:0:0:
384,99,164899,1,0,3:0:0:0:
270,145,165145,1,0,0:0:0:0:
45,127,165391,6,0,L|42:249,1,114,0|0,3:0|0:0,0:0:0:0:
270,233,166129,2,0,L|143:234,2,114,0|0|0,0:0|3:0|0:0,0:0:0:0:
388,172,166866,2,0,L|393:57,1,114,0|0,3:0|0:0,0:0:0:0:
35,316,167358,6,0,L|30:59,1,228,8|0,1:0|0:0,0:0:0:0:
266,173,168342,2,0,L|3:181,1,228
441,263,169325,6,0,L|446:-9,1,228,2|0,0:0|0:0,0:0:0:0:
83,186,170309,2,0,L|322:181,1,228
195,112,171047,1,0,0:0:0:0:
400,243,171293,6,0,P|462:192|377:87,1,228,2|0,0:0|0:0,0:0:0:0:
160,184,172276,2,0,L|401:178,1,228
29,234,173260,6,0,L|237:232,2,152,2|0|0,0:0|0:0|0:0,0:0:0:0:
425,229,174237,2,0,L|433:67,1,142.5,8|0,3:0|3:0,0:0:0:0:
55,134,174728,2,0,L|42:-13,1,142.5,8|0,3:0|3:0,0:0:0:0:
496,187,175234,5,12,3:0:0:0:
312,233,175479,2,0,L|133:236,1,156.750004783631,0|8,0:0|1:0,0:0:0:0:
498,139,175971,1,0,0:0:0:0:
133,175,176217,2,0,L|128:9,1,156.750004783631,0|0,3:0|3:0,0:0:0:0:
359,171,176709,2,0,P|430:116|343:40,1,235.125007175446,8|0,1:0|0:0,0:0:0:0:
105,112,177201,5,8,3:0:0:0:
237,156,177447,1,0,0:0:0:0:
23,93,177693,2,0,L|14:258,1,156.750004783631,8|0,1:0|0:0,0:0:0:0:
356,262,178184,2,0,L|166:261,1,156.750004783631,8|0,3:0|3:0,0:0:0:0:
436,197,178676,2,0,P|486:127|422:90,1,156.750004783631,8|0,3:0|3:0,0:0:0:0:
369,79,179045,1,0,0:0:0:0:
170,137,179168,5,8,3:0:0:0:
300,223,179414,2,0,L|143:222,2,156.750004783631,0|8|0,0:0|1:0|0:0,0:0:0:0:
75,171,180152,2,0,L|74:12,1,156.750004783631,0|0,3:0|3:0,0:0:0:0:
285,59,180643,1,8,3:0:0:0:
72,44,180889,1,0,0:0:0:0:
430,184,181135,6,0,P|491:93|410:56,1,209.000006378174,8|0,3:0|0:0,0:0:0:0:
183,101,181627,1,8,1:0:0:0:
416,125,181791,2,0,L|426:-21,1,104.500003189087
138,95,182119,2,0,P|65:164|142:188,1,209.000006378174,0|0,3:0|0:0,0:0:0:0:
404,121,182611,1,8,1:0:0:0:
251,99,182774,1,0,0:0:0:0:
105,91,182938,1,0,0:0:0:0:
355,284,183102,6,0,P|440:242|306:107,1,313.500009567261,12|8,3:0|1:0,0:0:0:0:
149,161,183840,1,0,0:0:0:0:
386,171,184086,2,0,L|403:11,1,156.750004783631,0|0,3:0|3:0,0:0:0:0:
184,46,184578,2,0,P|108:78|191:166,1,235.125007175446,8|0,1:0|0:0,0:0:0:0:
416,173,185070,5,8,3:0:0:0:
282,128,185315,2,0,L|467:127,2,156.750004783631,0|8|0,0:0|1:0|0:0,0:0:0:0:
78,206,186053,2,0,L|66:30,1,156.750004783631,8|0,3:0|3:0,0:0:0:0:
289,52,186545,2,0,L|473:57,1,156.750004783631,8|0,3:0|3:0,0:0:0:0:
72,273,187037,5,8,3:0:0:0:
261,218,187283,2,0,L|87:223,2,156.750004783631,0|8|0,0:0|1:0|0:0,0:0:0:0:
31,174,188020,2,0,L|24:8,1,156.750004783631,0|0,3:0|3:0,0:0:0:0:
245,57,188512,1,8,3:0:0:0:
25,49,188758,1,0,0:0:0:0:
399,238,189004,6,0,P|482:201|356:57,1,313.500009567261,8|8,3:0|1:0,0:0:0:0:
153,95,189742,1,0,0:0:0:0:
489,207,189988,2,0,L|496:39,1,156.750004783631,8|0,3:0|3:0,0:0:0:0:
174,58,190479,2,0,L|15:58,1,156.750004783631,8|0,3:0|3:0,0:0:0:0:
443,180,190971,6,0,L|254:185,1,156.750004783631,12|0,3:0|0:0,0:0:0:0:
69,180,191463,1,8,1:0:0:0:
291,143,191709,2,0,L|99:142,2,152.474995346832,0|0|0,0:0|3:0|0:0,0:0:0:0:
82,204,192447,2,0,L|70:17,1,148.199999095459,8|0,1:0|0:0,0:0:0:0:
436,156,192938,6,0,L|248:156,1,145.350000887146,8|0,3:0|0:0,0:0:0:0:
494,270,193430,1,8,1:0:0:0:
295,198,193676,2,0,L|446:199,2,142.5,0|0|0,0:0|3:0|0:0,0:0:0:0:
90,166,194414,2,0,L|76:6,1,142.5,8|0,1:0|0:0,0:0:0:0:
443,181,194906,6,0,L|454:358,1,142.5,8|0,3:0|0:0,0:0:0:0:
243,285,195397,1,8,1:0:0:0:
456,210,195643,2,0,L|295:212,1,142.5,0|0,0:0|3:0,0:0:0:0:
105,120,196135,1,0,0:0:0:0:
312,131,196381,2,0,L|460:131,1,142.5,8|0,1:0|0:0,0:0:0:0:
121,230,196873,6,0,P|62:179|155:107,1,213.75,8|0,3:0|0:0,0:0:0:0:
358,201,197365,2,0,L|357:93,1,71.25,8|0,1:0|0:0,0:0:0:0:
158,144,197611,2,0,L|150:47,1,71.25
432,73,197856,2,0,L|444:246,1,142.5,0|0,3:0|0:0,0:0:0:0:
218,276,198348,2,0,L|381:278,1,142.5,8|0,1:0|0:0,0:0:0:0:
33,178,198840,6,0,L|206:179,1,142.5,8|0,3:0|0:0,0:0:0:0:
401,190,199332,1,8,1:0:0:0:
187,143,199578,2,0,L|370:142,2,142.5,0|0|0,0:0|3:0|0:0,0:0:0:0:
398,205,200315,2,0,L|410:25,1,142.5,8|0,1:0|0:0,0:0:0:0:
59,156,200807,6,0,L|241:155,1,142.5,8|0,3:0|0:0,0:0:0:0:
18,270,201299,1,8,1:0:0:0:
217,198,201545,2,0,L|71:198,2,142.5,0|0|0,0:0|3:0|0:0,0:0:0:0:
422,166,202283,2,0,L|436:6,1,142.5,8|0,1:0|0:0,0:0:0:0:
57,198,202774,6,0,L|286:200,2,213.75,8|2|2,3:0|3:0|3:0,0:0:0:0:
485,217,203758,2,0,L|256:219,2,213.75,8|2|2,3:0|3:0|3:0,0:0:0:0:
63,154,204742,5,8,3:0:0:0:
256,123,205111,1,2,3:0:0:0:
449,154,205479,1,2,3:0:0:0:
63,154,205725,1,8,3:0:0:0:
256,123,206053,1,2,3:0:0:0:
449,154,206381,1,2,3:0:0:0:
46,199,206709,6,0,L|261:199,2,190,8|2|2,3:0|3:0|3:0,0:0:0:0:
485,217,207693,2,0,L|261:218,2,190,8|2|2,3:0|3:0|3:0,0:0:0:0:
74,264,208676,6,0,L|65:41,1,190,8|4,3:0|3:0,0:0:0:0:
373,103,209332,1,4,3:0:0:0:
120,188,209660,2,0,L|222:190,1,95,8|8,1:0|1:0,0:0:0:0:
473,118,209988,2,0,L|477:312,1,190,8|8,3:0|3:0,0:0:0:0:
17,145,210643,5,12,3:0:0:0:
256,192,210766,12,0,214578,0:0:0:0:
