osu file format v14

[General]
AudioFilename: Nightcore - Animal i Have Become.mp3
AudioLeadIn: 0
PreviewTime: 42702
Countdown: 1
SampleSet: None
StackLeniency: 0.7
Mode: 0
LetterboxInBreaks: 1
WidescreenStoryboard: 1

[Editor]
Bookmarks: 59159
DistanceSpacing: 0.7
BeatDivisor: 4
GridSize: 8
TimelineZoom: 1

[Metadata]
Title:Animal I Have Become
TitleUnicode:Animal I Have Become
Artist:Three Days Grace
ArtistUnicode:Three Days Grace
Creator:LukerMaster
Version:Normal Jumps! CS8 AR9.5
Source:
Tags:jump training nightcore LKR
BeatmapID:959657
BeatmapSetID:168151

[Difficulty]
HPDrainRate:4
CircleSize:8
OverallDifficulty:6
ApproachRate:9.5
SliderMultiplier:2
SliderTickRate:1

[Events]
//Background and Video events
0,0,"bg-anih.jpg",0,0
//Break Periods
2,55008,57310
2,117051,119353
//Storyboard Layer 0 (Background)
//Storyboard Layer 1 (Fail)
//Storyboard Layer 2 (Pass)
//Storyboard Layer 3 (Foreground)
//Storyboard Sound Samples

[TimingPoints]
332,378.310214375788,4,1,0,70,1,0
12437,-66.6666666666667,4,1,0,70,0,0
98692,-100,4,1,0,70,0,0
100205,-66.6666666666667,4,1,0,70,0,0
130470,-66.6666666666667,4,1,0,5,0,0
134253,-66.6666666666667,4,1,0,75,0,0
145603,-61.3496932515337,4,1,0,75,0,0
147494,-50,4,1,0,75,0,0
162248,-200,4,1,0,30,0,0

[HitObjects]
208,48,332,5,0,0:0:0:0:
72,48,521,1,0,0:0:0:0:
114,267,899,1,0,0:0:0:0:
344,112,1088,1,0,0:0:0:0:
192,312,1277,1,0,0:0:0:0:
256,56,1466,1,0,0:0:0:0:
288,328,1656,2,0,P|344:304|376:264,2,100
264,64,2412,5,0,0:0:0:0:
352,152,2601,1,0,0:0:0:0:
352,272,2791,1,0,0:0:0:0:
264,344,2980,1,0,0:0:0:0:
120,216,3169,1,0,0:0:0:0:
424,196,3358,2,0,P|440:148|416:92,1,100
80,64,3925,5,0,0:0:0:0:
304,64,4115,1,0,0:0:0:0:
80,144,4304,1,0,0:0:0:0:
304,144,4493,1,0,0:0:0:0:
80,224,4682,1,0,0:0:0:0:
304,224,4871,1,0,0:0:0:0:
80,304,5060,1,0,0:0:0:0:
384,120,5439,5,0,0:0:0:0:
176,264,5628,1,0,0:0:0:0:
160,32,5817,1,0,0:0:0:0:
396,150,6006,5,0,0:0:0:0:
161,244,6195,1,0,0:0:0:0:
198,14,6384,1,0,0:0:0:0:
360,224,6574,1,0,0:0:0:0:
64,272,6952,5,0,0:0:0:0:
280,96,7141,1,0,0:0:0:0:
112,48,7330,1,0,0:0:0:0:
216,304,7519,1,0,0:0:0:0:
160,152,7709,1,0,0:0:0:0:
432,128,7898,1,0,0:0:0:0:
136,248,8087,1,0,0:0:0:0:
224,56,8465,5,0,0:0:0:0:
64,304,8654,2,0,L|64:184,1,100
256,56,9033,2,0,L|256:168,1,100
448,304,9411,2,0,L|448:184,1,100
424,64,9978,1,0,0:0:0:0:
104,64,10168,6,0,L|208:64,1,100
232,192,10547,2,0,L|336:192,1,100
56,304,10925,2,0,L|160:304,1,100
80,80,11492,5,0,0:0:0:0:
200,312,11681,1,0,0:0:0:0:
344,88,11870,1,0,0:0:0:0:
280,120,11965,1,0,0:0:0:0:
216,152,12059,1,0,0:0:0:0:
48,328,12437,6,0,L|176:232,1,150.000005722046
104,112,12816,1,0,0:0:0:0:
392,56,13005,1,0,0:0:0:0:
328,288,13194,1,0,0:0:0:0:
240,56,13383,1,0,0:0:0:0:
184,296,13572,1,0,0:0:0:0:
440,216,13762,1,0,0:0:0:0:
288,176,13951,1,0,0:0:0:0:
360,80,14140,1,0,0:0:0:0:
64,136,14329,6,0,P|128:112|208:112,1,150.000005722046
176,216,14707,5,0,0:0:0:0:
312,292,14896,1,0,0:0:0:0:
440,208,15086,1,0,0:0:0:0:
220,148,15275,5,0,0:0:0:0:
360,224,15464,1,0,0:0:0:0:
460,104,15654,1,0,0:0:0:0:
104,40,15842,2,0,B|32:56|32:56|112:96,1,150.000005722046
288,48,16221,6,0,P|336:80|392:160,1,150.000005722046
144,344,16599,2,0,P|96:312|40:232,1,150.000005722046
192,64,16977,1,0,0:0:0:0:
448,160,17166,1,0,0:0:0:0:
384,320,17355,1,0,0:0:0:0:
376,48,17545,5,0,0:0:0:0:
256,256,17734,1,0,0:0:0:0:
248,16,17923,1,0,0:0:0:0:
104,184,18112,6,0,B|176:168|176:168|272:192,1,150.000005722046
464,112,18490,2,0,B|400:72|400:72|320:72,1,150.000005722046
80,88,18869,1,0,0:0:0:0:
325,72,19058,5,0,0:0:0:0:
280,320,19247,1,0,0:0:0:0:
80,168,19436,1,0,0:0:0:0:
176,72,19814,5,0,0:0:0:0:
325,72,20004,1,0,0:0:0:0:
408,312,20193,1,0,0:0:0:0:
158,303,20571,1,0,0:0:0:0:
14,154,20760,1,0,0:0:0:0:
216,104,20949,1,0,0:0:0:0:
43,270,21139,1,0,0:0:0:0:
100,70,21328,1,0,0:0:0:0:
245,220,21518,1,0,0:0:0:0:
245,220,21706,1,0,0:0:0:0:
376,64,22084,6,0,L|376:224,1,150.000005722046
176,256,22463,2,0,L|176:96,1,150.000005722046
456,80,22841,1,0,0:0:0:0:
56,200,23030,1,0,0:0:0:0:
96,96,23219,1,0,0:0:0:0:
304,96,23598,5,0,0:0:0:0:
304,296,23787,1,0,0:0:0:0:
232,144,23976,1,0,0:0:0:0:
232,240,24165,2,0,B|160:240|160:240|16:176|88:32,1,300.000011444092
176,120,24733,1,0,0:0:0:0:
344,64,25111,5,0,0:0:0:0:
408,272,25300,1,0,0:0:0:0:
232,144,25489,1,0,0:0:0:0:
72,264,25867,5,0,0:0:0:0:
48,64,26057,1,0,0:0:0:0:
208,232,26246,1,0,0:0:0:0:
352,313,26624,5,0,0:0:0:0:
221,343,26813,1,0,0:0:0:0:
115,259,27002,1,0,0:0:0:0:
115,124,27192,1,0,0:0:0:0:
221,40,27381,1,0,0:0:0:0:
352,70,27570,1,0,0:0:0:0:
411,192,27759,1,0,0:0:0:0:
64,184,28137,6,0,L|128:40,1,150.000005722046
216,200,28516,2,0,L|248:352,1,150.000005722046
411,192,28894,1,0,0:0:0:0:
320,32,29083,1,0,0:0:0:0:
208,176,29272,1,0,0:0:0:0:
312,136,29461,1,0,0:0:0:0:
160,64,29651,5,0,0:0:0:0:
88,224,29840,2,0,L|216:312,1,150.000005722046
184,184,30218,2,0,L|344:200,1,150.000005722046
248,88,30596,2,0,L|408:56,1,150.000005722046
448,176,30975,1,0,0:0:0:0:
320,272,31164,5,0,0:0:0:0:
112,200,31353,1,0,0:0:0:0:
288,64,31542,1,0,0:0:0:0:
176,48,31920,5,0,0:0:0:0:
72,216,32110,1,0,0:0:0:0:
240,312,32299,1,0,0:0:0:0:
368,168,32677,5,0,0:0:0:0:
208,168,32866,1,0,0:0:0:0:
72,216,33055,1,0,0:0:0:0:
114,85,33244,6,0,P|254:38|394:85,1,300.000011444092
464,192,33812,1,0,0:0:0:0:
143,304,34190,5,0,0:0:0:0:
256,192,34379,1,0,0:0:0:0:
368,79,34569,1,0,0:0:0:0:
143,79,34758,1,0,0:0:0:0:
256,192,34947,1,0,0:0:0:0:
368,304,35136,1,0,0:0:0:0:
256,80,35325,1,0,0:0:0:0:
256,304,35514,1,0,0:0:0:0:
432,128,35704,5,0,0:0:0:0:
320,232,35893,1,0,0:0:0:0:
224,72,36082,1,0,0:0:0:0:
304,48,36271,1,0,0:0:0:0:
240,224,36460,1,0,0:0:0:0:
112,184,36649,1,0,0:0:0:0:
224,72,36838,5,0,0:0:0:0:
352,208,37028,6,0,B|368:240|368:240|384:240|384:240|384:304|432:352,1,150.000005722046
160,208,37406,2,0,B|144:240|144:240|128:240|128:240|128:304|80:352,1,150.000005722046
138,109,37784,2,0,P|255:30|373:109,1,300.000011444092
256,192,38352,1,0,0:0:0:0:
336,320,38541,2,0,P|414:202|336:84,1,300.000011444092
208,48,39108,1,0,0:0:0:0:
104,128,39297,1,0,0:0:0:0:
104,256,39487,1,0,0:0:0:0:
208,320,39676,5,0,0:0:0:0:
256,16,40054,5,0,0:0:0:0:
0,192,40432,1,0,0:0:0:0:
504,192,40811,1,0,0:0:0:0:
256,352,41189,1,0,0:0:0:0:
256,16,41567,1,0,0:0:0:0:
256,192,41946,1,0,0:0:0:0:
208,96,42135,1,0,0:0:0:0:
208,264,42324,1,0,0:0:0:0:
144,32,42513,1,0,0:0:0:0:
136,312,42702,5,0,0:0:0:0:
96,192,42891,1,0,0:0:0:0:
296,80,43081,1,0,0:0:0:0:
312,312,43270,1,0,0:0:0:0:
440,128,43459,1,0,0:0:0:0:
208,208,43648,1,0,0:0:0:0:
288,40,43837,5,0,0:0:0:0:
368,240,44026,1,0,0:0:0:0:
104,224,44215,2,0,B|112:176|128:160|128:160|112:144|112:144|128:128|128:64,1,150.000005722046
240,56,44594,1,0,0:0:0:0:
432,184,44783,1,0,0:0:0:0:
208,288,44972,1,0,0:0:0:0:
368,64,45161,1,0,0:0:0:0:
208,288,45350,1,0,0:0:0:0:
48,288,45540,1,0,0:0:0:0:
336,128,45729,5,0,0:0:0:0:
97,147,45918,1,0,0:0:0:0:
397,277,46107,1,0,0:0:0:0:
144,72,46296,1,0,0:0:0:0:
332,338,46485,1,0,0:0:0:0:
223,31,46675,1,0,0:0:0:0:
244,356,46864,1,0,0:0:0:0:
312,37,47053,1,0,0:0:0:0:
160,326,47242,5,0,0:0:0:0:
384,88,47431,1,0,0:0:0:0:
104,257,47620,1,0,0:0:0:0:
419,169,47809,1,0,0:0:0:0:
92,169,47999,1,0,0:0:0:0:
407,257,48188,1,0,0:0:0:0:
127,87,48377,1,0,0:0:0:0:
351,326,48566,1,0,0:0:0:0:
200,36,48755,5,0,0:0:0:0:
267,356,48944,1,0,0:0:0:0:
289,30,49134,1,0,0:0:0:0:
179,338,49323,1,0,0:0:0:0:
368,71,49512,1,0,0:0:0:0:
114,277,49701,1,0,0:0:0:0:
415,147,49890,1,0,0:0:0:0:
90,191,50079,1,0,0:0:0:0:
336,240,50268,6,0,P|336:176|256:96,1,150.000005722046
56,120,50647,1,0,0:0:0:0:
368,71,50836,1,0,0:0:0:0:
216,288,51025,1,0,0:0:0:0:
216,48,51214,1,0,0:0:0:0:
328,280,51403,1,0,0:0:0:0:
432,72,51593,5,0,0:0:0:0:
280,56,51782,1,0,0:0:0:0:
136,112,51971,1,0,0:0:0:0:
304,304,52160,2,0,P|256:256|272:176,1,150.000005722046
352,224,52538,2,0,P|400:272|384:352,1,150.000005722046
336,40,52917,1,0,0:0:0:0:
56,128,53106,1,0,0:0:0:0:
256,192,53295,12,0,54808,0:0:0:0:
128,144,57835,5,0,0:0:0:0:
128,144,58402,5,0,0:0:0:0:
208,240,58591,1,0,0:0:0:0:
320,176,58780,1,0,0:0:0:0:
54,116,59159,5,0,0:0:0:0:
180,267,59348,1,0,0:0:0:0:
356,166,59537,1,0,0:0:0:0:
208,274,59915,1,0,0:0:0:0:
208,109,60105,1,0,0:0:0:0:
351,192,60294,1,0,0:0:0:0:
188,259,60483,5,0,0:0:0:0:
231,99,60672,1,0,0:0:0:0:
348,216,60861,1,0,0:0:0:0:
240,80,61050,1,0,0:0:0:0:
464,144,61239,1,0,0:0:0:0:
144,256,61429,5,0,0:0:0:0:
384,64,61618,1,0,0:0:0:0:
240,320,61807,1,0,0:0:0:0:
272,32,61996,1,0,0:0:0:0:
160,80,62185,1,0,0:0:0:0:
432,176,62374,1,0,0:0:0:0:
56,136,62564,1,0,0:0:0:0:
384,40,62942,5,0,0:0:0:0:
160,176,63131,1,0,0:0:0:0:
448,104,63320,1,0,0:0:0:0:
160,32,63509,1,0,0:0:0:0:
264,232,63698,1,0,0:0:0:0:
288,32,63888,1,0,0:0:0:0:
136,272,64077,1,0,0:0:0:0:
384,80,64455,5,0,0:0:0:0:
88,280,64644,1,0,0:0:0:0:
232,24,64833,1,0,0:0:0:0:
320,56,65212,5,0,0:0:0:0:
160,80,65401,1,0,0:0:0:0:
280,296,65590,1,0,0:0:0:0:
120,224,65968,5,0,0:0:0:0:
328,160,66157,1,0,0:0:0:0:
120,128,66347,1,0,0:0:0:0:
48,320,66536,1,0,0:0:0:0:
280,352,66725,1,0,0:0:0:0:
328,160,66914,5,0,0:0:0:0:
120,128,67103,1,0,0:0:0:0:
196,252,67482,1,0,0:0:0:0:
195,132,67671,1,0,0:0:0:0:
315,131,67860,1,0,0:0:0:0:
316,251,68049,1,0,0:0:0:0:
163,235,68238,5,0,0:0:0:0:
212,99,68427,1,0,0:0:0:0:
348,148,68616,1,0,0:0:0:0:
299,284,68805,1,0,0:0:0:0:
104,192,68995,5,0,0:0:0:0:
328,40,69184,1,0,0:0:0:0:
104,192,69373,1,0,0:0:0:0:
328,40,69562,1,0,0:0:0:0:
104,192,69751,1,0,0:0:0:0:
368,320,69941,1,0,0:0:0:0:
168,56,70130,1,0,0:0:0:0:
424,80,70508,5,0,0:0:0:0:
368,208,70697,1,0,0:0:0:0:
96,240,70886,1,0,0:0:0:0:
96,240,71265,5,0,0:0:0:0:
192,144,71454,1,0,0:0:0:0:
432,288,71643,1,0,0:0:0:0:
432,288,72021,5,0,0:0:0:0:
400,80,72210,1,0,0:0:0:0:
224,256,72400,1,0,0:0:0:0:
304,32,72589,6,0,B|288:96|320:160|320:160|304:176|304:176|336:224|304:336,1,300.000011444092
112,88,73156,5,0,0:0:0:0:
114,217,73535,5,0,0:0:0:0:
397,166,73724,1,0,0:0:0:0:
118,271,73913,1,0,0:0:0:0:
393,112,74102,1,0,0:0:0:0:
144,324,74291,1,0,0:0:0:0:
367,59,74480,1,0,0:0:0:0:
192,367,74669,1,0,0:0:0:0:
192,367,75048,5,0,0:0:0:0:
192,66,75237,1,0,0:0:0:0:
452,217,75426,1,0,0:0:0:0:
288,192,75615,2,0,B|272:200|248:192|248:192|224:208|192:200|176:208|176:208|144:200|112:216|80:208|80:208|16:208|16:152|56:152,1,300.000011444092
152,96,76183,5,0,0:0:0:0:
272,288,76372,1,0,0:0:0:0:
376,56,76561,1,0,0:0:0:0:
464,184,76750,5,0,0:0:0:0:
336,296,76939,1,0,0:0:0:0:
272,160,77128,1,0,0:0:0:0:
448,96,77318,1,0,0:0:0:0:
256,272,77507,1,0,0:0:0:0:
240,56,77696,1,0,0:0:0:0:
448,232,77885,1,0,0:0:0:0:
160,184,78074,1,0,0:0:0:0:
296,112,78263,1,0,0:0:0:0:
368,280,78453,1,0,0:0:0:0:
160,264,78642,1,0,0:0:0:0:
376,128,78831,1,0,0:0:0:0:
296,320,79020,1,0,0:0:0:0:
128,184,79398,5,0,0:0:0:0:
160,184,79777,5,0,0:0:0:0:
192,184,80155,5,0,0:0:0:0:
224,184,80533,5,0,0:0:0:0:
256,184,80912,5,0,0:0:0:0:
288,184,81290,5,0,0:0:0:0:
288,184,81479,5,0,0:0:0:0:
288,184,81668,5,0,0:0:0:0:
288,184,81857,5,0,0:0:0:0:
288,184,82047,5,0,0:0:0:0:
160,136,82236,5,0,0:0:0:0:
312,64,82425,1,0,0:0:0:0:
224,288,82614,1,0,0:0:0:0:
208,56,82803,1,0,0:0:0:0:
344,280,82992,1,0,0:0:0:0:
88,216,83181,1,0,0:0:0:0:
312,128,83371,1,0,0:0:0:0:
272,320,83560,1,0,0:0:0:0:
112,136,83749,1,0,0:0:0:0:
392,160,83938,1,0,0:0:0:0:
144,256,84127,5,0,0:0:0:0:
256,80,84316,1,0,0:0:0:0:
344,280,84506,1,0,0:0:0:0:
120,168,84695,5,0,0:0:0:0:
424,64,84884,1,0,0:0:0:0:
144,256,85073,5,0,0:0:0:0:
496,120,85262,1,0,0:0:0:0:
192,344,85451,5,0,0:0:0:0:
368,128,85640,1,0,0:0:0:0:
128,184,85830,1,0,0:0:0:0:
424,288,86019,1,0,0:0:0:0:
208,304,86208,5,0,0:0:0:0:
400,192,86397,1,0,0:0:0:0:
88,112,86586,2,0,B|40:152|48:224|48:224|72:264|48:296|64:336|64:336|120:280,1,300.000011444092
176,72,87154,1,0,0:0:0:0:
328,304,87343,2,0,B|272:312|240:328|240:328|216:312|184:296,1,150.000005722046
288,64,87721,1,0,0:0:0:0:
416,288,87910,1,0,0:0:0:0:
136,184,88099,2,0,B|200:168|272:208|328:184|328:184|384:200|448:168,1,300.000011444092
336,272,88667,5,0,0:0:0:0:
400,112,88856,1,0,0:0:0:0:
192,160,89045,1,0,0:0:0:0:
320,32,89234,5,0,0:0:0:0:
216,240,89424,1,0,0:0:0:0:
408,176,89613,1,0,0:0:0:0:
208,56,89802,5,0,0:0:0:0:
336,216,89991,1,0,0:0:0:0:
136,224,90180,1,0,0:0:0:0:
64,168,90369,5,0,0:0:0:0:
280,112,90558,1,0,0:0:0:0:
208,288,90748,1,0,0:0:0:0:
432,280,90937,5,0,0:0:0:0:
216,208,91126,1,0,0:0:0:0:
432,184,91315,1,0,0:0:0:0:
216,128,91504,1,0,0:0:0:0:
8,200,91693,1,0,0:0:0:0:
200,320,91883,1,0,0:0:0:0:
416,264,92072,1,0,0:0:0:0:
208,136,92261,5,0,0:0:0:0:
352,32,92450,1,0,0:0:0:0:
432,184,92639,2,0,B|440:128|496:120|488:48,2,150.000005722046
320,248,93207,1,0,0:0:0:0:
192,272,93396,2,0,B|136:288|96:280|96:280|64:280|40:296,2,150.000005722046
320,248,93963,1,0,0:0:0:0:
352,136,94152,5,0,0:0:0:0:
208,136,94342,1,0,0:0:0:0:
432,48,94531,1,0,0:0:0:0:
464,264,94720,5,0,0:0:0:0:
200,288,94909,1,0,0:0:0:0:
40,72,95098,1,0,0:0:0:0:
304,112,95287,1,0,0:0:0:0:
24,311,95666,6,0,B|65:288|65:288|103:257|103:257|151:229,1,150.000005722046
376,88,96044,2,0,P|424:96|472:200,2,150.000005722046
280,128,96611,1,0,0:0:0:0:
184,88,96801,1,0,0:0:0:0:
336,224,96990,1,0,0:0:0:0:
112,208,97179,1,0,0:0:0:0:
112,32,97368,5,0,0:0:0:0:
206,252,97557,1,0,0:0:0:0:
391,100,97746,1,0,0:0:0:0:
151,122,97936,1,0,0:0:0:0:
328,296,98125,1,0,0:0:0:0:
256,64,98314,1,0,0:0:0:0:
184,296,98503,1,0,0:0:0:0:
76,192,98692,2,0,B|127:217|127:217|153:192|127:140|127:140|102:89|127:38|127:38|179:115|255:38|255:38|332:115|384:38|384:38|409:89|384:140|384:140|358:192|384:217|384:217|435:192,1,800,0|4,0:0|0:0,0:0:0:0:
256,192,100395,12,0,101340,0:0:0:0:
296,343,101719,5,0,0:0:0:0:
215,40,101908,1,0,0:0:0:0:
177,327,102097,1,0,0:0:0:0:
334,56,102286,1,0,0:0:0:0:
104,232,102475,1,0,0:0:0:0:
407,151,102664,1,0,0:0:0:0:
120,113,102854,1,0,0:0:0:0:
391,270,103043,1,0,0:0:0:0:
286,305,103232,5,0,0:0:0:0:
225,78,103421,1,0,0:0:0:0:
197,293,103610,1,0,0:0:0:0:
314,90,103799,1,0,0:0:0:0:
142,222,103988,1,0,0:0:0:0:
369,161,104177,1,0,0:0:0:0:
154,133,104367,1,0,0:0:0:0:
357,250,104556,1,0,0:0:0:0:
302,366,104745,5,0,0:0:0:0:
209,17,104934,1,0,0:0:0:0:
165,348,105123,1,0,0:0:0:0:
346,35,105312,1,0,0:0:0:0:
81,238,105501,1,0,0:0:0:0:
430,145,105690,1,0,0:0:0:0:
99,101,105880,1,0,0:0:0:0:
412,282,106069,1,0,0:0:0:0:
344,42,106258,5,0,0:0:0:0:
450,223,106448,1,0,0:0:0:0:
240,224,106637,1,0,0:0:0:0:
365,43,106826,5,0,0:0:0:0:
437,240,107016,1,0,0:0:0:0:
230,204,107205,1,0,0:0:0:0:
385,49,107393,5,0,0:0:0:0:
423,255,107583,1,0,0:0:0:0:
225,184,107772,1,0,0:0:0:0:
336,176,107961,1,0,0:0:0:0:
208,320,108150,1,0,0:0:0:0:
128,152,108339,1,0,0:0:0:0:
168,56,108528,6,0,P|216:96|312:104,1,150.000005722046
304,312,108907,2,0,P|361:288|413:207,1,150.000005722046
408,88,109285,1,0,0:0:0:0:
456,336,109474,1,0,0:0:0:0:
192,216,109663,5,0,0:0:0:0:
104,64,109852,1,0,0:0:0:0:
272,152,110041,1,0,0:0:0:0:
104,256,110231,1,0,0:0:0:0:
104,64,110420,1,0,0:0:0:0:
240,64,110609,1,0,0:0:0:0:
360,120,110798,1,0,0:0:0:0:
368,224,110987,5,0,0:0:0:0:
160,208,111176,1,0,0:0:0:0:
264,160,111366,1,0,0:0:0:0:
144,320,111555,1,0,0:0:0:0:
48,256,111744,1,0,0:0:0:0:
256,280,111933,1,0,0:0:0:0:
144,64,112122,1,0,0:0:0:0:
144,320,112311,1,0,0:0:0:0:
256,176,112500,1,0,0:0:0:0:
40,184,112690,5,0,0:0:0:0:
392,160,112879,1,0,0:0:0:0:
224,312,113068,1,0,0:0:0:0:
256,40,113257,1,0,0:0:0:0:
224,328,113446,1,0,0:0:0:0:
424,160,113635,1,0,0:0:0:0:
120,176,113825,6,0,P|80:120|96:40,1,150.000005722046
232,88,114203,1,0,0:0:0:0:
352,168,114392,1,0,0:0:0:0:
264,272,114581,2,0,P|320:312|400:296,1,150.000005722046
448,80,114959,1,0,0:0:0:0:
72,280,115149,1,0,0:0:0:0:
112,160,115338,6,0,P|128:96|8:40,2,200.000007629395
400,224,116094,2,0,P|384:288|504:344,2,200.000007629395
256,184,116851,5,0,0:0:0:0:
144,88,119878,5,0,0:0:0:0:
144,88,120256,1,0,0:0:0:0:
328,72,120634,5,0,0:0:0:0:
328,72,121012,1,0,0:0:0:0:
120,280,121391,5,0,0:0:0:0:
120,280,121769,1,0,0:0:0:0:
456,176,122147,5,0,0:0:0:0:
456,176,122526,1,0,0:0:0:0:
256,80,122904,5,0,0:0:0:0:
208,216,123093,1,0,0:0:0:0:
352,64,123282,5,0,0:0:0:0:
352,64,123661,1,0,0:0:0:0:
288,320,124039,5,0,0:0:0:0:
288,320,124417,1,0,0:0:0:0:
80,120,124606,5,0,0:0:0:0:
248,200,124796,1,0,0:0:0:0:
144,272,125174,5,0,0:0:0:0:
144,272,125552,1,0,0:0:0:0:
416,48,125930,1,0,0:0:0:0:
392,272,126120,1,0,0:0:0:0:
323,166,126309,5,0,0:0:0:0:
440,72,126687,1,0,0:0:0:0:
440,72,127065,1,0,0:0:0:0:
208,72,127444,5,0,0:0:0:0:
464,224,127633,1,0,0:0:0:0:
280,232,127822,5,0,0:0:0:0:
280,232,128200,1,0,0:0:0:0:
48,208,128579,5,0,0:0:0:0:
48,208,128957,1,0,0:0:0:0:
96,128,130470,5,0,0:0:0:0:
128,168,131983,5,0,0:0:0:0:
136,256,133497,5,0,0:0:0:0:
176,264,134253,5,0,0:0:0:0:
352,184,134442,1,0,0:0:0:0:
80,96,134632,1,0,0:0:0:0:
424,40,134821,1,0,0:0:0:0:
400,312,135010,2,0,B|336:328|336:328|344:304|344:304|264:328,1,150.000005722046
104,256,135388,5,0,0:0:0:0:
440,192,135577,1,0,0:0:0:0:
96,144,135767,1,0,0:0:0:0:
400,272,135956,1,0,0:0:0:0:
272,144,136145,1,0,0:0:0:0:
328,320,136334,1,0,0:0:0:0:
272,144,136523,1,0,0:0:0:0:
248,352,136712,1,0,0:0:0:0:
208,64,136901,6,0,P|280:48|360:80,1,150.000005722046
336,224,137280,2,0,P|264:240|184:208,2,150.000005722046
496,120,137847,1,0,0:0:0:0:
272,128,138036,1,0,0:0:0:0:
424,272,138226,1,0,0:0:0:0:
464,56,138415,1,0,0:0:0:0:
416,312,138604,1,0,0:0:0:0:
112,240,138793,2,0,P|88:184|120:96,1,150.000005722046
368,56,139171,1,0,0:0:0:0:
288,272,139361,1,0,0:0:0:0:
184,40,139550,1,0,0:0:0:0:
424,168,139739,5,0,0:0:0:0:
144,320,139928,2,0,B|112:328|72:320|72:320|40:328|0:360,2,150.000005722046
432,336,140495,1,0,0:0:0:0:
336,48,140685,1,0,0:0:0:0:
192,256,140874,1,0,0:0:0:0:
472,40,141063,1,0,0:0:0:0:
376,176,141252,5,0,0:0:0:0:
320,312,141441,1,0,0:0:0:0:
224,192,141630,1,0,0:0:0:0:
288,56,141820,1,0,0:0:0:0:
376,176,142009,1,0,0:0:0:0:
224,192,142198,1,0,0:0:0:0:
320,312,142387,1,0,0:0:0:0:
464,224,142576,2,0,P|472:152|424:88,1,150.000005722046
160,280,142954,2,0,P|117:221|126:142,1,150.000005722046
336,80,143333,5,0,0:0:0:0:
224,192,143522,1,0,0:0:0:0:
400,192,143711,1,0,0:0:0:0:
288,304,143900,1,0,0:0:0:0:
208,336,144089,5,0,0:0:0:0:
432,112,144279,1,0,0:0:0:0:
144,248,144468,1,0,0:0:0:0:
368,24,144658,1,0,0:0:0:0:
144,328,144846,6,0,P|64:272|80:200,1,150.000005722046
184,24,145224,1,0,0:0:0:0:
464,192,145413,1,0,0:0:0:0:
356,104,145603,2,0,B|274:119|181:104|181:104|118:88|72:26|72:26|85:131|149:150|149:150|72:166|41:104|41:104|70:188|116:200|116:200|70:200|41:181|41:181|56:290|103:306|150:276|150:276|149:321|165:352|196:368|243:368|274:352|289:321|289:274|274:243|243:228|196:228,1,1303.99999900513
136,144,147494,5,0,0:0:0:0:
360,240,147683,1,0,0:0:0:0:
121,91,147872,1,0,0:0:0:0:
370,287,148061,1,0,0:0:0:0:
70,163,148251,5,0,0:0:0:0:
419,225,148440,1,0,0:0:0:0:
32,93,148629,1,0,0:0:0:0:
449,289,148818,1,0,0:0:0:0:
32,93,149007,2,0,B|104:64|104:64|120:88|152:72|152:72|176:88|232:48,1,200
448,288,149386,2,0,B|376:317|376:317|360:293|328:309|328:309|304:293|248:333,1,200
416,88,149764,1,0,0:0:0:0:
64,280,149953,1,0,0:0:0:0:
416,88,150142,1,0,0:0:0:0:
64,280,150331,1,0,0:0:0:0:
256,32,150521,5,0,0:0:0:0:
432,272,150710,1,0,0:0:0:0:
328,24,150899,1,0,0:0:0:0:
56,208,151088,1,0,0:0:0:0:
368,312,151277,1,0,0:0:0:0:
32,88,151466,1,0,0:0:0:0:
392,192,151656,6,0,B|344:168|344:112|344:112|328:96|296:88|296:88|296:64|280:24,2,200
456,112,152223,1,0,0:0:0:0:
128,208,152412,2,0,B|176:232|176:288|176:288|192:304|224:312|224:312|224:336|240:376,2,200
72,288,152980,1,0,0:0:0:0:
368,24,153169,1,0,0:0:0:0:
368,304,153358,1,0,0:0:0:0:
32,176,153547,2,0,P|96:112|200:152,1,200
480,208,153925,2,0,P|416:272|312:232,1,200
120,192,154304,1,0,0:0:0:0:
390,195,154493,1,0,0:0:0:0:
120,192,154682,1,0,0:0:0:0:
390,195,154871,1,0,0:0:0:0:
168,56,155060,5,0,0:0:0:0:
344,112,155250,1,0,0:0:0:0:
168,112,155439,5,0,0:0:0:0:
344,56,155628,1,0,0:0:0:0:
80,96,155817,5,0,0:0:0:0:
432,56,156006,1,0,0:0:0:0:
8,368,156195,5,0,0:0:0:0:
256,0,156448,1,0,0:0:0:0:
504,368,156700,1,0,0:0:0:0:
8,16,156952,1,0,0:0:0:0:
256,384,157205,1,0,0:0:0:0:
504,16,157457,1,0,0:0:0:0:
0,304,157709,5,0,0:0:0:0:
296,48,157961,1,0,0:0:0:0:
256,336,158213,1,0,0:0:0:0:
512,304,158465,1,0,0:0:0:0:
216,48,158717,1,0,0:0:0:0:
256,336,158969,1,0,0:0:0:0:
16,16,159222,5,0,0:0:0:0:
496,16,159474,1,0,0:0:0:0:
256,376,159726,1,0,0:0:0:0:
0,384,159978,5,0,0:0:0:0:
512,0,160231,1,0,0:0:0:0:
256,192,160483,1,0,0:0:0:0:
512,384,160735,1,0,0:0:0:0:
0,0,160988,1,0,0:0:0:0:
256,192,161240,1,0,0:0:0:0:
349,138,161492,5,0,0:0:0:0:
162,138,161618,1,0,0:0:0:0:
256,299,161744,1,0,0:0:0:0:
256,192,161996,5,0,0:0:0:0:
256,112,162248,6,0,B|280:88|232:96|232:96|296:64|296:64|224:80|224:80|288:48|288:48|224:64|224:64|256:32|256:32|208:48|208:48|232:24|232:24|200:48|200:48|208:24|208:24|184:48|184:48|184:16|184:16|176:40|176:40|168:16|168:16|168:48|168:48|152:32|152:32|160:56|160:56|144:48|144:48|160:72|160:72|144:64|144:64|160:80|160:80|144:72|144:72|160:88|160:88|144:88|144:88|160:96|160:96|152:104|152:104|168:104|168:104|160:112|160:112|176:112|176:112|168:120|168:120|184:120|184:120|176:128|176:128|184:128|184:128|176:136|176:136|184:136|184:136|176:144|176:144|184:144|184:144|176:152|176:152|180:156|180:156|176:160|176:160|180:168|180:168|176:172|176:172|180:172|180:172|176:176|176:176|180:180|180:180|176:184|176:184|180:192|180:192|176:200|176:200|180:212|180:212|176:236|180:264|308:288,1,1266.66666666667
352,232,167166,6,0,B|344:208|404:220|404:220|356:172|356:172|412:184|412:184|376:140|376:140|416:160|416:160|396:132|396:132|436:140|436:140|404:120|404:120|448:116|448:116|412:112|412:112|440:100|440:100|404:104|404:104|428:88|428:88|392:100|392:100|408:84|408:84|380:96|380:96|380:84|380:84|372:92|372:92|368:80,1,700
