osu file format v14

[General]
AudioFilename: Nightcore - Animal i Have Become.mp3
AudioLeadIn: 0
PreviewTime: 42702
Countdown: 1
SampleSet: None
StackLeniency: 0.7
Mode: 0
LetterboxInBreaks: 1
WidescreenStoryboard: 1

[Editor]
Bookmarks: 59159,82803
DistanceSpacing: 1.6
BeatDivisor: 4
GridSize: 8
TimelineZoom: 1

[Metadata]
Title:Animal I Have Become
TitleUnicode:Animal I Have Become
Artist:Three Days Grace
ArtistUnicode:Three Days Grace
Creator:LukerMaster
Version:Hard Jumps! CS8 AR10
Source:
Tags:jump training nightcore LKR
BeatmapID:959652
BeatmapSetID:168151

[Difficulty]
HPDrainRate:4
CircleSize:8
OverallDifficulty:6
ApproachRate:10
SliderMultiplier:2
SliderTickRate:1

[Events]
//Background and Video events
0,0,"bg-anih.jpg",0,0
//Break Periods
2,55008,57385
2,129157,133803
//Storyboard Layer 0 (Background)
//Storyboard Layer 1 (Fail)
//Storyboard Layer 2 (Pass)
//Storyboard Layer 3 (Foreground)
//Storyboard Sound Samples

[TimingPoints]
332,378.310214375788,4,1,0,70,1,0
12437,-66.6666666666667,4,1,0,70,0,0
130470,-66.6666666666667,4,1,0,5,0,0
134253,-66.6666666666667,4,1,0,75,0,0
145603,-50,4,1,0,75,0,0
162248,-200,4,1,0,30,0,0
169814,-200,4,1,0,5,0,0

[HitObjects]
88,164,332,5,0,0:0:0:0:
112,284,521,1,0,0:0:0:0:
232,168,899,1,0,0:0:0:0:
352,112,1088,1,0,0:0:0:0:
340,248,1277,1,0,0:0:0:0:
216,320,1466,2,0,L|144:236,1,100
416,56,1845,2,0,L|488:128,1,100
304,64,2223,1,0,0:0:0:0:
340,176,2412,5,0,0:0:0:0:
140,92,2601,1,0,0:0:0:0:
276,256,2791,1,0,0:0:0:0:
220,40,2980,1,0,0:0:0:0:
156,212,3169,1,0,0:0:0:0:
340,176,3358,1,0,0:0:0:0:
340,176,3547,1,0,0:0:0:0:
304,340,3925,5,0,0:0:0:0:
144,304,4115,1,0,0:0:0:0:
304,340,4304,1,0,0:0:0:0:
184,196,4493,1,0,0:0:0:0:
304,340,4682,1,0,0:0:0:0:
272,136,4871,1,0,0:0:0:0:
408,264,5060,1,0,0:0:0:0:
412,276,5439,5,0,0:0:0:0:
344,184,5628,1,0,0:0:0:0:
272,312,5817,1,0,0:0:0:0:
236,136,6006,1,0,0:0:0:0:
148,328,6195,1,0,0:0:0:0:
112,84,6384,5,0,0:0:0:0:
32,344,6574,1,0,0:0:0:0:
304,40,6952,5,0,0:0:0:0:
444,252,7141,1,0,0:0:0:0:
456,40,7330,1,0,0:0:0:0:
216,200,7519,1,0,0:0:0:0:
476,124,7709,1,0,0:0:0:0:
200,208,7898,1,0,0:0:0:0:
444,252,8087,1,0,0:0:0:0:
148,44,8465,5,0,0:0:0:0:
256,344,8654,1,0,0:0:0:0:
248,32,8843,1,0,0:0:0:0:
256,344,9033,1,0,0:0:0:0:
148,44,9222,1,0,0:0:0:0:
340,316,9411,1,0,0:0:0:0:
44,200,9600,1,0,0:0:0:0:
396,96,9978,5,0,0:0:0:0:
144,268,10168,2,0,L|52:328,1,100
396,96,10546,2,0,L|492:24,1,100
144,268,10924,1,0,0:0:0:0:
216,108,11113,1,0,0:0:0:0:
432,284,11492,5,0,0:0:0:0:
352,76,11681,1,0,0:0:0:0:
148,256,11870,5,0,0:0:0:0:
208,304,11965,1,0,0:0:0:0:
284,300,12059,1,0,0:0:0:0:
32,344,12248,5,0,0:0:0:0:
480,40,12437,1,0,0:0:0:0:
32,344,12627,1,0,0:0:0:0:
356,40,12816,5,0,0:0:0:0:
50,312,13005,1,0,0:0:0:0:
200,320,13194,2,0,L|40:312,1,150.000005722046
356,40,13572,1,0,0:0:0:0:
448,352,13762,1,0,0:0:0:0:
208,32,13951,1,0,0:0:0:0:
284,344,14140,1,0,0:0:0:0:
504,40,14329,5,0,0:0:0:0:
96,324,14518,1,0,0:0:0:0:
504,128,14707,1,0,0:0:0:0:
96,240,14896,1,0,0:0:0:0:
472,328,15086,5,0,0:0:0:0:
320,40,15275,1,0,0:0:0:0:
228,320,15464,1,0,0:0:0:0:
504,128,15653,1,0,0:0:0:0:
60,164,15842,1,0,0:0:0:0:
60,164,16031,1,0,0:0:0:0:
180,36,16221,5,0,0:0:0:0:
176,304,16410,1,0,0:0:0:0:
360,40,16599,1,0,0:0:0:0:
352,360,16788,1,0,0:0:0:0:
468,96,16977,1,0,0:0:0:0:
352,348,17166,1,0,0:0:0:0:
100,160,17355,1,0,0:0:0:0:
364,72,17545,1,0,0:0:0:0:
336,316,17734,1,0,0:0:0:0:
256,180,17923,1,0,0:0:0:0:
404,176,18112,5,0,0:0:0:0:
176,276,18301,1,0,0:0:0:0:
200,36,18490,1,0,0:0:0:0:
80,344,18680,1,0,0:0:0:0:
123,232,19058,5,0,0:0:0:0:
287,56,19247,1,0,0:0:0:0:
357,286,19436,1,0,0:0:0:0:
97,121,19814,1,0,0:0:0:0:
396,90,20004,1,0,0:0:0:0:
274,364,20193,1,0,0:0:0:0:
72,304,20571,5,0,0:0:0:0:
216,36,20760,1,0,0:0:0:0:
384,348,20949,1,0,0:0:0:0:
36,124,21139,1,0,0:0:0:0:
472,288,21328,1,0,0:0:0:0:
36,124,21517,1,0,0:0:0:0:
216,36,21706,1,0,0:0:0:0:
72,304,21895,1,0,0:0:0:0:
272,264,22084,5,0,0:0:0:0:
132,128,22273,1,0,0:0:0:0:
160,328,22463,1,0,0:0:0:0:
324,180,22652,1,0,0:0:0:0:
132,128,22841,1,0,0:0:0:0:
244,356,23030,1,0,0:0:0:0:
132,128,23219,1,0,0:0:0:0:
360,328,23408,1,0,0:0:0:0:
132,128,23598,1,0,0:0:0:0:
480,304,23787,5,0,0:0:0:0:
48,248,23976,1,0,0:0:0:0:
480,224,24165,1,0,0:0:0:0:
48,168,24354,1,0,0:0:0:0:
256,188,24543,1,0,0:0:0:0:
256,188,24733,5,0,0:0:0:0:
256,188,24922,1,0,0:0:0:0:
248,96,25111,1,0,0:0:0:0:
272,280,25300,1,0,0:0:0:0:
248,96,25489,1,0,0:0:0:0:
256,188,25678,5,0,0:0:0:0:
336,56,25867,1,0,0:0:0:0:
176,308,26057,1,0,0:0:0:0:
336,56,26246,1,0,0:0:0:0:
256,188,26435,1,0,0:0:0:0:
64,200,26624,5,0,0:0:0:0:
456,172,26813,1,0,0:0:0:0:
64,200,27002,1,0,0:0:0:0:
456,172,27192,2,0,B|412:168|400:128|352:136|352:136|324:96|356:48|356:48|312:72|264:72,1,300.000011444092
48,124,27759,1,0,0:0:0:0:
432,76,27948,1,0,0:0:0:0:
64,332,28137,5,0,0:0:0:0:
72,32,28326,1,0,0:0:0:0:
448,344,28516,1,0,0:0:0:0:
448,36,28705,1,0,0:0:0:0:
44,344,28894,5,0,0:0:0:0:
476,40,29083,1,0,0:0:0:0:
52,20,29272,1,0,0:0:0:0:
432,324,29461,1,0,0:0:0:0:
136,100,29651,1,0,0:0:0:0:
356,280,29840,1,0,0:0:0:0:
356,104,30029,1,0,0:0:0:0:
136,272,30218,1,0,0:0:0:0:
472,100,30596,5,0,0:0:0:0:
28,276,30785,1,0,0:0:0:0:
256,32,30975,1,0,0:0:0:0:
144,152,31164,5,0,0:0:0:0:
368,240,31353,1,0,0:0:0:0:
128,244,31542,1,0,0:0:0:0:
408,156,31731,1,0,0:0:0:0:
60,188,31920,1,0,0:0:0:0:
480,248,32110,5,0,0:0:0:0:
426,47,32299,1,0,0:0:0:0:
279,194,32488,1,0,0:0:0:0:
511,132,32677,1,0,0:0:0:0:
363,278,32866,1,0,0:0:0:0:
310,78,33055,1,0,0:0:0:0:
128,120,33244,5,0,0:0:0:0:
152,352,33434,1,0,0:0:0:0:
256,168,33623,1,0,0:0:0:0:
48,160,33812,1,0,0:0:0:0:
248,268,34001,1,0,0:0:0:0:
20,376,34190,1,0,0:0:0:0:
152,64,34379,5,0,0:0:0:0:
380,348,34569,1,0,0:0:0:0:
12,24,34758,1,0,0:0:0:0:
496,356,34947,1,0,0:0:0:0:
12,24,35136,1,0,0:0:0:0:
24,332,35325,1,0,0:0:0:0:
152,64,35514,1,0,0:0:0:0:
204,272,35704,1,0,0:0:0:0:
312,136,35893,5,0,0:0:0:0:
72,200,36082,1,0,0:0:0:0:
320,140,36271,1,0,0:0:0:0:
76,208,36460,1,0,0:0:0:0:
432,168,36649,1,0,0:0:0:0:
52,312,36838,5,0,0:0:0:0:
456,40,37028,1,0,0:0:0:0:
464,32,37217,1,0,0:0:0:0:
52,312,37406,5,0,0:0:0:0:
456,40,37596,1,0,0:0:0:0:
464,32,37785,1,0,0:0:0:0:
72,224,37973,1,0,0:0:0:0:
140,292,38163,1,0,0:0:0:0:
108,140,38352,1,0,0:0:0:0:
228,264,38541,1,0,0:0:0:0:
156,208,38730,1,0,0:0:0:0:
108,140,38919,1,0,0:0:0:0:
140,292,39108,1,0,0:0:0:0:
72,224,39297,1,0,0:0:0:0:
228,264,39487,1,0,0:0:0:0:
416,348,39676,5,0,0:0:0:0:
132,20,39865,1,0,0:0:0:0:
304,356,40054,1,0,0:0:0:0:
352,264,40243,1,0,0:0:0:0:
416,348,40432,1,0,0:0:0:0:
248,272,40622,1,0,0:0:0:0:
28,128,40811,5,0,0:0:0:0:
452,52,41000,1,0,0:0:0:0:
500,196,41189,1,0,0:0:0:0:
64,288,41378,1,0,0:0:0:0:
28,128,41567,5,0,0:0:0:0:
452,52,41756,1,0,0:0:0:0:
500,196,41945,1,0,0:0:0:0:
64,288,42134,1,0,0:0:0:0:
512,0,42324,5,0,0:0:0:0:
12,380,42513,1,0,0:0:0:0:
512,0,42702,5,0,0:0:0:0:
16,200,42891,1,0,0:0:0:0:
488,336,43081,1,0,0:0:0:0:
256,16,43270,1,0,0:0:0:0:
64,360,43459,1,0,0:0:0:0:
480,52,43648,1,0,0:0:0:0:
52,56,43837,1,0,0:0:0:0:
248,360,44026,1,0,0:0:0:0:
256,16,44215,5,0,0:0:0:0:
96,336,44405,1,0,0:0:0:0:
256,16,44594,1,0,0:0:0:0:
372,284,44783,1,0,0:0:0:0:
256,16,44972,1,0,0:0:0:0:
168,196,45161,1,0,0:0:0:0:
472,64,45350,1,0,0:0:0:0:
168,196,45540,1,0,0:0:0:0:
256,16,45729,1,0,0:0:0:0:
372,284,45918,1,0,0:0:0:0:
76,304,46107,5,0,0:0:0:0:
48,184,46296,1,0,0:0:0:0:
212,36,46485,5,0,0:0:0:0:
172,256,46675,1,0,0:0:0:0:
140,80,46864,5,0,0:0:0:0:
248,320,47053,1,0,0:0:0:0:
380,96,47242,5,0,0:0:0:0:
340,252,47431,1,0,0:0:0:0:
72,24,47620,5,0,0:0:0:0:
176,172,47809,1,0,0:0:0:0:
24,108,47999,1,0,0:0:0:0:
248,92,48188,1,0,0:0:0:0:
72,24,48377,1,0,0:0:0:0:
68,216,48566,1,0,0:0:0:0:
472,112,48755,1,0,0:0:0:0:
128,116,48944,1,0,0:0:0:0:
352,36,49134,1,0,0:0:0:0:
256,304,49323,5,0,0:0:0:0:
84,192,49512,1,0,0:0:0:0:
256,32,49701,1,0,0:0:0:0:
400,348,49890,1,0,0:0:0:0:
256,304,50079,1,0,0:0:0:0:
112,268,50268,1,0,0:0:0:0:
256,196,50458,1,0,0:0:0:0:
408,136,50647,1,0,0:0:0:0:
112,268,50836,1,0,0:0:0:0:
400,348,51025,1,0,0:0:0:0:
256,92,51214,5,0,0:0:0:0:
172,120,51403,1,0,0:0:0:0:
344,64,51593,1,0,0:0:0:0:
172,120,51782,1,0,0:0:0:0:
344,64,51971,1,0,0:0:0:0:
172,120,52160,1,0,0:0:0:0:
344,64,52349,1,0,0:0:0:0:
424,240,52538,5,0,0:0:0:0:
208,212,52727,1,0,0:0:0:0:
424,240,52917,1,0,0:0:0:0:
208,212,53106,1,0,0:0:0:0:
424,240,53295,1,0,0:0:0:0:
208,212,53484,1,0,0:0:0:0:
48,312,53673,5,0,0:0:0:0:
416,60,53862,1,0,0:0:0:0:
48,312,54052,1,0,0:0:0:0:
416,60,54241,1,0,0:0:0:0:
48,312,54430,1,0,0:0:0:0:
416,60,54619,1,0,0:0:0:0:
252,192,54808,5,4,0:0:0:0:
56,212,57835,5,0,0:0:0:0:
348,104,58024,1,0,0:0:0:0:
120,312,58213,1,0,0:0:0:0:
320,328,58402,5,0,0:0:0:0:
80,80,58591,1,0,0:0:0:0:
412,216,58780,1,0,0:0:0:0:
256,192,58970,5,0,0:0:0:0:
56,240,59159,5,0,0:0:0:0:
412,68,59348,1,0,0:0:0:0:
140,336,59537,1,0,0:0:0:0:
416,320,59726,5,0,0:0:0:0:
296,12,59915,5,0,0:0:0:0:
300,360,60105,1,0,0:0:0:0:
36,28,60294,1,0,0:0:0:0:
104,240,60483,5,0,0:0:0:0:
456,116,60672,1,0,0:0:0:0:
104,240,60861,1,0,0:0:0:0:
104,240,61050,1,0,0:0:0:0:
132,136,61239,5,0,0:0:0:0:
212,224,61429,1,0,0:0:0:0:
104,240,61618,1,0,0:0:0:0:
196,36,61807,1,0,0:0:0:0:
416,112,61996,1,0,0:0:0:0:
212,224,62185,1,0,0:0:0:0:
416,112,62374,1,0,0:0:0:0:
212,224,62564,1,0,0:0:0:0:
296,36,62753,5,0,0:0:0:0:
408,344,62942,1,0,0:0:0:0:
408,344,63131,1,0,0:0:0:0:
408,344,63320,1,0,0:0:0:0:
408,344,63509,2,0,B|320:312|340:236|340:236|320:136|208:140,1,300.000011444092
224,248,64077,5,0,0:0:0:0:
416,96,64266,1,0,0:0:0:0:
92,92,64455,1,0,0:0:0:0:
316,296,64644,1,0,0:0:0:0:
300,48,64833,1,0,0:0:0:0:
156,252,65023,1,0,0:0:0:0:
76,64,65212,1,0,0:0:0:0:
416,96,65401,1,0,0:0:0:0:
300,48,65590,1,0,0:0:0:0:
240,160,65779,1,0,0:0:0:0:
360,216,65968,1,0,0:0:0:0:
120,80,66157,5,0,0:0:0:0:
4,312,66347,1,0,0:0:0:0:
272,300,66536,1,0,0:0:0:0:
252,64,66725,1,0,0:0:0:0:
4,72,66914,1,0,0:0:0:0:
128,196,67103,1,0,0:0:0:0:
332,136,67292,5,0,0:0:0:0:
12,240,67482,1,0,0:0:0:0:
332,136,67671,1,0,0:0:0:0:
12,240,67860,1,0,0:0:0:0:
124,312,68049,1,0,0:0:0:0:
128,96,68238,1,0,0:0:0:0:
392,344,68427,1,0,0:0:0:0:
392,344,68616,1,0,0:0:0:0:
424,104,68806,5,0,0:0:0:0:
240,348,68995,1,0,0:0:0:0:
240,64,69184,1,0,0:0:0:0:
240,348,69373,1,0,0:0:0:0:
240,64,69562,1,0,0:0:0:0:
368,320,69751,1,0,0:0:0:0:
132,84,69941,1,0,0:0:0:0:
368,320,70130,1,0,0:0:0:0:
24,268,70319,5,0,0:0:0:0:
472,76,70508,1,0,0:0:0:0:
72,344,70697,1,0,0:0:0:0:
416,8,70886,1,0,0:0:0:0:
24,268,71076,1,0,0:0:0:0:
72,344,71265,1,0,0:0:0:0:
472,76,71454,1,0,0:0:0:0:
416,8,71643,1,0,0:0:0:0:
24,268,71832,1,0,0:0:0:0:
416,8,72021,1,0,0:0:0:0:
72,344,72210,1,0,0:0:0:0:
472,76,72400,1,0,0:0:0:0:
440,348,72589,5,0,0:0:0:0:
128,12,72778,1,0,0:0:0:0:
184,256,72967,1,0,0:0:0:0:
336,128,73156,1,0,0:0:0:0:
408,248,73345,5,0,0:0:0:0:
112,172,73535,1,0,0:0:0:0:
308,336,73724,1,0,0:0:0:0:
260,40,73913,1,0,0:0:0:0:
404,188,74102,1,0,0:0:0:0:
240,328,74291,1,0,0:0:0:0:
112,172,74480,1,0,0:0:0:0:
260,40,74669,1,0,0:0:0:0:
484,280,74859,5,0,0:0:0:0:
20,72,75048,1,0,0:0:0:0:
8,288,75237,1,0,0:0:0:0:
484,56,75426,1,0,0:0:0:0:
128,292,75615,1,0,0:0:0:0:
372,96,75804,1,0,0:0:0:0:
372,300,75994,1,0,0:0:0:0:
136,96,76183,1,0,0:0:0:0:
508,80,76372,5,0,0:0:0:0:
4,92,76561,1,0,0:0:0:0:
504,260,76750,1,0,0:0:0:0:
0,272,76939,1,0,0:0:0:0:
392,48,77128,1,0,0:0:0:0:
140,40,77318,1,0,0:0:0:0:
380,320,77507,1,0,0:0:0:0:
136,324,77696,1,0,0:0:0:0:
336,108,77885,1,0,0:0:0:0:
200,104,78074,1,0,0:0:0:0:
324,232,78263,1,0,0:0:0:0:
192,228,78453,1,0,0:0:0:0:
464,28,78642,5,0,0:0:0:0:
52,28,78831,1,0,0:0:0:0:
468,344,79020,1,0,0:0:0:0:
40,344,79209,1,0,0:0:0:0:
338,334,79398,5,0,0:0:0:0:
173,334,79587,1,0,0:0:0:0:
90,191,79777,1,0,0:0:0:0:
173,49,79966,1,0,0:0:0:0:
338,49,80155,1,0,0:0:0:0:
421,192,80344,1,0,0:0:0:0:
90,191,80533,5,0,0:0:0:0:
338,334,80722,1,0,0:0:0:0:
173,49,80912,1,0,0:0:0:0:
173,334,81101,1,0,0:0:0:0:
338,49,81290,1,0,0:0:0:0:
90,191,81479,1,0,0:0:0:0:
421,192,81668,1,0,0:0:0:0:
92,192,81857,1,0,0:0:0:0:
256,192,82047,5,0,0:0:0:0:
421,192,82236,5,0,0:0:0:0:
173,49,82425,1,0,0:0:0:0:
173,334,82614,1,0,0:0:0:0:
338,334,82803,1,0,0:0:0:0:
338,49,82992,1,0,0:0:0:0:
90,191,83181,1,0,0:0:0:0:
173,49,83371,5,0,0:0:0:0:
338,49,83560,1,0,0:0:0:0:
90,191,83749,1,0,0:0:0:0:
420,192,83938,1,0,0:0:0:0:
173,334,84127,1,0,0:0:0:0:
338,334,84316,1,0,0:0:0:0:
90,191,84506,5,0,0:0:0:0:
338,49,84695,1,0,0:0:0:0:
460,324,84884,1,0,0:0:0:0:
236,148,85073,1,0,0:0:0:0:
424,92,85262,1,0,0:0:0:0:
80,320,85451,1,0,0:0:0:0:
148,40,85640,1,0,0:0:0:0:
208,336,85830,1,0,0:0:0:0:
56,96,86019,1,0,0:0:0:0:
248,76,86208,1,0,0:0:0:0:
8,208,86397,1,0,0:0:0:0:
156,244,86586,6,0,P|232:228|272:160,2,150.000005722046
36,28,87154,1,0,0:0:0:0:
336,228,87343,2,0,P|360:154|321:85,2,150.000005722046
60,320,87910,1,0,0:0:0:0:
436,96,88099,1,0,0:0:0:0:
160,324,88289,1,0,0:0:0:0:
256,32,88478,5,0,0:0:0:0:
256,348,88667,1,0,0:0:0:0:
256,32,88856,1,0,0:0:0:0:
256,348,89045,1,0,0:0:0:0:
44,192,89234,1,0,0:0:0:0:
424,64,89424,1,0,0:0:0:0:
108,60,89613,1,0,0:0:0:0:
484,204,89802,1,0,0:0:0:0:
92,336,89991,1,0,0:0:0:0:
256,32,90180,1,0,0:0:0:0:
44,192,90369,1,0,0:0:0:0:
304,296,90558,1,0,0:0:0:0:
108,60,90748,1,0,0:0:0:0:
356,140,90937,1,0,0:0:0:0:
160,304,91126,1,0,0:0:0:0:
208,168,91315,5,0,0:0:0:0:
208,168,91504,1,0,0:0:0:0:
208,168,91693,1,0,0:0:0:0:
360,140,91883,1,0,0:0:0:0:
304,296,92072,1,0,0:0:0:0:
356,140,92261,1,0,0:0:0:0:
296,296,92450,1,0,0:0:0:0:
100,64,92639,5,0,0:0:0:0:
124,264,92828,1,0,0:0:0:0:
108,64,93018,1,0,0:0:0:0:
132,264,93207,1,0,0:0:0:0:
444,28,93396,5,0,0:0:0:0:
396,304,93585,1,0,0:0:0:0:
436,28,93774,1,0,0:0:0:0:
388,304,93963,1,0,0:0:0:0:
112,192,94152,5,0,0:0:0:0:
364,28,94342,1,0,0:0:0:0:
256,344,94531,1,0,0:0:0:0:
96,332,94720,5,0,0:0:0:0:
120,48,94909,1,0,0:0:0:0:
416,96,95098,1,0,0:0:0:0:
96,332,95287,1,0,0:0:0:0:
120,48,95477,1,0,0:0:0:0:
416,96,95666,1,0,0:0:0:0:
328,320,95855,5,0,0:0:0:0:
144,244,96044,1,0,0:0:0:0:
72,56,96233,1,0,0:0:0:0:
328,320,96422,1,0,0:0:0:0:
144,244,96611,1,0,0:0:0:0:
72,56,96801,1,0,0:0:0:0:
296,112,96990,5,0,0:0:0:0:
24,336,97179,1,0,0:0:0:0:
92,160,97368,5,0,0:0:0:0:
328,248,97557,5,0,0:0:0:0:
176,60,97746,5,0,0:0:0:0:
424,152,97936,5,0,0:0:0:0:
216,324,98125,5,0,0:0:0:0:
220,188,98314,1,0,0:0:0:0:
120,304,98503,1,0,0:0:0:0:
120,144,98692,1,0,0:0:0:0:
328,124,98881,1,0,0:0:0:0:
120,224,99070,1,0,0:0:0:0:
328,204,99260,1,0,0:0:0:0:
328,124,99449,1,0,0:0:0:0:
124,216,99638,1,0,0:0:0:0:
316,208,99827,5,0,0:0:0:0:
180,184,100016,5,0,0:0:0:0:
264,160,100205,5,0,0:0:0:0:
220,248,100395,5,0,0:0:0:0:
208,132,100584,5,0,0:0:0:0:
272,212,100773,5,0,0:0:0:0:
104,228,100962,5,0,0:0:0:0:
152,96,101151,5,0,0:0:0:0:
256,60,101340,5,0,0:0:0:0:
364,312,101719,1,0,0:0:0:0:
436,112,101908,1,0,0:0:0:0:
196,316,102097,1,0,0:0:0:0:
360,48,102286,1,0,0:0:0:0:
72,244,102475,1,0,0:0:0:0:
372,320,102664,1,0,0:0:0:0:
84,96,102854,1,0,0:0:0:0:
176,156,103043,5,0,0:0:0:0:
196,36,103232,1,0,0:0:0:0:
276,272,103421,1,0,0:0:0:0:
56,192,103610,1,0,0:0:0:0:
336,124,103799,1,0,0:0:0:0:
84,300,103988,1,0,0:0:0:0:
384,236,104178,1,0,0:0:0:0:
284,200,104367,5,0,0:0:0:0:
456,140,104556,1,0,0:0:0:0:
120,248,104745,1,0,0:0:0:0:
168,120,104934,5,0,0:0:0:0:
240,304,105123,5,0,0:0:0:0:
328,336,105313,1,0,0:0:0:0:
240,60,105502,5,0,0:0:0:0:
168,120,105692,1,0,0:0:0:0:
416,228,105880,5,0,0:0:0:0:
448,140,106070,1,0,0:0:0:0:
72,216,106258,5,0,0:0:0:0:
40,304,106448,1,0,0:0:0:0:
336,296,106637,5,0,0:0:0:0:
424,328,106827,1,0,0:0:0:0:
108,104,107015,5,0,0:0:0:0:
20,72,107205,1,0,0:0:0:0:
176,224,107393,5,0,0:0:0:0:
300,144,107582,1,0,0:0:0:0:
296,288,107772,1,0,0:0:0:0:
296,288,107961,5,0,0:0:0:0:
296,288,108150,1,0,0:0:0:0:
128,40,108339,1,0,0:0:0:0:
444,52,108528,1,0,0:0:0:0:
128,40,108717,1,0,0:0:0:0:
88,304,108907,5,0,0:0:0:0:
408,324,109096,1,0,0:0:0:0:
448,36,109285,1,0,0:0:0:0:
128,24,109474,1,0,0:0:0:0:
0,256,109663,5,0,0:0:0:0:
192,164,109852,1,0,0:0:0:0:
4,328,110041,1,0,0:0:0:0:
240,208,110231,1,0,0:0:0:0:
0,188,110420,1,0,0:0:0:0:
216,104,110609,1,0,0:0:0:0:
68,356,110798,1,0,0:0:0:0:
288,244,110987,1,0,0:0:0:0:
48,136,111176,1,0,0:0:0:0:
264,56,111366,1,0,0:0:0:0:
136,328,111555,1,0,0:0:0:0:
360,236,111744,1,0,0:0:0:0:
80,40,111933,5,0,0:0:0:0:
432,344,112122,1,0,0:0:0:0:
80,40,112311,1,0,0:0:0:0:
432,344,112500,1,0,0:0:0:0:
48,224,112690,5,0,0:0:0:0:
472,64,112879,1,0,0:0:0:0:
100,332,113068,1,0,0:0:0:0:
332,64,113257,1,0,0:0:0:0:
248,336,113446,1,0,0:0:0:0:
100,332,113635,1,0,0:0:0:0:
252,56,113825,1,0,0:0:0:0:
252,200,114014,1,0,0:0:0:0:
248,336,114203,1,0,0:0:0:0:
100,332,114392,1,0,0:0:0:0:
100,200,114581,1,0,0:0:0:0:
252,200,114770,1,0,0:0:0:0:
408,200,114959,1,0,0:0:0:0:
408,52,115149,1,0,0:0:0:0:
256,48,115338,1,0,0:0:0:0:
100,200,115590,5,0,0:0:0:0:
408,200,115842,1,0,0:0:0:0:
100,200,116094,1,0,0:0:0:0:
408,200,116347,1,0,0:0:0:0:
256,48,116599,5,0,0:0:0:0:
100,200,116851,1,0,0:0:0:0:
336,104,119878,1,0,0:0:0:0:
280,328,120067,1,0,0:0:0:0:
128,128,120256,1,0,0:0:0:0:
120,116,120634,5,0,0:0:0:0:
112,104,121012,1,0,0:0:0:0:
104,92,121391,5,0,0:0:0:0:
424,116,121580,1,0,0:0:0:0:
132,244,121769,1,0,0:0:0:0:
120,248,122147,5,0,0:0:0:0:
104,256,122526,1,0,0:0:0:0:
88,264,122904,5,0,0:0:0:0:
160,48,123093,1,0,0:0:0:0:
216,328,123282,1,0,0:0:0:0:
232,320,123661,5,0,0:0:0:0:
248,312,124039,1,0,0:0:0:0:
260,304,124417,5,0,0:0:0:0:
400,80,124606,1,0,0:0:0:0:
440,300,124796,1,0,0:0:0:0:
444,312,125174,5,0,0:0:0:0:
448,328,125552,1,0,0:0:0:0:
452,344,125930,5,0,0:0:0:0:
132,208,126120,1,0,0:0:0:0:
376,132,126309,1,0,0:0:0:0:
208,332,126687,5,0,0:0:0:0:
184,336,127065,1,0,0:0:0:0:
160,340,127444,5,0,0:0:0:0:
384,224,127633,1,0,0:0:0:0:
16,112,127822,1,0,0:0:0:0:
392,72,128200,5,0,0:0:0:0:
408,64,128579,1,0,0:0:0:0:
256,192,128957,5,4,0:0:0:0:
252,192,134253,5,0,0:0:0:0:
512,0,134442,1,0,0:0:0:0:
0,384,134632,1,0,0:0:0:0:
512,384,134821,1,0,0:0:0:0:
0,0,135010,1,0,0:0:0:0:
0,384,135199,5,0,0:0:0:0:
0,0,135388,1,0,0:0:0:0:
512,0,135577,1,0,0:0:0:0:
512,384,135767,1,0,0:0:0:0:
0,192,135956,5,0,0:0:0:0:
512,192,136145,1,0,0:0:0:0:
256,0,136334,1,0,0:0:0:0:
256,384,136523,1,0,0:0:0:0:
256,0,136712,5,0,0:0:0:0:
512,192,136901,1,0,0:0:0:0:
256,384,137091,1,0,0:0:0:0:
0,192,137280,1,0,0:0:0:0:
300,152,137469,5,0,0:0:0:0:
212,236,137658,1,0,0:0:0:0:
212,152,137847,1,0,0:0:0:0:
300,236,138036,1,0,0:0:0:0:
308,144,138226,5,0,0:0:0:0:
203,244,138415,1,0,0:0:0:0:
203,144,138604,1,0,0:0:0:0:
308,244,138793,1,0,0:0:0:0:
319,134,138982,5,0,0:0:0:0:
192,255,139171,1,0,0:0:0:0:
192,134,139360,1,0,0:0:0:0:
319,255,139549,1,0,0:0:0:0:
344,111,139739,5,0,0:0:0:0:
167,280,139928,1,0,0:0:0:0:
167,111,140117,1,0,0:0:0:0:
344,280,140306,1,0,0:0:0:0:
388,71,140495,5,0,0:0:0:0:
123,324,140684,1,0,0:0:0:0:
123,71,140873,1,0,0:0:0:0:
388,324,141062,1,0,0:0:0:0:
442,22,141252,5,0,0:0:0:0:
69,378,141441,1,0,0:0:0:0:
69,22,141630,1,0,0:0:0:0:
442,378,141819,1,0,0:0:0:0:
152,192,142009,5,0,0:0:0:0:
352,192,142198,1,0,0:0:0:0:
144,88,142387,1,0,0:0:0:0:
152,192,142576,1,0,0:0:0:0:
352,192,142765,1,0,0:0:0:0:
28,64,142954,1,0,0:0:0:0:
152,192,143144,1,0,0:0:0:0:
352,192,143333,1,0,0:0:0:0:
500,308,143522,1,0,0:0:0:0:
16,320,143711,1,0,0:0:0:0:
484,64,143900,1,0,0:0:0:0:
152,192,144089,1,0,0:0:0:0:
352,192,144279,1,0,0:0:0:0:
28,64,144468,5,0,0:0:0:0:
16,320,144657,1,0,0:0:0:0:
500,308,144846,1,0,0:0:0:0:
484,64,145035,1,0,0:0:0:0:
264,336,145224,1,0,0:0:0:0:
244,76,145413,1,0,0:0:0:0:
360,348,145603,1,0,0:0:0:0:
152,48,145792,1,0,0:0:0:0:
264,336,145981,5,0,0:0:0:0:
360,348,146170,1,0,0:0:0:0:
244,76,146359,1,0,0:0:0:0:
152,48,146548,1,0,0:0:0:0:
256,192,146738,5,0,0:0:0:0:
152,192,146927,1,0,0:0:0:0:
360,192,147116,1,0,0:0:0:0:
152,192,147494,5,0,0:0:0:0:
360,192,147683,1,0,0:0:0:0:
68,192,147872,1,0,0:0:0:0:
444,188,148062,1,0,0:0:0:0:
152,192,148251,1,0,0:0:0:0:
360,192,148440,1,0,0:0:0:0:
256,192,148629,1,0,0:0:0:0:
256,192,148818,1,0,0:0:0:0:
252,68,149007,5,0,0:0:0:0:
84,112,149197,1,0,0:0:0:0:
256,360,149386,1,0,0:0:0:0:
432,120,149575,1,0,0:0:0:0:
368,56,149764,1,0,0:0:0:0:
492,356,149953,1,0,0:0:0:0:
152,52,150142,1,0,0:0:0:0:
24,356,150331,1,0,0:0:0:0:
92,292,150521,1,0,0:0:0:0:
176,312,150710,1,0,0:0:0:0:
256,360,150899,1,0,0:0:0:0:
256,268,151088,1,0,0:0:0:0:
256,180,151277,1,0,0:0:0:0:
92,280,151466,5,0,0:0:0:0:
424,176,151656,1,0,0:0:0:0:
72,108,151845,1,0,0:0:0:0:
448,304,152034,1,0,0:0:0:0:
168,60,152223,5,0,0:0:0:0:
72,108,152412,1,0,0:0:0:0:
272,116,152601,1,0,0:0:0:0:
180,184,152791,1,0,0:0:0:0:
384,144,152980,1,0,0:0:0:0:
332,256,153169,1,0,0:0:0:0:
212,292,153358,1,0,0:0:0:0:
20,236,153547,5,0,0:0:0:0:
456,36,153736,1,0,0:0:0:0:
60,332,153925,1,0,0:0:0:0:
512,128,154115,1,0,0:0:0:0:
44,52,154304,1,0,0:0:0:0:
440,340,154493,1,0,0:0:0:0:
24,128,154682,1,0,0:0:0:0:
456,264,154871,1,0,0:0:0:0:
172,316,155060,5,0,0:0:0:0:
256,64,155250,1,0,0:0:0:0:
336,316,155439,1,0,0:0:0:0:
84,296,155628,1,0,0:0:0:0:
424,296,155817,1,0,0:0:0:0:
36,228,156006,1,0,0:0:0:0:
464,224,156195,1,0,0:0:0:0:
256,128,156448,1,0,0:0:0:0:
0,384,156700,5,0,0:0:0:0:
512,0,156952,1,0,0:0:0:0:
0,0,157204,1,0,0:0:0:0:
512,384,157456,1,0,0:0:0:0:
256,0,157709,1,0,0:0:0:0:
0,384,157961,1,0,0:0:0:0:
0,0,158213,1,0,0:0:0:0:
256,384,158465,1,0,0:0:0:0:
512,0,158717,1,0,0:0:0:0:
256,196,158970,1,0,0:0:0:0:
256,196,159222,5,0,0:0:0:0:
0,0,159474,1,0,0:0:0:0:
256,196,159726,1,0,0:0:0:0:
0,384,159978,1,0,0:0:0:0:
256,196,160231,1,0,0:0:0:0:
512,384,160483,1,0,0:0:0:0:
0,0,160735,1,0,0:0:0:0:
512,0,160987,1,0,0:0:0:0:
256,196,161239,1,0,0:0:0:0:
120,76,161492,1,0,0:0:0:0:
392,76,161744,1,0,0:0:0:0:
256,344,161996,1,0,0:0:0:0:
256,196,162248,6,0,B|268:172|268:172|256:172|256:172|272:160|272:160|260:160|260:160|276:144|276:144|264:144|264:144|280:132|280:132|272:132|272:132|280:124|280:124|272:124|272:124|284:112|284:112|276:112|276:112|284:104|284:104|276:104|276:104|288:96|288:96|276:96|276:96|288:84|288:84|268:84|268:84|284:64|284:64|256:80|256:80|264:52|264:52|240:80|240:80|240:40|240:40|224:84|224:84|216:36|216:36|208:88|208:88|192:32|192:32|188:96|188:96|152:28|152:28|148:92|136:144|136:144|120:80|104:24|104:24|96:96|84:160|84:160|60:152|60:152|88:256,1,1266.66666666667,0|0,0:0|0:0,0:0:0:0:
256,192,167166,12,0,169814,0:0:0:0:
