osu file format v14

[General]
AudioFilename: audio.mp3
AudioLeadIn: 0
PreviewTime:150816
Countdown: 0
SampleSet: Soft
StackLeniency: 0.7
Mode: 0
LetterboxInBreaks: 0
WidescreenStoryboard: 1

[Editor]
Bookmarks: 25341
DistanceSpacing: 1.5
BeatDivisor: 3
GridSize: 4
TimelineZoom: 2.4

[Metadata]
Title:Kuuchuu Bunkai long
TitleUnicode:空中分解 long
Artist:Three
ArtistUnicode:すりぃ
Creator:Nevo
Version:Hard
Source:
Tags:Collage 鏡音レン Kagamine Len vocaloid version AERIAL BREAKUP japanese novelty
BeatmapID:2314524
BeatmapSetID:1101542

[Difficulty]
HPDrainRate:5
CircleSize:3.8
OverallDifficulty:7
ApproachRate:8
SliderMultiplier:1.2
SliderTickRate:1

[Events]
//Background and Video events
0,0,"id_64870028.jpg",0,0
//Break Periods
2,48533,49233
2,97733,98433
2,168533,169233
//Storyboard Layer 0 (Background)
//Storyboard Layer 1 (Fail)
//Storyboard Layer 2 (Pass)
//Storyboard Layer 3 (Foreground)
//Storyboard Layer 4 (Overlay)
//Storyboard Sound Samples

[TimingPoints]
-3267,300,4,2,1,40,1,0
333,-100,4,2,1,40,0,0
1233,-100,4,2,1,60,0,0
1533,-100,4,2,1,70,0,0
11133,-100,4,2,1,70,0,0
13533,-100,4,2,1,50,0,0
15483,-100,4,2,1,60,0,0
15933,-100,4,2,1,60,0,0
30333,-100,4,2,1,40,0,0
30933,-100,4,2,1,80,0,0
31158,-100,4,2,1,80,0,0
31383,-100,4,2,1,80,0,0
31533,-100,4,2,1,80,0,1
48333,-100,4,2,1,60,0,0
50733,-100,4,2,1,70,0,0
55983,-100,4,2,1,70,0,0
56133,-100,4,2,1,70,0,0
62733,-100,4,2,1,60,0,0
80733,-100,4,2,1,80,0,1
97983,-100,4,2,1,50,0,0
99933,-100,4,2,1,50,0,0
119133,-100,4,2,1,70,0,0
128133,-100,4,2,1,70,0,0
128733,-100,4,2,1,60,0,0
150933,-100,4,2,1,80,0,0
151158,-100,4,2,1,70,0,0
151383,-100,4,2,1,80,0,0
151533,-100,4,2,1,80,0,1
168333,-100,4,2,1,50,0,0
170733,-100,4,2,1,70,0,0

[Colours]
Combo1 : 128,128,255
Combo2 : 192,192,192
Combo3 : 0,128,192

[HitObjects]
226,78,333,6,0,P|174:78|136:97,2,90,2|2|2,0:2|0:2|0:2,0:2:0:0:
309,111,933,2,0,P|354:117|381:107,1,60,2|0,0:2|0:2,0:2:0:0:
452,83,1233,2,0,L|448:158,1,60,2|0,0:2|0:0,0:2:0:0:
402,220,1533,6,0,P|376:209|342:207,1,60,6|0,3:2|0:2,0:2:0:0:
287,276,1833,2,0,P|261:265|227:263,1,60,8|0,0:2|0:2,0:2:0:0:
155,314,2133,2,0,P|105:306|76:229,1,120,0|8,3:2|0:2,0:0:0:0:
93,160,2583,1,2,0:2:0:0:
182,150,2733,6,0,L|241:141,1,60,0|0,3:2|3:2,0:0:0:0:
296,70,3033,2,0,L|355:61,1,60,8|0,0:2|0:2,0:2:0:0:
439,95,3333,2,0,P|458:134|459:158,1,60,0|0,3:2|3:2,0:2:0:0:
444,238,3633,2,0,L|451:287,2,30,8|0|0,0:2|3:2|3:2,0:0:0:0:
373,299,3933,6,0,L|361:366,1,60,6|0,3:2|0:2,0:2:0:0:
282,326,4233,1,8,0:2:0:0:
282,326,4383,1,0,0:2:0:0:
206,276,4533,2,0,P|178:277|146:288,1,60,0|0,3:2|3:2,0:0:0:0:
67,328,4833,2,0,L|55:261,1,60,8|0,0:2|0:2,0:0:0:0:
7,192,5133,6,0,P|7:151|70:91,1,120,2|8,3:2|0:2,0:2:0:0:
146,112,5583,1,0,0:2:0:0:
146,112,5733,2,0,L|216:118,1,60,0|0,3:2|3:2,0:0:0:0:
283,185,6033,1,8,0:0:0:0:
193,205,6183,1,0,0:0:0:0:
164,288,6333,6,0,P|154:337|163:357,1,60,6|0,3:2|0:2,0:2:0:0:
240,377,6633,2,0,L|315:367,1,60,8|0,0:2|0:2,0:0:0:0:
387,338,6933,1,0,3:2:0:0:
387,338,7083,1,0,3:2:0:0:
453,277,7233,2,0,P|460:233|454:208,1,60,8|2,0:2|0:2,0:0:0:0:
448,128,7533,6,0,L|362:116,1,60,2|0,3:2|0:2,0:2:0:0:
328,52,7833,2,0,L|259:63,1,60,8|0,0:2|0:2,0:2:0:0:
210,130,8133,2,0,L|124:118,1,60,0|0,3:2|3:2,0:0:0:0:
81,63,8433,1,8,0:2:0:0:
81,63,8583,1,0,3:2:0:0:
38,142,8733,6,0,P|28:216|42:277,1,120,6|8,3:2|0:2,0:2:0:0:
118,308,9183,1,0,0:2:0:0:
118,308,9333,2,0,P|163:290|192:294,1,60,0|0,3:2|3:2,0:0:0:0:
260,316,9633,2,0,P|298:313|331:296,1,60,8|0,0:2|0:2,0:0:0:0:
393,255,9933,5,6,3:2:0:0:
421,172,10083,1,0,3:0:0:0:
343,122,10233,2,0,L|338:62,1,60,14|0,0:2|3:2,0:0:0:0:
273,14,10533,1,8,0:2:0:0:
273,14,10608,1,0,3:2:0:0:
273,14,10683,1,0,3:2:0:0:
215,83,10833,6,0,L|174:75,4,30,8|8|8|8|2,0:2|0:2|0:2|0:2|3:2,0:0:0:0:
342,210,11433,1,8,0:2:0:0:
131,303,12033,1,8,0:2:0:0:
398,331,12633,1,8,0:2:0:0:
193,220,13233,1,8,0:2:0:0:
362,159,13533,6,0,L|349:220,1,60,2|0,3:2|0:2,0:2:0:0:
271,161,13833,2,0,L|282:96,1,60,8|0,0:2|0:2,0:2:0:0:
214,35,14133,2,0,P|165:33|98:69,1,120,0|8,0:2|0:2,0:2:0:0:
47,235,14733,6,0,L|56:294,2,60,2|0|8,0:2|0:2|0:2,0:2:0:0:
138,279,15183,2,0,L|129:340,1,60,2|0,0:2|3:2,0:2:0:0:
218,370,15483,1,0,3:2:0:0:
218,370,15633,2,0,P|270:354|301:356,1,60,8|0,0:2|3:2,0:0:0:0:
362,376,15933,6,0,B|380:302|380:302|363:251,1,120,6|8,3:2|0:2,0:2:0:0:
251,121,16533,1,0,3:2:0:0:
255,125,16683,2,0,L|242:201,1,60,2|8,3:2|0:2,0:2:0:0:
228,272,16983,1,0,0:2:0:0:
143,303,17133,6,0,L|66:328,2,60,0|0|8,0:2|0:2|0:2,0:0:0:0:
228,272,17583,2,0,P|286:259|362:283,1,120,2|0,0:2|3:2,0:2:0:0:
423,315,18033,2,0,P|433:279|426:242,1,60,8|0,0:2|0:2,0:0:0:0:
370,189,18333,6,0,L|368:117,1,60,2|0,3:2|0:0,0:2:0:0:
285,94,18633,2,0,L|283:166,1,60,2|0,0:2|0:2,0:2:0:0:
220,217,18933,2,0,P|172:201|154:201,2,60,0|0|8,3:2|0:2|0:2,0:0:0:0:
289,273,19383,1,0,0:2:0:0:
344,343,19533,6,0,L|426:335,2,60,0|0|8,3:2|0:2|0:2,0:0:0:0:
258,371,19983,2,0,L|180:359,1,60,2|0,0:2|3:2,0:0:0:0:
108,373,20283,1,0,3:0:0:0:
108,373,20433,2,0,P|109:343|121:316,1,60,8|8,0:2|0:2,0:0:0:0:
181,248,20733,6,0,P|187:214|161:112,1,120,6|8,3:2|0:2,0:2:0:0:
94,84,21183,1,0,3:2:0:0:
94,84,21333,1,0,3:2:0:0:
172,39,21483,2,0,P|242:18|304:40,1,120,2|0,3:2|0:2,0:2:0:0:
365,73,21933,6,0,L|438:64,2,60,2|0|8,3:2|3:2|0:2,0:0:0:0:
295,131,22383,2,0,P|288:182|298:263,1,120,10|0,0:2|3:2,0:2:0:0:
351,319,22833,2,0,L|432:303,1,60,8|0,0:2|0:2,0:0:0:0:
495,277,23133,6,0,P|501:241|488:201,1,60,2|0,3:2|0:2,0:2:0:0:
415,179,23433,2,0,P|409:143|422:103,1,60,8|0,0:2|0:2,0:2:0:0:
453,38,23733,2,0,L|512:31,2,60,0|0|8,3:2|3:2|0:2,0:2:0:0:
360,52,24183,1,0,3:2:0:0:
364,56,24333,6,0,L|277:50,1,60,2|2,3:2|3:2,0:0:0:0:
217,27,24633,1,8,0:2:0:0:
237,114,24783,2,0,P|248:151|244:193,1,60,2|0,3:2|0:0,0:2:0:0:
194,244,25083,2,0,L|199:318,2,60,2|10|2,3:2|0:2|3:2,0:2:0:0:
115,200,25533,6,0,L|103:319,1,120,6|8,3:2|0:2,0:2:0:0:
168,381,25983,1,0,0:2:0:0:
245,335,26133,1,0,3:2:0:0:
331,361,26283,2,0,P|403:376|454:344,1,120,0|0,3:2|0:2,0:2:0:0:
484,276,26733,6,0,L|493:203,2,60,2|0|8,3:2|0:2|0:2,0:0:0:0:
393,278,27183,2,0,B|343:266|343:266|323:275|323:275|269:263,1,120,8|0,0:2|3:2,0:2:0:0:
205,209,27633,2,0,P|202:171|211:134,1,60,8|0,0:2|0:2,0:0:0:0:
273,89,27933,6,0,L|346:79,1,60,2|0,3:2|0:2,0:2:0:0:
405,28,28233,2,0,L|464:36,1,60,8|0,0:2|0:2,0:2:0:0:
504,116,28533,1,0,3:2:0:0:
504,116,28683,1,0,3:2:0:0:
426,168,28833,1,8,0:0:0:0:
480,243,28983,1,0,0:0:0:0:
425,316,29133,6,0,L|441:379,2,60,2|0|8,3:2|3:2|0:2,0:0:0:0:
355,270,29583,2,0,P|326:270|286:284,1,60,8|0,0:2|3:2,0:2:0:0:
238,346,29883,1,0,3:2:0:0:
238,346,30033,2,0,P|211:309|209:281,1,60,8|8,0:2|0:2,0:0:0:0:
231,216,30333,6,0,P|172:187|72:232,1,180,2|0,0:2|0:2,0:2:0:0:
41,313,30933,6,0,L|20:219,2,90,10|10|10,0:2|0:2|0:2,0:2:0:0:
122,367,31533,6,0,L|207:358,1,60,6|0,3:2|0:0,0:2:0:0:
233,287,31833,2,0,L|318:296,1,60,10|0,0:2|0:0,0:2:0:0:
373,332,32133,2,0,P|408:326|431:312,1,60,0|0,3:0|3:0,0:0:0:0:
472,236,32433,1,8,0:0:0:0:
472,236,32583,1,0,0:0:0:0:
442,150,32733,6,0,P|395:131|305:151,1,120,2|8,3:2|0:2,0:0:0:0:
249,185,33183,2,0,P|202:204|112:184,1,120,2|0,3:2|3:2,0:2:0:0:
58,158,33633,2,0,L|52:94,1,60,8|0,0:2|0:2,0:0:0:0:
106,26,33933,6,0,P|138:17|188:24,1,60,2|0,3:2|0:2,0:2:0:0:
248,60,34233,1,0,3:0:0:0:
248,60,34383,1,0,0:0:0:0:
340,47,34533,2,0,L|389:-3,2,60,2|0|8,3:2|3:2|0:2,0:0:0:0:
352,137,34983,6,0,P|343:192|391:266,1,120,2|0,3:2|0:2,0:2:0:0:
409,334,35433,1,8,0:2:0:0:
409,334,35583,2,0,L|348:328,1,60,0|0,3:2|0:2,0:0:0:0:
263,301,35883,2,0,L|199:308,2,60,2|10|2,3:2|0:2|3:2,0:0:0:0:
317,229,36333,6,0,P|326:177|319:145,1,60,6|0,3:2|0:0,0:2:0:0:
328,80,36633,2,0,P|278:98|254:120,1,60,10|0,0:2|0:0,0:2:0:0:
194,147,36933,2,0,P|234:180|265:190,1,60,2|0,3:2|3:2,0:0:0:0:
334,180,37233,1,8,0:0:0:0:
334,180,37383,1,0,0:0:0:0:
405,234,37533,6,0,L|417:312,2,60,0|0|8,3:2|0:2|0:2,0:0:0:0:
472,174,37983,2,0,P|470:124|406:69,1,120,2|0,0:2|3:2,0:2:0:0:
333,82,38433,2,0,L|263:76,1,60,8|0,0:2|3:2,0:0:0:0:
192,118,38733,6,0,L|122:125,2,60,14|2|2,0:2|3:2|0:2,0:0:0:0:
270,162,39183,2,0,P|296:210|293:283,1,120,14|14,0:2|0:2,0:0:0:0:
136,336,39783,2,0,P|134:276|161:223,1,120,14|2,0:2|3:2,0:0:0:0:
243,262,40233,1,8,0:2:0:0:
311,335,40383,1,8,0:2:0:0:
311,335,40458,1,8,0:2:0:0:
311,335,40533,2,0,L|319:383,2,30,8|8|8,0:2|0:2|0:2,0:0:0:0:
386,285,40833,2,0,L|394:333,2,30,10|10|10,0:2|0:2|0:2,0:0:0:0:
435,210,41133,6,0,L|446:137,1,60,6|0,3:2|0:0,0:2:0:0:
354,163,41433,2,0,L|365:90,1,60,10|0,0:2|0:0,0:2:0:0:
290,24,41733,1,0,3:0:0:0:
290,24,41883,1,0,3:0:0:0:
188,32,42033,1,8,0:0:0:0:
188,32,42183,1,0,0:0:0:0:
113,95,42333,6,0,L|99:172,2,60,2|0|8,3:2|3:2|0:2,0:0:0:0:
191,140,42783,2,0,P|228:151|297:112,1,120,2|0,3:2|3:2,0:2:0:0:
378,65,43233,1,8,0:0:0:0:
378,65,43383,1,0,0:0:0:0:
471,81,43533,6,0,L|454:211,1,120,6|8,3:2|0:2,0:2:0:0:
387,265,43983,1,0,0:2:0:0:
387,265,44133,2,0,L|392:340,2,60,2|0|8,3:2|3:2|0:2,0:0:0:0:
310,216,44583,6,0,P|249:203|191:222,1,120,2|0,3:2|0:2,0:2:0:0:
119,268,45033,2,0,L|107:191,1,60,8|0,0:2|3:2,0:0:0:0:
44,146,45333,2,0,L|56:69,1,60,0|2,0:2|3:2,0:0:0:0:
142,120,45633,1,10,0:2:0:0:
142,120,45783,1,0,0:0:0:0:
199,189,45933,6,0,L|267:196,1,60,6|0,3:2|0:0,0:2:0:0:
283,281,46233,2,0,L|351:288,1,60,10|0,0:2|0:0,0:2:0:0:
390,211,46533,2,0,L|458:218,1,60,2|0,3:2|3:2,0:0:0:0:
502,289,46833,2,0,P|500:323|491:349,1,60,8|0,0:2|0:2,0:0:0:0:
401,355,47133,6,0,L|392:286,2,60,0|0|8,3:2|0:2|0:2,0:0:0:0:
313,373,47583,2,0,P|263:356|191:353,1,120,2|0,0:2|3:2,0:2:0:0:
110,380,48033,2,0,L|101:312,1,60,8|0,0:2|3:2,0:0:0:0:
85,232,48333,5,14,0:2:0:0:
200,117,49983,5,8,3:0:0:0:
200,117,50058,1,8,3:0:0:0:
200,117,50133,2,0,L|197:158,4,30,8|8|8|0|10,0:2|0:2|0:2|0:0|0:2,0:0:0:0:
49,215,50733,6,0,P|75:226|109:228,1,60,6|0,3:2|0:2,0:2:0:0:
191,196,51033,2,0,P|217:185|251:183,1,60,8|0,0:2|0:2,0:2:0:0:
331,219,51333,2,0,P|381:211|410:134,1,120,0|8,3:2|0:2,0:0:0:0:
365,77,51783,1,2,0:2:0:0:
281,42,51933,6,0,L|222:51,1,60,0|0,3:2|3:2,0:0:0:0:
209,140,52233,2,0,L|150:149,1,60,8|0,0:2|0:2,0:2:0:0:
65,157,52533,2,0,P|70:187|86:213,1,60,0|0,3:2|3:2,0:2:0:0:
153,272,52833,2,0,L|148:301,2,30,8|0|0,0:2|3:2|3:2,0:0:0:0:
225,325,53133,6,0,L|304:309,1,60,6|0,3:2|0:2,0:2:0:0:
293,222,53433,2,0,L|372:238,1,60,8|0,0:2|0:2,0:0:0:0:
428,282,53733,2,0,P|440:254|440:215,1,60,0|0,3:2|3:2,0:0:0:0:
407,146,54033,1,8,0:2:0:0:
407,146,54183,1,0,0:2:0:0:
452,68,54333,6,0,P|413:87|326:69,1,120,2|8,3:2|0:2,0:2:0:0:
228,36,54783,1,0,0:2:0:0:
228,36,54933,2,0,L|238:117,1,60,0|0,3:2|3:2,0:0:0:0:
297,160,55233,2,0,L|287:241,1,60,8|0,0:2|0:2,0:0:0:0:
216,271,55533,6,0,P|181:278|147:270,1,60,6|0,3:2|0:2,0:2:0:0:
76,233,55833,1,8,0:0:0:0:
69,143,55983,1,0,0:0:0:0:
161,97,56133,2,0,L|220:104,1,60,0|0,3:2|3:2,0:0:0:0:
289,46,56433,2,0,L|348:38,1,60,8|2,0:2|0:2,0:0:0:0:
438,29,56733,6,0,L|421:175,1,120,2|8,3:2|0:2,0:2:0:0:
387,232,57183,1,2,0:2:0:0:
387,232,57333,2,0,L|399:320,1,60,0|0,3:2|3:2,0:0:0:0:
485,289,57633,2,0,L|496:216,1,60,8|2,0:2|3:2,0:2:0:0:
463,144,57933,6,0,P|413:125|338:128,1,120,6|8,3:2|0:2,0:2:0:0:
276,182,58383,1,0,0:2:0:0:
276,182,58533,2,0,P|231:200|202:196,1,60,0|0,3:2|3:2,0:0:0:0:
149,142,58833,2,0,P|111:145|78:162,1,60,8|0,0:2|0:2,0:0:0:0:
32,222,59133,6,0,L|26:302,1,60,14|2,0:2|3:2,0:0:0:0:
117,277,59433,2,0,L|122:337,1,60,14|2,0:2|3:2,0:0:0:0:
203,382,59733,1,0,3:0:0:0:
282,369,59883,1,0,3:0:0:0:
347,310,60033,2,0,L|388:318,2,30,8|8|8,0:2|0:2|0:2,0:0:0:0:
266,244,60333,6,0,B|260:215|260:215|267:164|267:164|255:118,1,120,2|8,3:2|0:2,0:0:0:0:
205,52,60783,1,0,0:0:0:0:
205,52,60933,1,0,3:0:0:0:
132,105,61083,2,0,P|114:157|120:176,1,60,0|8,3:0|0:0,0:0:0:0:
141,245,61383,1,0,0:0:0:0:
199,313,61533,6,0,L|189:384,2,60,2|0|8,3:2|3:0|0:2,0:0:0:0:
237,225,61983,2,0,P|310:216|366:245,1,120,2|2,3:2|0:0,0:0:0:0:
429,279,62433,2,0,L|438:214,1,60,10|2,0:2|0:0,0:0:0:0:
433,129,62733,6,0,P|386:88|317:87,1,120,2|8,3:2|0:2,0:2:0:0:
179,195,63333,1,0,3:0:0:0:
179,195,63483,1,0,3:0:0:0:
125,109,63633,1,8,0:0:0:0:
125,109,63783,1,0,0:0:0:0:
222,72,63933,6,0,P|227:41|237:10,2,60,2|0|8,0:2|3:2|0:2,0:2:0:0:
264,151,64383,2,0,P|297:167|389:153,1,120,2|0,0:2|3:2,0:2:0:0:
443,98,64833,2,0,P|466:142|467:171,1,60,8|0,0:2|3:2,0:0:0:0:
457,241,65133,6,0,B|442:268|442:268|345:261,1,120,6|8,3:2|0:2,0:2:0:0:
280,316,65583,1,0,0:0:0:0:
280,316,65733,1,0,3:0:0:0:
190,324,65883,2,0,L|115:335,1,60,0|8,3:2|3:2,0:0:0:0:
55,292,66183,1,0,0:2:0:0:
54,291,66333,6,0,P|48:236|51:211,1,60,0|0,0:2|0:2,0:0:0:0:
73,149,66633,1,8,0:2:0:0:
73,149,66783,2,0,P|124:178|199:168,1,120,2|0,0:2|3:2,0:2:0:0:
250,114,67233,2,0,L|314:122,1,60,8|0,0:2|0:2,0:0:0:0:
374,184,67533,6,0,P|362:121|381:54,2,120,2|10|0,3:2|0:2|3:2,0:2:0:0:
386,277,68283,1,0,0:2:0:0:
386,277,68433,2,0,P|335:261|304:265,1,60,8|0,0:2|0:2,0:0:0:0:
256,315,68733,6,0,P|209:323|134:292,1,120,0|8,3:2|0:2,0:0:0:0:
86,227,69183,2,0,L|101:88,1,120,2|0,0:2|3:2,0:0:0:0:
149,33,69633,1,8,0:2:0:0:
207,101,69783,1,0,3:2:0:0:
271,38,69933,6,0,P|313:16|403:25,1,120,6|8,3:2|0:2,0:2:0:0:
449,79,70383,1,0,0:0:0:0:
449,79,70533,1,0,3:0:0:0:
388,145,70683,2,0,L|367:225,1,60,0|8,3:2|3:2,0:0:0:0:
367,296,70983,1,0,0:0:0:0:
367,296,71133,6,0,P|404:292|438:271,2,60,2|0|8,3:2|3:2|0:2,0:0:0:0:
286,255,71583,2,0,P|217:250|165:282,1,120,10|0,0:2|3:2,0:2:0:0:
93,241,72033,1,8,0:0:0:0:
93,241,72183,1,0,0:0:0:0:
60,156,72333,6,0,B|93:142|93:142|136:163,1,60,2|0,3:2|0:2,0:2:0:0:
204,166,72633,2,0,B|230:176|230:176|265:159,1,60,8|0,0:2|0:2,0:2:0:0:
343,128,72933,2,0,L|351:68,1,60,0|0,3:2|3:2,0:2:0:0:
420,11,73233,1,8,0:0:0:0:
482,75,73383,1,0,0:0:0:0:
480,167,73533,6,0,L|466:243,1,60,2|2,3:2|3:2,0:0:0:0:
395,278,73833,1,8,0:2:0:0:
395,278,73983,2,0,P|337:258|278:281,1,120,2|2,3:2|3:2,0:2:0:0:
215,335,74433,2,0,L|155:329,1,60,10|2,0:2|3:2,0:2:0:0:
82,275,74733,6,0,P|90:212|138:172,1,120,6|8,3:2|0:2,0:2:0:0:
217,148,75183,1,0,0:2:0:0:
288,202,75333,1,0,3:2:0:0:
288,202,75483,2,0,L|420:188,1,120,0|0,3:2|0:2,0:2:0:0:
487,149,75933,6,0,P|499:120|499:75,1,60,2|0,3:2|0:2,0:0:0:0:
446,27,76233,1,8,0:2:0:0:
446,27,76383,2,0,L|321:39,1,120,8|0,0:2|3:2,0:2:0:0:
253,90,76833,2,0,L|191:81,1,60,8|0,0:2|0:2,0:0:0:0:
108,111,77133,6,0,P|106:140|122:194,1,60,2|0,3:2|0:2,0:2:0:0:
175,233,77433,2,0,P|177:262|161:316,1,60,8|0,0:2|0:2,0:2:0:0:
130,370,77733,1,0,3:0:0:0:
130,370,77883,2,0,L|70:362,2,60,0|8|0,3:2|3:2|0:0,0:0:0:0:
211,331,78333,6,0,L|290:324,1,60,2|0,3:2|3:2,0:0:0:0:
345,273,78633,1,8,0:2:0:0:
345,273,78783,2,0,P|392:283|419:303,1,60,8|0,0:2|3:2,0:2:0:0:
488,313,79083,2,0,L|500:382,2,60,0|8|8,3:2|0:2|0:2,0:0:0:0:
506,224,79533,5,8,0:0:0:0:
439,179,79683,1,8,0:2:0:0:
439,179,79758,1,8,0:2:0:0:
439,179,79833,2,0,L|398:173,2,30,0|0|8,3:2|3:2|0:2,0:0:0:0:
476,96,80133,2,0,L|515:91,2,30,8|8|8,0:2|0:2|0:2,0:0:0:0:
408,35,80433,2,0,L|369:30,2,30,8|8|8,0:2|0:2|0:2,0:0:0:0:
353,106,80733,6,0,L|274:96,1,60,10|0,0:2|0:2,0:2:0:0:
208,69,81033,2,0,L|129:79,1,60,10|0,0:2|0:2,0:0:0:0:
114,160,81333,1,0,3:0:0:0:
114,160,81483,1,0,3:0:0:0:
175,238,81633,1,8,0:0:0:0:
175,238,81783,1,0,0:0:0:0:
265,187,81933,6,0,P|263:149|264:107,2,60,2|0|10,3:2|3:0|0:2,0:2:0:0:
314,263,82383,2,0,P|357:236|438:235,1,120,0|0,3:2|3:2,0:0:0:0:
496,286,82833,2,0,L|493:347,1,60,8|2,0:2|3:2,0:0:0:0:
409,380,83133,6,0,P|368:368|336:366,1,60,2|0,3:2|3:2,0:0:0:0:
260,362,83433,2,0,P|219:374|187:376,1,60,8|0,0:2|0:2,0:0:0:0:
126,327,83733,2,0,L|54:339,2,60,2|0|8,3:2|0:2|0:2,0:2:0:0:
196,271,84183,6,0,P|207:210|180:131,1,120,0|0,0:2|3:2,0:0:0:0:
170,67,84633,2,0,L|251:78,1,60,8|2,0:2|3:2,0:0:0:0:
303,126,84933,2,0,L|384:115,1,60,0|0,0:0|0:2,0:0:0:0:
450,123,85233,1,8,0:0:0:0:
450,123,85383,1,0,0:0:0:0:
405,201,85533,6,0,L|415:269,1,60,6|2,0:2|3:2,0:0:0:0:
324,250,85833,2,0,L|333:317,1,60,10|2,0:2|3:2,0:0:0:0:
242,311,86133,2,0,L|251:378,1,60,2|0,3:2|0:0,0:2:0:0:
149,336,86433,1,8,0:0:0:0:
149,336,86583,1,0,0:0:0:0:
61,316,86733,6,0,L|68:385,2,60,2|0|8,3:2|3:2|0:2,0:0:0:0:
50,229,87183,2,0,P|86:207|126:203,1,60,0|0,0:2|3:2,0:0:0:0:
175,257,87483,2,0,P|175:293|165:324,2,60,0|8|2,0:2|0:2|0:2,0:2:0:0:
185,166,87933,6,0,L|136:126,2,60,6|0|8,3:2|3:2|0:2,0:0:0:0:
255,221,88383,2,0,P|298:234|362:194,1,120,14|14,0:2|0:2,0:0:0:0:
427,30,88983,2,0,P|384:17|320:57,1,120,14|14,0:2|0:2,0:0:0:0:
294,138,89433,1,8,0:0:0:0:
383,181,89583,1,0,3:2:0:0:
383,181,89658,1,0,3:0:0:0:
383,181,89733,2,0,L|421:171,2,30,0|0|2,3:0|3:0|3:2,0:0:0:0:
438,251,90033,2,0,L|476:241,2,30,8|0|8,0:2|3:0|0:2,0:0:0:0:
383,322,90333,6,0,L|300:313,1,60,6|0,3:2|0:0,0:2:0:0:
249,368,90633,2,0,L|166:359,1,60,10|0,0:2|0:0,0:2:0:0:
74,312,90933,1,0,3:0:0:0:
74,312,91083,1,0,3:0:0:0:
37,220,91233,1,8,0:0:0:0:
37,220,91383,1,0,0:0:0:0:
126,142,91533,6,0,L|139:213,2,60,2|0|8,3:2|3:2|0:2,0:0:0:0:
179,56,91983,2,0,P|239:48|314:77,1,120,2|0,3:2|3:2,0:2:0:0:
375,118,92433,1,8,0:2:0:0:
375,118,92583,1,0,0:2:0:0:
454,58,92733,6,0,L|470:120,1,60,6|0,3:2|0:2,0:2:0:0:
502,196,93033,2,0,L|486:258,1,60,8|0,0:2|0:2,0:0:0:0:
444,323,93333,2,0,P|476:337|517:330,2,60,2|0|8,3:2|3:2|0:2,0:0:0:0:
374,265,93783,6,0,P|298:250|238:256,1,120,2|0,3:2|0:2,0:2:0:0:
179,294,94233,2,0,L|170:373,2,60,8|0|0,0:2|3:2|0:2,0:0:0:0:
128,219,94683,1,2,3:2:0:0:
196,161,94833,1,10,0:2:0:0:
134,95,94983,1,2,3:2:0:0:
204,39,95133,6,0,L|281:29,1,60,6|0,3:2|0:0,0:2:0:0:
295,115,95433,2,0,L|372:105,1,60,10|0,0:2|0:0,0:2:0:0:
384,21,95733,2,0,L|461:11,1,60,2|0,3:2|3:2,0:0:0:0:
505,79,96033,2,0,P|513:122|503:155,1,60,8|0,0:2|0:2,0:0:0:0:
452,206,96333,5,0,3:2:0:0:
452,206,96483,1,0,0:2:0:0:
378,163,96633,1,8,0:2:0:0:
378,163,96783,2,0,L|308:158,1,60,2|0,0:2|3:0,0:2:0:0:
236,197,97083,2,0,P|221:140|222:121,2,60,0|8|0,3:2|0:2|3:2,0:0:0:0:
279,275,97533,5,14,0:2:0:0:
116,61,99183,5,2,3:2:0:0:
116,61,99333,2,0,L|138:145,1,80,0|8,3:0|3:0,0:0:0:0:
162,207,99633,1,0,3:0:0:0:
54,351,99933,5,6,3:2:0:0:
329,288,100533,1,8,0:2:0:0:
169,232,100833,1,0,3:2:0:0:
214,331,101133,1,0,3:2:0:0:
275,198,101433,1,0,3:2:0:0:
175,112,101733,2,0,B|168:241,1,120,8|0,0:2|3:2,0:2:0:0:
373,196,102333,6,0,B|367:77,1,120,0|0,3:2|3:2,0:2:0:0:
505,138,102933,1,8,0:2:0:0:
454,273,103233,1,0,3:2:0:0:
326,159,103533,1,0,3:2:0:0:
261,275,103833,2,0,P|220:291|141:253,1,120,2|8,0:2|0:2,0:2:0:0:
34,237,104333,2,0,L|51:353,1,80
151,266,104733,6,0,L|129:130,1,120,2|2,3:2|0:2,0:2:0:0:
187,68,105333,2,0,P|246:52|300:75,1,120,8|0,0:2|3:2,0:0:0:0:
400,171,105933,5,2,0:2:0:0:
509,107,106233,1,2,0:2:0:0:
511,235,106533,1,8,0:2:0:0:
392,290,106833,1,2,0:2:0:0:
280,205,107133,6,0,P|229:186|162:193,1,120,2|0,0:2|3:2,0:2:0:0:
56,114,107733,2,0,P|115:120|171:101,1,120,10|0,0:2|3:2,0:2:0:0:
273,28,108333,2,0,P|222:9|155:16,1,120,2|2,3:2|0:2,0:2:0:0:
249,124,108933,2,0,L|382:113,1,120,10|2,0:2|0:2,0:0:0:0:
417,192,109533,6,0,B|407:158|407:158|426:71,2,120,2|2|10,3:2|0:2|0:2,0:2:0:0:
477,290,110433,1,2,3:2:0:0:
355,283,110733,2,0,P|295:282|240:306,1,120,2|0,0:2|0:0,0:2:0:0:
155,370,111333,1,8,0:2:0:0:
85,298,111633,1,0,0:0:0:0:
142,223,111933,6,0,P|155:168|136:103,1,120,2|2,0:0|0:2,0:0:0:0:
66,16,112533,1,8,0:2:0:0:
182,8,112833,1,2,3:2:0:0:
256,95,113133,6,0,L|399:80,1,120,2|0,3:2|3:2,0:2:0:0:
498,133,113733,2,0,P|522:195|506:254,1,120,8|2,0:2|0:2,0:0:0:0:
427,350,114333,6,0,L|413:219,1,120,2|2,0:2|0:2,0:2:0:0:
295,179,114933,2,0,L|281:310,1,120,10|2,0:2|3:2,0:2:0:0:
175,350,115533,6,0,P|130:361|79:341,1,80,2|0,0:2|0:0,0:2:0:0:
157,120,116133,2,0,L|147:239,1,120,8|0,0:2|0:2,0:2:0:0:
253,105,116733,6,0,L|240:14,2,90,10|2|2,0:2|0:2|0:2,0:0:0:0:
321,171,117333,2,0,L|308:262,2,90,10|2|2,0:2|0:2|0:2,0:0:0:0:
410,119,117933,6,0,P|455:93|512:96,2,90,2|2|2,0:2|0:2|0:2,0:2:0:0:
400,209,118533,2,0,L|396:247,2,30,8|8|8,0:2|0:2|0:2,0:0:0:0:
487,232,118833,2,0,L|490:202,2,30,10|10|10,0:2|0:2|0:2,0:0:0:0:
449,314,119133,6,0,P|413:323|377:320,1,60,10|0,0:2|0:2,0:2:0:0:
309,282,119433,2,0,L|300:241,2,30,2|0|2,3:2|0:2|0:2,0:2:0:0:
261,359,119733,2,0,L|180:371,1,60,2|0,3:2|0:2,0:0:0:0:
118,332,120033,1,8,0:0:0:0:
13,244,120333,6,0,P|5:205|23:170,1,60,2|0,3:2|0:2,0:2:0:0:
95,155,120633,2,0,P|110:115|104:71,1,60,8|0,0:2|0:2,0:2:0:0:
88,10,120933,2,0,L|166:23,1,60,0|0,3:2|3:2,0:0:0:0:
215,93,121233,1,8,0:2:0:0:
215,93,121308,1,0,3:2:0:0:
215,93,121383,1,0,3:2:0:0:
295,52,121533,6,0,L|326:1,2,60,10|10|8,0:2|0:2|0:2,0:2:0:0:
279,140,121983,1,0,3:2:0:0:
279,140,122133,2,0,P|328:147|362:139,1,60,0|0,3:2|3:2,0:2:0:0:
426,125,122433,1,8,0:0:0:0:
350,245,122733,6,0,L|361:323,1,60,2|0,3:2|0:2,0:2:0:0:
294,368,123033,2,0,P|265:367|232:347,1,60,8|0,0:2|0:2,0:2:0:0:
176,286,123333,6,0,L|128:293,2,30,2|2|2,3:2|3:2|3:2,0:0:0:0:
131,207,123633,2,0,L|83:214,2,30,2|2|2,3:2|3:2|3:2,0:0:0:0:
185,134,123933,6,0,P|223:120|271:117,1,60,6|0,3:2|0:2,0:2:0:0:
298,187,124233,2,0,P|325:198|355:204,1,60,8|0,0:2|0:2,0:2:0:0:
436,166,124533,2,0,L|422:103,1,60,0|0,3:2|3:2,0:2:0:0:
370,40,124833,1,8,0:2:0:0:
370,40,124983,1,0,0:2:0:0:
298,94,125133,2,0,P|266:98|229:91,1,60,2|0,3:2|3:2,0:0:0:0:
150,73,125433,6,0,L|163:136,1,60,10|0,0:2|3:2,0:0:0:0:
236,183,125733,2,0,L|223:246,1,60,10|0,0:2|3:2,0:0:0:0:
217,332,126033,2,0,P|247:331|280:315,1,60,8|0,0:2|0:2,0:2:0:0:
338,255,126333,6,0,L|416:262,1,60,6|0,3:2|0:2,0:2:0:0:
481,222,126633,1,8,0:2:0:0:
505,144,126783,1,0,0:2:0:0:
451,76,126933,2,0,L|387:64,1,60,0|0,3:2|3:2,0:0:0:0:
302,47,127233,2,0,L|238:59,1,60,8|0,0:2|0:2,0:0:0:0:
233,149,127533,6,2,B|175:138|175:138|143:151|143:151|127:184|127:184|66:170,1,180,2|0,0:2|0:0,0:2:0:0:
10,114,128133,2,0,P|3:75|9:50,1,60,2|0,3:2|0:2,0:2:0:0:
84,10,128433,2,0,P|123:3|148:9,1,60,2|0,3:2|0:2,0:2:0:0:
225,43,128733,6,0,L|243:200,1,120,6|8,3:2|0:2,0:2:0:0:
389,259,129333,1,0,3:2:0:0:
389,259,129483,2,0,P|313:244|264:249,1,120,2|0,3:2|0:2,0:2:0:0:
198,301,129933,6,0,L|211:380,2,60,0|0|8,0:2|0:2|0:2,0:0:0:0:
118,259,130383,2,0,P|111:212|129:132,1,120,2|0,0:2|3:2,0:2:0:0:
202,96,130833,2,0,L|270:103,1,60,8|0,0:2|0:2,0:0:0:0:
339,146,131133,6,0,L|481:127,1,120,2|10,3:2|0:2,0:2:0:0:
365,285,131733,2,0,L|302:278,1,60,0|0,3:2|0:2,0:0:0:0:
225,237,132033,2,0,L|162:244,1,60,8|0,0:2|0:2,0:0:0:0:
81,211,132333,6,0,P|51:157|47:137,1,60,0|0,3:2|0:2,0:0:0:0:
77,72,132633,1,8,0:2:0:0:
77,72,132783,2,0,L|220:80,1,120,2|0,0:2|3:2,0:0:0:0:
266,135,133233,2,0,L|337:126,1,60,8|0,0:2|3:2,0:0:0:0:
393,67,133533,6,0,B|418:100|418:100|407:199,1,120,6|8,3:2|0:2,0:2:0:0:
405,272,133983,1,0,0:2:0:0:
405,272,134133,1,0,3:2:0:0:
319,242,134283,2,0,L|185:257,1,120,2|0,3:2|0:2,0:2:0:0:
116,220,134733,6,0,P|111:190|121:153,1,60,0|0,0:2|0:2,0:0:0:0:
206,136,135033,1,8,0:2:0:0:
206,136,135183,2,0,L|199:261,1,120,2|0,0:2|3:2,0:2:0:0:
250,329,135633,2,0,P|279:335|308:330,1,60,8|0,0:2|0:2,0:0:0:0:
384,281,135933,6,0,L|396:208,1,60,2|0,3:2|0:0,0:2:0:0:
476,187,136233,2,0,L|464:114,1,60,10|0,0:2|0:2,0:2:0:0:
414,54,136533,2,0,P|447:38|480:31,2,60,0|0|8,3:2|0:2|0:2,0:0:0:0:
355,122,136983,1,0,0:2:0:0:
355,122,137133,6,0,L|219:112,1,120,0|8,0:2|0:2,0:0:0:0:
176,44,137583,2,0,L|40:54,1,120,2|0,0:2|3:2,0:0:0:0:
9,130,138033,2,0,P|6:166|20:197,1,60,8|0,0:2|3:2,0:0:0:0:
88,239,138333,6,0,P|153:232|226:252,1,120,2|10,3:2|0:2,0:2:0:0:
272,304,138783,1,0,0:2:0:0:
272,304,138933,1,0,3:2:0:0:
342,247,139083,2,0,L|354:162,1,60,0|8,0:2|0:2,0:0:0:0:
310,107,139383,1,0,0:2:0:0:
310,107,139533,6,0,L|233:119,2,60,0|0|8,3:2|0:2|0:2,0:0:0:0:
387,59,139983,2,0,B|458:67|458:67|478:87|465:133,1,120,2|0,0:2|3:2,0:0:0:0:
411,181,140433,2,0,P|409:217|416:243,1,60,8|0,0:2|3:2,0:0:0:0:
441,326,140733,6,0,L|369:319,1,60,6|0,3:2|0:0,0:2:0:0:
303,274,141033,2,0,L|231:281,1,60,8|0,0:2|3:2,0:0:0:0:
171,333,141333,2,0,P|153:293|153:265,1,60,0|2,3:2|3:2,0:0:0:0:
201,201,141633,2,0,P|196:171|181:145,1,60,8|0,0:2|0:2,0:0:0:0:
112,86,141933,6,0,L|41:99,2,60,2|0|8,3:2|3:2|0:2,0:0:0:0:
181,28,142383,2,0,L|314:39,1,120,10|0,0:2|3:2,0:2:0:0:
382,75,142833,2,0,P|406:117|409:148,1,60,8|0,0:2|0:2,0:0:0:0:
395,217,143133,6,0,B|354:209|354:209|320:217|320:217|273:210,1,120,2|8,3:2|0:2,0:2:0:0:
192,180,143583,1,0,0:2:0:0:
192,180,143733,1,0,3:2:0:0:
127,242,143883,2,0,P|128:280|201:338,1,120,0|0,3:2|3:2,0:0:0:0:
271,315,144333,6,0,L|351:296,2,60,2|2|8,3:2|3:2|0:2,0:0:0:0:
183,335,144783,2,0,L|58:321,1,120,2|2,3:2|3:2,0:2:0:0:
7,250,145233,2,0,P|5:211|16:178,1,60,10|2,0:2|3:2,0:2:0:0:
92,155,145533,6,0,P|102:124|99:89,1,60,6|0,3:2|0:0,0:2:0:0:
52,20,145833,2,0,P|111:5|132:10,1,60,8|0,0:2|0:2,0:0:0:0:
190,53,146133,1,0,3:2:0:0:
190,53,146283,1,0,3:2:0:0:
272,16,146433,2,0,P|309:18|336:27,1,60,8|0,0:2|0:2,0:0:0:0:
403,79,146733,6,0,L|418:164,2,60,2|0|8,3:2|0:2|0:2,0:0:0:0:
325,125,147183,2,0,L|350:263,1,120,8|0,0:2|3:2,0:2:0:0:
288,312,147633,1,8,0:2:0:0:
288,312,147783,1,0,0:2:0:0:
200,291,147933,6,0,L|133:282,1,60,2|0,3:2|3:2,0:2:0:0:
97,203,148233,2,0,L|156:195,1,60,0|0,3:2|3:2,0:2:0:0:
197,114,148533,2,0,L|130:105,1,60,2|8,3:2|0:2,0:0:0:0:
94,26,148833,2,0,L|153:18,1,60,8|0,0:2|3:2,0:0:0:0:
242,34,149133,5,10,0:2:0:0:
242,34,149283,1,8,0:2:0:0:
306,96,149433,2,0,P|346:92|374:70,1,60,8|8,3:2|3:2,0:0:0:0:
438,33,149733,6,0,L|486:37,2,30,0|8|8,3:2|0:0|3:2,0:0:0:0:
458,121,150033,2,0,L|506:125,2,30,8|0|0,0:2|0:0|0:0,0:0:0:0:
396,187,150333,6,0,B|380:214|385:236|385:236|407:265|407:265|381:300|301:276,1,180,8|0,0:0|3:2,0:0:0:0:
247,230,150933,6,0,L|231:128,2,90,8|8|8,0:2|0:2|0:2,0:0:0:0:
168,275,151533,6,0,L|154:192,1,60,14|0,0:2|0:2,0:2:0:0:
78,173,151833,2,0,L|94:88,1,60,10|0,0:2|0:2,0:0:0:0:
189,47,152133,1,0,3:0:0:0:
189,47,152283,1,0,3:0:0:0:
280,97,152433,1,8,0:0:0:0:
280,97,152583,1,0,0:0:0:0:
372,60,152733,6,0,L|360:-2,2,60,2|0|10,3:2|3:0|0:2,0:2:0:0:
443,126,153183,2,0,L|429:253,1,120,0|0,3:2|3:2,0:0:0:0:
408,326,153633,2,0,P|366:320|340:311,1,60,8|2,0:2|3:2,0:0:0:0:
282,254,153933,6,0,P|221:241|154:256,1,120,2|8,3:2|0:2,0:0:0:0:
111,324,154383,2,0,P|85:298|77:273,1,60,0|2,0:2|3:2,0:0:0:0:
97,197,154683,1,0,0:2:0:0:
97,197,154833,1,8,0:2:0:0:
65,117,154983,6,0,P|120:91|197:112,1,120,2|0,0:2|3:2,0:0:0:0:
265,113,155433,2,0,L|253:38,2,60,8|2|0,0:2|3:2|0:0,0:0:0:0:
319,185,155883,2,0,L|311:263,2,60,0|8|0,0:2|0:2|3:2,0:0:0:0:
392,133,156333,6,0,L|471:143,1,60,6|2,3:2|3:2,0:0:0:0:
494,219,156633,2,0,L|486:278,1,60,10|2,3:2|3:2,0:0:0:0:
430,349,156933,2,0,P|394:332|353:332,1,60,2|0,3:2|0:0,0:2:0:0:
286,349,157233,2,0,L|206:361,1,60,10|0,0:2|0:0,0:2:0:0:
147,315,157533,6,0,L|72:311,2,60,2|0|8,3:2|3:2|0:2,0:0:0:0:
219,261,157983,2,0,P|246:218|247:137,1,120,2|0,0:2|0:2,0:0:0:0:
187,84,158433,2,0,L|127:86,1,60,8|2,0:2|0:2,0:0:0:0:
53,138,158733,6,0,P|41:179|39:211,1,60,6|0,3:2|3:2,0:0:0:0:
76,278,159033,1,8,0:0:0:0:
76,278,159183,2,0,P|117:266|149:264,1,60,0|0,0:2|3:2,0:0:0:0:
209,305,159483,2,0,L|223:373,1,60,0|8,3:0|0:0,0:0:0:0:
304,307,159783,6,0,P|317:248|306:190,1,120,14|14,0:2|0:2,0:0:0:0:
276,107,160233,2,0,L|195:96,1,60,8|0,0:0|3:2,0:0:0:0:
127,116,160533,2,0,L|46:127,1,60,0|0,3:2|3:2,0:0:0:0:
12,195,160833,2,0,P|14:224|26:252,1,60,8|8,0:2|0:2,0:0:0:0:
102,302,161133,6,0,L|170:292,1,60,6|0,3:2|0:0,0:2:0:0:
238,244,161433,2,0,L|299:255,1,60,10|0,0:2|0:0,0:2:0:0:
395,296,161733,1,0,3:0:0:0:
395,296,161883,1,0,3:0:0:0:
491,261,162033,1,10,0:2:0:0:
491,261,162183,1,0,3:2:0:0:
459,163,162333,6,0,L|452:94,2,60,2|0|8,3:2|3:2|0:2,0:0:0:0:
378,204,162783,2,0,P|336:194|305:168,1,60,2|0,3:2|0:0,0:2:0:0:
281,103,163083,2,0,L|303:38,2,60,0|8|0,3:2|0:2|0:2,0:0:0:0:
223,172,163533,6,0,B|195:190|195:190|108:173,1,120,6|8,3:2|0:2,0:2:0:0:
38,119,163983,1,0,0:2:0:0:
38,119,164133,2,0,L|29:46,2,60,2|0|8,3:2|3:2|0:2,0:0:0:0:
85,195,164583,6,0,P|92:261|69:323,1,120,2|0,3:2|0:2,0:2:0:0:
140,374,165033,2,0,L|221:363,1,60,8|0,0:2|3:2,0:0:0:0:
270,310,165333,2,0,L|336:318,1,60,0|2,0:2|3:2,0:0:0:0:
405,264,165633,1,8,0:0:0:0:
405,264,165783,1,0,0:0:0:0:
379,171,165933,6,0,L|387:95,1,60,6|0,3:2|0:0,0:2:0:0:
296,96,166233,2,0,L|302:155,1,60,10|0,0:2|0:0,0:2:0:0:
244,224,166533,2,0,P|212:231|163:216,1,60,2|0,3:2|3:2,0:0:0:0:
110,185,166833,1,8,0:2:0:0:
110,185,166983,1,0,0:2:0:0:
96,95,167133,6,0,L|112:28,2,60,0|0|8,3:2|0:2|0:2,0:0:0:0:
185,84,167583,2,0,L|315:72,1,120,2|0,0:2|3:2,0:2:0:0:
386,36,168033,1,8,0:2:0:0:
386,36,168183,1,0,3:2:0:0:
429,114,168333,5,14,0:2:0:0:
466,238,169983,6,0,L|461:281,4,30,8|8|8|8|8,0:2|0:2|0:2|0:2|0:2,0:0:0:0:
435,153,170433,1,10,0:2:0:0:
361,316,170733,6,0,P|335:327|301:329,1,60,6|0,3:2|0:2,0:2:0:0:
246,260,171033,2,0,P|220:271|186:273,1,60,8|0,0:2|0:2,0:2:0:0:
114,222,171333,2,0,P|64:230|35:307,1,120,0|8,3:2|0:2,0:0:0:0:
88,356,171783,1,2,0:2:0:0:
177,346,171933,6,0,L|236:355,1,60,0|0,3:2|3:2,0:0:0:0:
324,373,172233,2,0,L|383:364,1,60,8|0,0:2|0:2,0:2:0:0:
445,298,172533,2,0,P|464:259|465:235,1,60,0|0,3:2|3:2,0:2:0:0:
415,168,172833,2,0,L|422:119,2,30,8|0|0,0:2|3:2|3:2,0:0:0:0:
338,214,173133,6,0,L|326:147,1,60,6|0,3:2|0:2,0:2:0:0:
251,104,173433,1,8,0:0:0:0:
251,104,173583,1,0,0:0:0:0:
171,146,173733,2,0,L|159:79,1,60,0|0,3:2|3:2,0:0:0:0:
70,93,174033,2,0,L|58:160,1,60,8|0,0:2|0:2,0:0:0:0:
26,238,174333,6,0,P|26:279|89:339,1,120,2|8,3:2|0:2,0:2:0:0:
159,301,174783,1,0,0:2:0:0:
239,340,174933,2,0,L|309:334,1,60,0|0,3:2|3:2,0:0:0:0:
346,257,175233,2,0,L|276:251,1,60,8|0,0:2|0:2,0:0:0:0:
228,181,175533,6,0,P|218:132|227:112,1,60,6|0,3:2|0:2,0:2:0:0:
247,38,175833,1,8,0:0:0:0:
336,43,175983,1,0,0:0:0:0:
386,123,176133,2,0,L|461:113,1,60,0|0,3:2|3:2,0:0:0:0:
500,187,176433,2,0,P|507:231|501:256,1,60,8|2,0:2|0:2,0:0:0:0:
448,316,176733,6,0,L|362:328,1,60,2|0,3:2|0:2,0:2:0:0:
301,350,177033,2,0,L|232:339,1,60,8|0,0:2|0:2,0:2:0:0:
187,268,177333,2,0,L|101:280,1,60,0|0,3:2|3:2,0:0:0:0:
61,337,177633,2,0,L|57:375,2,30,10|2|2,3:2|3:2|3:2,3:2:0:0:
26,253,177933,6,0,P|16:179|30:118,1,120,6|8,3:2|0:2,0:2:0:0:
90,74,178383,1,0,0:2:0:0:
173,107,178533,2,0,P|218:125|247:121,1,60,0|0,3:2|3:2,0:0:0:0:
307,80,178833,2,0,P|345:83|378:100,1,60,8|0,0:2|0:2,0:0:0:0:
439,142,179133,6,0,L|445:222,1,60,8|8,0:0|0:0,0:0:0:0:
381,267,179433,2,0,L|376:327,1,60,8|8,0:0|0:0,0:0:0:0:
300,370,179733,1,8,0:0:0:0:
300,370,179808,1,8,0:0:0:0:
300,370,179883,1,8,0:0:0:0:
234,307,180033,6,8,L|193:315,3,30,0|0|0|8,0:0|0:0|0:0|0:0,0:0:0:0:
