osu file format v14

[General]
AudioFilename: audio.mp3
AudioLeadIn: 0
PreviewTime: 150816
Countdown: 0
SampleSet: Soft
StackLeniency: 0.7
Mode: 0
LetterboxInBreaks: 0
WidescreenStoryboard: 1

[Editor]
Bookmarks: 25341
DistanceSpacing: 1
BeatDivisor: 4
GridSize: 4
TimelineZoom: 2.4

[Metadata]
Title:Kuuchuu Bunkai long
TitleUnicode:空中分解 long
Artist:Three
ArtistUnicode:すりぃ
Creator:Nevo
Version:Expert
Source:
Tags:Collage 鏡音レン Kagamine Len vocaloid version AERIAL BREAKUP japanese novelty
BeatmapID:2312927
BeatmapSetID:1101542

[Difficulty]
HPDrainRate:5.5
CircleSize:4
OverallDifficulty:8.8
ApproachRate:9
SliderMultiplier:1.5
SliderTickRate:1

[Events]
//Background and Video events
0,0,"id_64870028.jpg",0,0
//Break Periods
2,48533,49383
//Storyboard Layer 0 (Background)
//Storyboard Layer 1 (Fail)
//Storyboard Layer 2 (Pass)
//Storyboard Layer 3 (Foreground)
//Storyboard Layer 4 (Overlay)
//Storyboard Sound Samples

[TimingPoints]
-3267,300,4,2,1,40,1,0
333,-133.333333333333,4,2,1,40,0,0
1233,-83.3333333333333,4,2,1,60,0,0
1533,-83.3333333333333,4,2,1,70,0,0
11133,-133.333333333333,4,2,1,70,0,0
13533,-133.333333333333,4,2,1,50,0,0
15483,-133.333333333333,4,2,1,60,0,0
15933,-100,4,2,1,60,0,0
30333,-133.333333333333,4,2,1,40,0,0
30933,-100,4,2,1,80,0,0
31158,-90.9090909090909,4,2,1,80,0,0
31383,-83.3333333333333,4,2,1,80,0,0
31533,-83.3333333333333,4,2,1,80,0,1
48333,-100,4,2,1,60,0,0
50733,-100,4,2,1,70,0,0
55983,-50,4,2,1,70,0,0
56133,-100,4,2,1,70,0,0
62733,-100,4,2,1,60,0,0
80733,-83.3333333333333,4,2,1,80,0,1
97983,-100,4,2,1,50,0,0
99933,-133.333333333333,4,2,1,50,0,0
119133,-100,4,2,1,70,0,0
128133,-100,4,2,1,70,0,0
128733,-100,4,2,1,60,0,0
150333,-100,4,2,1,40,0,0
150933,-90.9090909090909,4,2,1,80,0,0
151158,-90.9090909090909,4,2,1,70,0,0
151383,-90.9090909090909,4,2,1,80,0,0
151533,-83.3333333333333,4,2,1,80,0,1
168333,-100,4,2,1,50,0,0
170733,-100,4,2,1,70,0,0

[Colours]
Combo1 : 128,128,255
Combo2 : 192,192,192
Combo3 : 0,128,192

[HitObjects]
99,87,333,5,2,0:2:0:0:
228,135,558,1,2,0:2:0:0:
101,215,783,1,2,0:2:0:0:
246,134,933,2,0,L|321:124,1,56.2500021457673,2|0,0:2|0:2,0:2:0:0:
364,59,1233,6,0,P|339:114|365:201,1,134.999995880127,2|0,0:2|0:2,0:2:0:0:
416,239,1533,6,0,L|321:225,1,89.9999972534181,6|0,3:2|0:2,0:2:0:0:
165,302,1833,2,0,L|260:288,1,89.9999972534181,8|0,0:2|0:2,0:2:0:0:
110,239,2133,1,0,3:2:0:0:
84,321,2283,1,0,3:2:0:0:
192,216,2433,1,8,0:2:0:0:
25,261,2583,5,2,0:2:0:0:
39,115,2733,1,0,3:2:0:0:
110,239,2883,1,0,3:2:0:0:
152,66,3033,2,0,L|132:154,1,89.9999972534181,8|0,0:2|0:2,0:2:0:0:
260,96,3333,2,0,L|239:8,1,89.9999972534181,0|0,3:2|3:2,0:2:0:0:
369,110,3633,1,8,0:2:0:0:
360,154,3708,1,0,3:2:0:0:
352,198,3783,1,0,3:2:0:0:
344,242,3858,1,0,3:2:0:0:
329,288,3933,6,0,P|282:313|213:318,1,89.9999972534181,6|0,3:2|0:2,0:2:0:0:
99,213,4233,2,0,P|142:222|181:244,1,89.9999972534181,8|0,0:2|0:2,0:0:0:0:
171,370,4533,1,0,3:2:0:0:
107,305,4683,1,0,3:2:0:0:
263,228,4833,1,8,0:2:0:0:
246,319,4983,1,0,0:2:0:0:
186,159,5133,6,0,L|171:58,1,89.9999972534181,2|0,3:2|3:2,0:2:0:0:
366,218,5433,2,0,L|380:117,1,89.9999972534181,8|0,0:2|0:2,0:2:0:0:
301,32,5733,1,0,3:2:0:0:
462,94,5883,1,0,3:2:0:0:
284,120,6033,1,8,0:2:0:0:
397,16,6183,1,0,0:2:0:0:
480,176,6333,6,0,P|491:210|479:273,1,89.9999972534181,6|0,3:2|0:2,0:2:0:0:
341,294,6633,2,0,P|330:260|342:197,1,89.9999972534181,8|0,0:2|0:2,0:0:0:0:
414,343,6933,1,0,3:2:0:0:
338,379,7083,1,0,3:2:0:0:
415,245,7233,1,8,0:2:0:0:
257,327,7383,1,2,0:2:0:0:
292,211,7533,6,0,L|308:119,1,89.9999972534181,2|0,3:2|0:2,0:2:0:0:
180,51,7833,2,0,L|196:142,1,89.9999972534181,8|0,0:2|0:2,0:2:0:0:
77,265,8133,1,0,3:2:0:0:
110,175,8283,1,0,3:2:0:0:
236,311,8433,1,8,0:2:0:0:
51,353,8583,1,0,3:2:0:0:
175,236,8733,6,0,B|221:209|275:233|275:233|327:254|375:233,1,179.999994506836,6|8,3:2|0:2,0:2:0:0:
432,159,9183,1,0,0:2:0:0:
361,252,9333,1,0,3:2:0:0:
383,63,9483,1,0,3:2:0:0:
315,149,9633,1,8,0:2:0:0:
491,57,9783,1,0,0:2:0:0:
281,55,9933,5,14,0:2:0:0:
432,159,10083,1,0,3:2:0:0:
154,199,10233,5,14,0:2:0:0:
315,149,10383,1,0,3:2:0:0:
153,80,10533,5,8,0:2:0:0:
156,83,10608,1,0,3:2:0:0:
160,87,10683,1,0,3:2:0:0:
215,299,10833,5,8,0:2:0:0:
248,313,10908,1,8,0:2:0:0:
282,319,10983,1,8,0:2:0:0:
317,317,11058,1,8,0:2:0:0:
351,309,11133,6,0,P|388:239|383:190,1,112.500004291535,2|8,3:2|0:2,0:0:0:0:
387,207,12033,1,8,0:2:0:0:
257,108,12633,1,8,0:2:0:0:
125,207,13233,1,8,0:2:0:0:
255,332,13533,6,0,L|267:269,1,56.2500021457673,2|0,3:2|0:2,0:2:0:0:
368,307,13833,2,0,L|378:251,1,56.2500021457673,8|0,0:2|0:2,0:2:0:0:
258,156,14133,2,0,P|230:159|204:172,2,56.2500021457673,0|0|8,0:2|0:2|0:2,0:2:0:0:
343,169,14583,1,0,0:2:0:0:
423,83,14733,6,0,L|432:21,2,56.2500021457673,2|0|8,0:2|0:2|0:2,0:2:0:0:
343,169,15183,2,0,L|353:241,1,56.2500021457673,2|0,0:2|3:2,0:2:0:0:
436,314,15483,5,0,3:2:0:0:
264,212,15633,1,8,0:2:0:0:
432,188,15783,1,0,3:2:0:0:
294,329,15933,6,0,P|212:317|116:328,1,150,6|8,3:2|0:2,0:2:0:0:
39,354,16383,1,0,0:2:0:0:
131,308,16533,1,0,3:2:0:0:
46,256,16683,2,0,P|41:213|48:172,1,75,2|8,3:2|0:2,0:2:0:0:
112,99,16983,1,0,0:2:0:0:
141,210,17133,5,0,0:2:0:0:
102,78,17283,1,0,0:2:0:0:
200,137,17433,1,8,0:2:0:0:
283,58,17583,2,0,P|329:45|390:42,1,75,2|0,0:2|3:2,0:2:0:0:
482,120,17883,1,0,3:2:0:0:
389,120,18033,1,8,0:2:0:0:
492,33,18183,1,0,0:2:0:0:
437,197,18333,6,0,L|417:282,1,75,2|0,3:2|0:0,0:2:0:0:
296,198,18633,2,0,L|276:283,1,75,2|0,0:2|0:2,0:2:0:0:
197,340,18933,1,0,3:2:0:0:
172,258,19083,1,0,0:2:0:0:
94,292,19233,1,8,0:2:0:0:
211,181,19383,1,0,0:2:0:0:
15,260,19533,5,0,3:2:0:0:
172,258,19683,1,0,0:2:0:0:
16,173,19833,1,8,0:2:0:0:
142,114,19983,2,0,L|110:188,1,75,2|0,0:2|3:2,0:0:0:0:
115,31,20283,5,0,3:2:0:0:
229,134,20433,1,8,0:2:0:0:
57,94,20583,1,0,3:2:0:0:
207,49,20733,6,0,P|281:50|350:77,1,150,6|8,3:2|0:2,0:2:0:0:
425,145,21183,1,0,3:2:0:0:
330,191,21333,1,0,3:2:0:0:
414,283,21483,2,0,P|404:319|385:351,1,75,2|8,3:2|0:2,0:2:0:0:
308,379,21783,1,0,0:2:0:0:
247,287,21933,6,0,L|331:274,2,75,2|0|8,3:2|3:2|0:2,0:0:0:0:
109,319,22383,2,0,P|154:273|140:178,1,150,10|0,0:2|3:2,0:2:0:0:
52,164,22833,2,0,L|68:243,1,75,8|0,0:2|0:2,0:0:0:0:
208,124,23133,6,0,P|167:104|132:101,1,75,2|0,3:2|0:2,0:2:0:0:
247,209,23433,2,0,L|331:199,1,75,8|0,0:2|0:2,0:2:0:0:
428,118,23733,2,0,L|353:110,2,75,0|0|8,3:2|3:2|0:2,0:2:0:0:
510,175,24183,1,0,3:2:0:0:
495,55,24333,5,2,3:2:0:0:
424,208,24483,1,2,3:2:0:0:
406,30,24633,1,8,0:2:0:0:
337,130,24783,2,0,P|300:141|258:137,1,75,2|0,3:2|0:0,0:2:0:0:
207,46,25083,1,2,3:2:0:0:
110,100,25233,1,10,0:2:0:0:
219,37,25383,1,2,3:2:0:0:
204,190,25533,6,0,L|189:344,1,150,6|8,3:2|0:2,0:2:0:0:
61,370,25983,1,0,0:2:0:0:
111,294,26133,1,0,3:2:0:0:
12,218,26283,2,0,L|30:315,1,75,0|8,3:2|0:2,0:2:0:0:
87,165,26583,1,0,0:2:0:0:
16,129,26733,1,2,3:2:0:0:
168,120,26883,1,0,0:2:0:0:
12,218,27033,1,8,0:2:0:0:
87,81,27183,6,0,P|152:32|224:49,1,150,8|0,0:2|3:2,0:2:0:0:
293,112,27633,2,0,L|389:104,1,75,8|0,0:2|0:2,0:0:0:0:
476,19,27933,6,0,P|458:49|455:101,1,75,2|0,3:2|0:2,0:2:0:0:
455,242,28233,2,0,P|450:205|431:172,1,75,8|0,0:2|0:2,0:2:0:0:
284,205,28533,1,0,3:2:0:0:
362,236,28683,1,0,3:2:0:0:
228,279,28833,2,0,L|126:264,1,75,8|0,0:2|3:2,0:0:0:0:
16,346,29133,5,2,3:2:0:0:
139,262,29283,1,0,3:2:0:0:
4,239,29433,1,8,0:2:0:0:
128,336,29583,2,0,L|141:245,1,75,8|0,0:2|3:2,0:2:0:0:
142,137,29883,1,0,3:2:0:0:
241,218,30033,1,8,0:2:0:0:
226,74,30183,1,8,0:2:0:0:
342,211,30333,6,0,P|416:243|481:152,1,196.875007510186,2|0,0:2|0:2,0:2:0:0:
482,164,30933,6,0,L|458:41,2,112.5,10|10|10,0:2|0:2|0:2,0:2:0:0:
486,258,31533,6,0,L|376:278,1,89.9999972534181,6|0,3:2|0:0,0:2:0:0:
260,179,31833,2,0,L|150:199,1,89.9999972534181,10|0,0:2|0:0,0:2:0:0:
109,330,32133,2,0,L|-1:350,1,89.9999972534181,2|0,3:2|3:0,0:2:0:0:
53,237,32433,1,10,0:2:0:0:
189,303,32583,1,0,3:2:0:0:
171,195,32733,5,2,3:2:0:0:
109,330,32883,1,0,3:2:0:0:
94,154,33033,1,8,0:2:0:0:
250,235,33183,2,0,P|315:242|375:139,1,179.999994506836,2|0,3:2|3:2,0:2:0:0:
279,72,33633,1,8,0:2:0:0:
292,154,33783,1,0,0:2:0:0:
200,20,33933,6,0,L|189:120,1,89.9999972534181,2|0,3:2|0:2,0:2:0:0:
20,100,34233,1,8,0:2:0:0:
107,54,34383,1,0,0:2:0:0:
114,224,34533,1,2,3:2:0:0:
23,195,34683,1,0,3:2:0:0:
190,109,34833,1,8,0:2:0:0:
161,301,34983,6,0,P|228:273|341:270,1,179.999994506836,2|0,3:2|0:2,0:2:0:0:
462,336,35433,1,8,0:2:0:0:
414,154,35583,2,0,L|433:250,1,89.9999972534181,0|0,3:2|0:2,0:0:0:0:
334,131,35883,1,2,3:2:0:0:
506,181,36033,1,10,0:2:0:0:
455,30,36183,1,2,3:2:0:0:
336,227,36333,6,0,L|238:209,1,89.9999972534181,6|0,3:2|0:0,0:2:0:0:
266,54,36633,2,0,L|168:36,1,89.9999972534181,10|0,0:2|0:0,0:2:0:0:
89,211,36933,2,0,L|-9:193,1,89.9999972534181,2|0,3:2|3:2,0:0:0:0:
158,140,37233,1,8,0:2:0:0:
142,301,37383,1,0,0:2:0:0:
247,210,37533,5,0,3:2:0:0:
54,290,37683,2,0,P|63:348|99:378,1,89.9999972534181,0|8,0:2|0:2,0:2:0:0:
317,313,37983,6,0,B|239:301|239:301|208:312|208:312|131:298,1,179.999994506836,2|0,0:2|3:2,0:2:0:0:
247,210,38433,1,8,0:2:0:0:
435,264,38583,1,0,3:2:0:0:
235,120,38733,5,14,0:2:0:0:
317,313,38883,1,2,3:2:0:0:
498,188,39033,1,2,0:2:0:0:
247,210,39183,5,14,0:2:0:0:
422,93,39483,5,14,0:2:0:0:
164,17,39783,5,14,0:2:0:0:
263,115,40083,5,2,3:2:0:0:
162,197,40233,1,8,0:2:0:0:
112,80,40383,1,8,0:2:0:0:
112,80,40458,1,8,0:2:0:0:
112,80,40533,2,0,L|124:136,3,44.999998626709,8|8|8|8,0:2|0:2|0:0|0:0,0:0:0:0:
32,138,40833,2,0,L|20:194,3,44.999998626709,8|8|8|8,0:2|0:2|0:0|0:0,0:0:0:0:
75,258,41133,6,0,L|169:241,1,89.9999972534181,6|0,3:2|0:0,0:2:0:0:
287,315,41433,2,0,L|381:298,1,89.9999972534181,10|0,0:2|0:0,0:2:0:0:
416,172,41733,2,0,L|510:155,1,89.9999972534181,2|0,3:2|3:0,0:2:0:0:
334,124,42033,1,10,0:2:0:0:
337,216,42183,1,0,3:2:0:0:
411,85,42333,5,2,3:2:0:0:
253,175,42483,1,0,3:2:0:0:
236,18,42633,1,8,0:2:0:0:
416,172,42783,6,0,P|431:279|407:355,1,179.999994506836,2|0,3:2|3:2,0:2:0:0:
257,376,43233,1,8,0:2:0:0:
323,311,43383,1,0,0:2:0:0:
175,247,43533,6,0,L|149:58,1,179.999994506836,6|8,3:2|0:2,0:2:0:0:
50,12,43983,1,0,0:2:0:0:
165,51,44133,1,2,3:2:0:0:
42,136,44283,1,0,3:2:0:0:
246,131,44433,1,8,0:2:0:0:
45,263,44583,6,0,P|116:234|221:244,1,179.999994506836,2|0,3:2|0:2,0:2:0:0:
310,364,45033,2,0,L|298:270,1,89.9999972534181,8|0,0:2|3:2,0:0:0:0:
398,145,45333,1,0,0:2:0:0:
387,242,45483,1,2,3:2:0:0:
324,105,45633,1,10,0:2:0:0:
471,202,45783,1,2,3:2:0:0:
298,201,45933,6,0,L|187:217,1,89.9999972534181,6|0,3:2|0:0,0:2:0:0:
218,353,46233,2,0,L|107:369,1,89.9999972534181,10|0,0:2|0:0,0:2:0:0:
89,239,46533,2,0,L|-22:255,1,89.9999972534181,2|0,3:2|3:2,0:0:0:0:
125,155,46833,1,8,0:2:0:0:
176,222,46983,1,0,0:2:0:0:
37,160,47133,5,0,3:2:0:0:
218,146,47283,1,0,0:2:0:0:
89,239,47433,1,8,0:2:0:0:
130,65,47583,2,0,L|122:193,1,89.9999972534181,2|0,0:2|3:0,0:2:0:0:
49,52,47883,1,0,3:2:0:0:
208,24,48033,1,8,0:2:0:0:
37,160,48183,1,0,3:2:0:0:
244,236,48333,5,14,0:2:0:0:
387,89,49983,5,8,3:0:0:0:
387,89,50058,1,8,3:0:0:0:
387,89,50133,2,0,L|382:138,1,37.5,8|8,0:2|0:2,0:0:0:0:
307,182,50283,2,0,L|310:219,1,37.5,8|0,0:2|0:0,0:0:0:0:
386,282,50433,5,10,0:2:0:0:
210,347,50733,6,0,P|172:335|128:332,1,75,6|0,3:2|0:2,0:2:0:0:
40,349,51033,2,0,P|53:309|51:263,1,75,8|0,0:2|0:2,0:2:0:0:
16,182,51333,1,0,3:2:0:0:
123,208,51483,1,0,3:2:0:0:
92,106,51633,2,0,L|166:111,1,75,8|2,0:2|0:2,0:0:0:0:
287,11,51933,6,0,P|260:45|245:77,1,75,0|0,3:2|3:2,0:0:0:0:
293,178,52233,2,0,P|335:184|371:181,1,75,8|0,0:2|0:2,0:2:0:0:
421,60,52533,1,0,3:2:0:0:
336,98,52683,1,0,3:2:0:0:
457,152,52833,2,0,P|459:200|440:239,1,75,8|0,0:2|3:2,0:0:0:0:
374,303,53133,6,0,L|287:295,1,75,6|0,3:2|0:2,0:2:0:0:
200,252,53433,2,0,L|113:260,1,75,8|0,0:2|0:2,0:0:0:0:
112,276,53658,1,2,0:0:0:0:
112,276,53733,2,0,L|25:268,1,75,0|0,3:2|3:2,0:0:0:0:
15,252,53958,1,2,0:0:0:0:
15,252,54033,2,0,P|10:211|23:165,1,75,8|0,0:2|0:2,0:0:0:0:
83,118,54333,5,2,3:2:0:0:
173,188,54483,2,0,L|260:177,1,75,0|8,3:2|0:2,0:0:0:0:
371,100,54783,2,0,P|335:157|345:252,1,150,0|0,0:2|3:2,0:0:0:0:
454,310,55233,1,8,0:2:0:0:
348,339,55383,1,0,0:2:0:0:
432,220,55533,6,0,L|446:136,1,75,6|0,3:2|0:2,0:2:0:0:
453,45,55833,1,8,0:2:0:0:
371,100,55983,1,0,0:2:0:0:
371,100,56058,1,2,0:0:0:0:
371,100,56133,2,0,L|274:91,1,75,0|0,3:2|3:2,0:0:0:0:
217,42,56433,2,0,L|142:48,1,75,8|2,0:2|0:2,0:0:0:0:
57,121,56733,5,2,3:2:0:0:
144,190,56883,1,2,0:2:0:0:
144,190,56958,1,0,0:0:0:0:
144,190,57033,2,0,L|129:276,1,75,8|2,0:2|0:2,0:2:0:0:
126,286,57258,1,2,0:0:0:0:
126,286,57333,2,0,L|141:372,1,75,0|0,3:2|3:2,0:0:0:0:
299,383,57633,2,0,L|301:328,3,37.5,8|2|2|2,0:2|3:2|3:2|3:2,0:2:0:0:
313,320,57933,6,0,L|302:235,1,75,6|0,3:2|0:0,0:2:0:0:
317,125,58233,1,8,0:2:0:0:
394,201,58383,2,0,P|451:199|475:175,1,75,0|0,0:2|3:2,0:0:0:0:
477,174,58608,1,2,0:0:0:0:
477,174,58683,2,0,L|457:84,1,75,0|8,3:2|0:2,0:0:0:0:
412,32,58983,1,0,0:2:0:0:
331,106,59133,5,14,0:2:0:0:
331,106,59208,1,0,0:0:0:0:
331,106,59283,1,0,0:0:0:0:
331,106,59358,1,0,0:0:0:0:
331,106,59433,2,0,L|277:102,3,37.5,2|2|14|2,3:2|0:0|0:2|0:0,0:0:0:0:
228,41,59733,2,0,L|174:37,3,37.5,2|2|8|0,3:2|0:0|0:2|3:2,0:0:0:0:
124,92,60033,2,0,L|141:144,1,37.5,8|8,0:2|0:2,0:0:0:0:
202,189,60183,2,0,L|193:249,1,37.5,8|8,0:2|0:2,0:0:0:0:
148,291,60333,6,0,B|202:277|202:277|262:285|262:285|309:276,1,150,2|8,3:2|0:2,0:0:0:0:
412,293,60783,1,0,3:0:0:0:
369,214,60933,1,0,0:0:0:0:
480,145,61083,2,0,L|401:136,1,75,0|8,0:0|0:2,0:0:0:0:
336,52,61383,1,0,0:0:0:0:
261,120,61533,6,0,P|256:154|268:206,2,75,2|0|8,3:2|3:0|0:2,0:0:0:0:
337,248,61983,2,0,P|272:223|181:232,1,150,2|2,3:2|0:0,0:0:0:0:
104,274,62433,2,0,L|113:187,1,75,10|2,0:2|0:0,0:0:0:0:
45,101,62733,6,0,P|76:110|134:112,1,75,2|0,3:2|3:2,0:2:0:0:
235,56,63033,2,0,P|266:47|324:45,1,75,8|0,0:2|3:2,0:2:0:0:
392,93,63333,2,0,L|381:176,1,75,0|0,0:2|0:2,0:2:0:0:
307,238,63633,2,0,L|318:321,1,75,8|0,0:2|0:2,0:0:0:0:
398,264,63933,5,2,0:2:0:0:
231,282,64083,1,0,3:2:0:0:
282,149,64233,1,8,0:2:0:0:
282,149,64383,2,0,P|313:137|359:122,1,75,2|0,0:2|3:2,0:2:0:0:
427,50,64683,1,0,3:2:0:0:
329,30,64833,1,8,0:2:0:0:
446,57,64983,1,0,3:2:0:0:
370,145,65133,6,0,P|361:202|371:297,1,150,6|8,3:2|0:2,0:2:0:0:
404,373,65583,1,0,0:2:0:0:
287,327,65733,1,0,3:2:0:0:
188,383,65883,2,0,L|103:375,1,75,2|8,3:2|0:2,0:2:0:0:
32,330,66183,1,0,0:2:0:0:
136,243,66333,6,0,P|142:188|140:151,1,75,0|0,0:2|0:2,0:0:0:0:
30,119,66633,2,0,P|24:64|26:27,1,75,8|2,0:2|0:2,0:0:0:0:
161,78,66933,2,0,L|235:67,1,75,0|0,3:2|3:2,0:0:0:0:
310,170,67233,2,0,L|235:159,1,75,8|0,0:2|0:2,0:0:0:0:
390,102,67533,6,0,P|413:149|383:251,1,150,2|10,3:2|0:2,0:2:0:0:
291,285,67983,1,0,0:2:0:0:
393,348,68133,2,0,L|485:334,2,75,0|0|8,3:2|0:2|0:2,0:0:0:0:
295,384,68583,1,0,0:2:0:0:
197,310,68733,6,0,P|153:308|112:320,1,75,0|0,3:2|0:2,0:0:0:0:
35,380,69033,1,8,0:2:0:0:
35,380,69183,2,0,L|54:212,1,150,2|0,0:2|3:2,0:0:0:0:
73,124,69633,1,8,0:2:0:0:
130,184,69783,1,0,3:2:0:0:
219,95,69933,6,0,P|261:73|375:86,1,150,6|8,3:2|0:2,0:2:0:0:
451,176,70383,2,0,L|475:266,2,75,0|0|2,3:2|3:2|3:2,0:0:0:0:
351,155,70833,1,8,0:2:0:0:
324,233,70983,1,0,0:2:0:0:
212,185,71133,6,0,P|170:174|126:172,2,75,2|0|8,3:2|3:2|0:2,0:0:0:0:
268,301,71583,2,0,P|335:269|409:265,1,150,10|0,0:2|3:2,0:2:0:0:
477,368,72033,2,0,L|485:290,1,75,8|0,0:2|0:2,0:0:0:0:
412,142,72333,6,0,P|434:179|461:199,1,75,2|0,3:2|0:2,0:2:0:0:
434,56,72633,2,0,P|390:56|360:69,1,75,8|0,0:2|0:2,0:2:0:0:
293,150,72933,2,0,L|211:137,1,75,0|0,3:2|3:2,0:2:0:0:
139,73,73233,2,0,L|57:86,1,75,8|0,0:2|3:2,0:2:0:0:
11,173,73533,5,2,3:2:0:0:
167,223,73683,1,2,3:2:0:0:
65,277,73833,1,8,0:2:0:0:
166,369,73983,2,0,P|153:315|170:213,1,150,2|2,3:2|3:2,0:2:0:0:
262,156,74433,2,0,L|267:230,1,75,10|2,0:2|3:2,0:2:0:0:
373,288,74733,6,0,L|390:123,1,150,6|8,3:2|0:2,0:2:0:0:
397,39,75183,1,0,0:2:0:0:
311,80,75333,1,0,3:2:0:0:
234,24,75483,2,0,P|181:17|98:70,1,150,0|0,3:2|0:2,0:2:0:0:
28,174,75933,6,0,L|16:248,1,75,2|0,3:2|0:2,0:0:0:0:
88,331,76233,1,8,0:2:0:0:
88,331,76383,2,0,P|145:294|239:308,1,150,8|0,0:2|3:2,0:2:0:0:
318,358,76833,2,0,L|309:283,1,75,8|0,0:2|0:2,0:0:0:0:
401,159,77133,6,0,P|403:188|381:252,1,75,2|0,3:2|0:2,0:2:0:0:
244,212,77433,2,0,P|242:174|252:138,1,75,8|0,0:2|0:2,0:2:0:0:
391,63,77733,2,0,L|491:79,2,75,0|0|8,3:2|3:2|0:2,0:0:0:0:
298,31,78183,1,0,3:2:0:0:
185,102,78333,6,0,P|168:134|175:188,1,75,2|0,3:2|3:2,0:0:0:0:
235,255,78633,1,8,0:2:0:0:
145,325,78783,2,0,L|50:312,1,75,8|0,0:2|3:2,0:2:0:0:
67,171,79083,1,0,3:2:0:0:
67,171,79233,2,0,P|92:210|101:250,1,75,8|8,0:2|0:2,0:0:0:0:
0,109,79533,5,8,0:0:0:0:
73,42,79683,1,8,0:2:0:0:
73,42,79758,1,8,0:2:0:0:
73,42,79833,2,0,L|123:47,3,37.5,0|0|8|8,3:2|3:2|0:2|0:2,0:0:0:0:
172,94,80133,5,8,0:2:0:0:
206,108,80208,1,8,0:2:0:0:
243,108,80283,1,8,0:2:0:0:
277,92,80358,1,8,0:2:0:0:
301,64,80433,1,8,0:2:0:0:
335,49,80508,1,8,0:2:0:0:
372,50,80583,1,8,0:2:0:0:
406,66,80658,1,8,0:2:0:0:
430,94,80733,6,0,L|415:198,1,89.9999972534181,10|0,0:2|0:2,0:2:0:0:
278,199,81033,2,0,L|293:303,1,89.9999972534181,10|0,0:2|0:2,0:0:0:0:
159,295,81333,2,0,L|144:399,1,89.9999972534181,6|0,3:2|0:0,0:2:0:0:
65,272,81633,1,10,0:2:0:0:
133,214,81783,1,0,3:0:0:0:
49,185,81933,1,2,3:2:0:0:
220,229,82083,1,0,3:0:0:0:
189,148,82233,1,10,0:2:0:0:
159,295,82383,6,0,P|247:316|321:230,1,179.999994506836,0|0,3:2|3:2,0:0:0:0:
256,89,82833,1,8,0:2:0:0:
220,229,82983,1,2,3:2:0:0:
376,192,83133,6,0,L|482:204,1,89.9999972534181,2|0,3:2|3:2,0:0:0:0:
340,101,83433,1,8,0:2:0:0:
311,263,83583,1,0,0:2:0:0:
289,170,83733,1,2,3:2:0:0:
220,229,83883,1,0,0:2:0:0:
376,192,84033,1,8,0:2:0:0:
256,89,84183,6,0,B|176:93|176:93|139:111|139:111|67:116,1,179.999994506836,0|0,0:2|3:2,0:0:0:0:
0,59,84633,1,8,0:2:0:0:
65,130,84783,1,2,3:2:0:0:
10,229,84933,2,0,B|-9:263|-9:263|7:348,1,89.9999972534181,0|0,0:0|0:2,0:0:0:0:
144,366,85233,2,0,B|163:332|163:332|147:247,1,89.9999972534181,8|0,0:2|3:2,0:0:0:0:
132,150,85533,6,0,L|248:168,1,89.9999972534181,6|2,0:2|3:2,0:0:0:0:
269,295,85833,2,0,L|357:281,1,89.9999972534181,10|2,0:2|3:2,0:0:0:0:
394,144,86133,2,0,L|510:162,1,89.9999972534181,2|0,3:2|0:0,0:2:0:0:
337,73,86433,1,10,0:2:0:0:
356,224,86583,1,0,0:0:0:0:
422,64,86733,5,2,3:2:0:0:
309,151,86883,1,0,3:2:0:0:
278,12,87033,1,8,0:2:0:0:
394,144,87183,2,0,L|483:134,1,89.9999972534181,0|0,0:2|3:2,0:0:0:0:
403,298,87483,1,0,0:2:0:0:
356,224,87633,1,8,0:2:0:0:
360,376,87783,1,2,0:2:0:0:
441,221,87933,5,6,3:2:0:0:
268,221,88083,1,0,3:2:0:0:
448,375,88233,1,8,0:2:0:0:
147,368,88383,5,14,0:2:0:0:
356,224,88683,5,14,0:2:0:0:
93,163,88983,5,14,0:2:0:0:
303,61,89283,5,14,0:2:0:0:
262,221,89433,1,8,0:0:0:0:
379,166,89583,1,0,3:2:0:0:
379,166,89658,1,0,3:0:0:0:
379,166,89733,2,0,L|390:104,3,44.999998626709,0|0|2|0,3:0|3:0|3:2|3:0,0:0:0:0:
441,233,90033,2,0,L|452:295,3,44.999998626709,8|0|8|8,0:2|3:0|0:2|0:2,0:0:0:0:
399,353,90333,6,0,L|302:340,1,89.9999972534181,6|0,3:2|0:0,0:2:0:0:
279,200,90633,2,0,L|182:213,1,89.9999972534181,10|0,0:2|0:0,0:2:0:0:
158,89,90933,2,0,L|61:76,1,89.9999972534181,2|0,3:2|3:0,0:2:0:0:
227,26,91233,1,10,0:2:0:0:
245,111,91383,1,0,3:2:0:0:
140,5,91533,5,2,3:2:0:0:
307,51,91683,1,0,3:2:0:0:
176,173,91833,1,8,0:2:0:0:
245,111,91983,2,0,P|266:186|269:230,1,89.9999972534181,2|0,3:2|0:0,0:2:0:0:
223,336,92283,1,0,3:2:0:0:
324,261,92433,1,8,0:2:0:0:
415,339,92583,1,0,0:2:0:0:
510,207,92733,6,0,L|413:224,1,89.9999972534181,6|0,3:2|0:2,0:2:0:0:
362,80,93033,1,8,0:2:0:0:
439,134,93183,1,0,0:2:0:0:
446,44,93333,2,0,L|437:159,1,89.9999972534181,2|0,3:2|3:2,0:0:0:0:
357,253,93633,1,8,0:2:0:0:
269,152,93783,6,0,P|208:131|113:189,1,179.999994506836,2|0,3:2|0:2,0:2:0:0:
149,314,94233,1,8,0:2:0:0:
201,230,94383,1,0,3:2:0:0:
60,263,94533,1,0,0:2:0:0:
275,307,94683,5,2,3:2:0:0:
40,365,94833,1,10,0:2:0:0:
114,186,94983,1,2,3:2:0:0:
171,374,95133,6,0,L|275:364,1,89.9999972534181,6|0,3:2|0:0,0:2:0:0:
291,220,95433,2,0,L|380:228,1,89.9999972534181,10|0,0:2|0:0,0:2:0:0:
422,89,95733,2,0,L|526:79,1,89.9999972534181,2|0,3:2|3:2,0:0:0:0:
359,31,96033,1,8,0:2:0:0:
367,153,96183,1,0,0:2:0:0:
228,18,96333,5,0,3:2:0:0:
422,89,96483,1,0,0:2:0:0:
250,198,96633,1,8,0:2:0:0:
257,108,96783,2,0,L|249:208,1,89.9999972534181,2|0,0:2|3:0,0:2:0:0:
285,323,97083,1,0,3:2:0:0:
197,282,97233,1,8,0:2:0:0:
354,236,97383,1,0,3:2:0:0:
206,369,97533,6,0,B|153:379|115:349|115:349|78:322|25:339,1,179.999994506836,14|0,0:2|3:2,0:0:0:0:
76,250,97983,2,0,P|79:212|65:178,1,75,2|0,0:2|0:2,0:2:0:0:
6,121,98283,2,0,P|25:81|55:60,1,75,2|0,0:2|0:2,0:0:0:0:
159,35,98583,6,0,L|327:57,1,150,2|2,0:2|0:0,0:0:0:0:
395,94,99033,1,2,0:0:0:0:
357,176,99183,1,0,3:0:0:0:
357,176,99258,1,0,3:0:0:0:
357,176,99333,6,0,P|345:237|358:288,1,100,0|8,3:0|0:2,0:0:0:0:
368,298,99633,1,0,3:2:0:0:
219,370,99933,6,0,P|175:367|130:314,1,112.500004291535,6|2,3:2|0:2,0:2:0:0:
220,173,100433,1,0,0:2:0:0:
220,173,100533,2,0,L|210:292,1,112.500004291535,8|0,0:2|3:2,0:2:0:0:
41,199,101033,1,8,0:2:0:0:
41,199,101133,2,0,L|31:80,1,112.500004291535,0|0,3:2|3:2,0:2:0:0:
198,11,101733,1,8,0:2:0:0:
315,89,102033,1,0,3:2:0:0:
462,3,102333,6,0,P|483:39|486:77,1,75.000002861023,0|2,3:2|0:2,0:2:0:0:
414,141,102633,2,0,P|393:173|388:211,1,75.000002861023,0|2,3:2|0:2,0:2:0:0:
437,277,102933,1,8,0:2:0:0:
305,357,103233,1,0,3:2:0:0:
224,305,103433,1,2,0:2:0:0:
224,305,103533,6,0,L|100:311,1,112.500004291535,0|2,3:2|0:2,0:2:0:0:
22,211,104133,2,0,P|21:175|25:146,1,37.5000014305115,8|0,0:2|0:0,0:0:0:0:
34,137,104333,2,0,P|97:142|144:168,1,112.500004291535
216,230,104733,6,0,L|233:112,1,112.500004291535,2|2,3:2|0:2,0:2:0:0:
349,35,105333,1,8,0:2:0:0:
464,157,105533,1,2,0:2:0:0:
464,157,105633,2,0,P|417:136|381:135,1,75.000002861023,0|0,3:2|0:0,0:2:0:0:
365,146,105933,6,0,L|376:221,1,75.000002861023,2|2,0:2|0:2,0:2:0:0:
486,266,106233,2,0,L|474:341,1,75.000002861023,2|2,0:2|0:2,0:2:0:0:
362,373,106533,1,8,0:2:0:0:
231,286,106833,1,2,0:2:0:0:
81,346,107033,1,8,0:2:0:0:
81,346,107133,6,0,P|75:279|96:235,1,112.500004291535,2|0,0:2|3:2,0:2:0:0:
93,239,107733,2,0,P|112:187|104:131,1,112.500004291535,10|0,0:2|3:2,0:2:0:0:
104,131,108333,2,0,P|95:75|115:23,1,112.500004291535,2|2,3:2|0:2,0:2:0:0:
115,23,108933,5,10,0:2:0:0:
218,99,109133,1,2,3:2:0:0:
211,96,109233,2,0,L|288:89,1,75.000002861023,2|8,0:2|0:2,0:2:0:0:
398,9,109533,6,0,L|389:84,1,75.000002861023,2|2,3:2|0:2,0:2:0:0:
319,171,109833,2,0,L|327:246,1,75.000002861023,2|2,0:2|0:2,0:2:0:0:
422,290,110133,2,0,L|414:365,1,75.000002861023,10|2,0:2|0:2,0:2:0:0:
325,384,110433,1,2,3:2:0:0:
198,330,110633,1,0,3:2:0:0:
198,330,110733,6,0,L|84:343,1,112.500004291535,2|0,0:2|0:0,0:2:0:0:
4,202,111333,2,0,P|11:253|81:179,1,225.000008583069,8|2,0:2|0:0,0:2:0:0:
35,67,112133,1,0,0:0:0:0:
35,67,112233,2,0,P|71:56|145:68,1,112.500004291535,2|8,0:2|0:2,0:0:0:0:
250,117,112833,1,2,3:2:0:0:
360,31,113133,6,0,L|365:150,1,112.500004291535,2|0,3:2|3:2,0:2:0:0:
458,281,113733,1,8,0:2:0:0:
351,336,113933,1,2,0:2:0:0:
364,338,114033,2,0,P|324:321|292:318,1,75.000002861023,2|8,0:2|0:2,0:2:0:0:
201,353,114333,6,0,L|208:268,1,75.000002861023,2|0,0:2|0:2,0:2:0:0:
108,290,114633,2,0,L|114:205,1,75.000002861023,2|0,0:2|0:2,0:2:0:0:
21,225,114933,2,0,L|27:140,1,75.000002861023,10|0,0:2|0:2,0:2:0:0:
26,78,115233,1,2,3:2:0:0:
174,128,115433,1,0,0:2:0:0:
174,128,115533,6,0,P|227:133|259:118,1,75.000002861023,2|0,0:2|0:0,0:2:0:0:
366,51,116133,2,0,L|356:176,1,112.500004291535,8|0,0:2|0:2,0:2:0:0:
330,271,116733,6,0,P|378:256|416:257,2,84.3750032186509,10|2|2,0:2|0:2|0:2,0:0:0:0:
180,350,117333,2,0,P|132:335|94:336,2,84.3750032186509,10|2|2,0:2|0:2|0:2,0:0:0:0:
224,193,117933,6,0,L|235:288,2,84.3750032186509,2|2|2,0:2|0:2|0:2,0:2:0:0:
163,114,118533,2,0,L|125:110,3,28.1250010728836,8|8|8|8,0:2|0:2|0:2|0:2,0:0:0:0:
240,73,118833,5,10,0:2:0:0:
264,59,118908,1,10,0:2:0:0:
292,53,118983,1,10,0:2:0:0:
320,52,119058,1,10,0:2:0:0:
347,59,119133,6,0,L|361:152,1,75,10|0,0:2|0:2,0:2:0:0:
450,187,119433,1,2,0:0:0:0:
446,209,119508,1,2,0:0:0:0:
442,231,119583,1,2,0:0:0:0:
439,253,119658,1,2,0:0:0:0:
434,276,119733,2,0,L|448:369,1,75,2|0,3:2|0:2,0:0:0:0:
341,359,120033,2,0,P|296:343|253:341,1,75,8|0,0:2|0:2,0:0:0:0:
171,384,120333,6,0,L|162:300,1,75,2|0,3:2|0:2,0:2:0:0:
55,233,120633,2,0,L|46:317,1,75,8|0,0:2|0:2,0:2:0:0:
227,244,120933,1,0,3:2:0:0:
140,227,121083,1,0,3:2:0:0:
295,183,121233,1,8,0:2:0:0:
295,183,121308,1,0,3:2:0:0:
295,183,121383,1,0,3:2:0:0:
167,126,121533,6,0,L|81:136,2,75,10|10|8,0:2|0:2|0:2,0:2:0:0:
261,57,121983,1,0,3:2:0:0:
376,154,122133,2,0,P|425:161|465:149,1,75,0|0,3:2|3:2,0:2:0:0:
422,20,122433,2,0,P|376:33|352:54,1,75,8|0,0:2|3:2,0:2:0:0:
279,188,122733,6,0,L|290:277,1,75,2|0,3:2|0:2,0:2:0:0:
382,357,123033,2,0,L|393:268,1,75,8|0,0:2|0:2,0:2:0:0:
256,352,123333,6,0,B|244:359|244:359|227:351|227:351|212:353,3,37.5,2|2|2|2,3:2|3:2|3:2|3:2,0:0:0:0:
168,290,123633,5,2,3:2:0:0:
146,284,123708,5,2,3:2:0:0:
123,284,123783,5,2,3:2:0:0:
101,288,123858,5,2,3:2:0:0:
85,297,123933,6,0,P|62:259|46:209,1,75,6|0,3:2|0:2,0:2:0:0:
102,118,124233,2,0,P|116:152|125:188,1,75,8|0,0:2|0:2,0:2:0:0:
14,101,124533,2,0,P|26:71|72:36,1,75,0|0,3:2|3:2,0:2:0:0:
193,89,124833,1,8,0:2:0:0:
102,118,124983,1,0,0:2:0:0:
178,0,125133,2,0,L|264:11,1,75,2|0,3:2|3:2,0:0:0:0:
397,87,125433,6,0,L|311:103,1,75,10|0,0:2|3:2,0:0:0:0:
480,100,125733,6,0,L|394:116,1,75,10|0,0:2|3:2,0:0:0:0:
256,200,126033,2,0,L|343:218,1,75,8|0,0:2|0:2,0:2:0:0:
416,355,126333,6,0,P|377:323|359:292,1,75,6|0,3:2|0:2,0:2:0:0:
420,183,126633,1,8,0:2:0:0:
451,267,126783,1,0,0:2:0:0:
329,215,126933,2,0,L|256:200,1,75,0|0,3:2|3:2,0:0:0:0:
130,288,127233,2,0,L|203:272,1,75,8|0,0:2|0:2,0:0:0:0:
121,69,127533,6,2,B|118:83|118:83|104:90|104:90|104:106|104:106|96:119|96:119|101:130|101:130|96:146|96:146|106:157|106:157|108:173|108:173|125:179|125:179|135:195|135:195|135:146|156:124,1,225,2|0,0:2|0:0,0:2:0:0:
300,211,128133,6,0,P|246:193|211:189,1,75,2|0,3:2|0:2,0:2:0:0:
393,117,128433,2,0,P|447:99|482:95,1,75,2|0,3:2|0:2,0:2:0:0:
385,259,128733,6,0,L|377:333,1,75,6|0,3:2|0:0,0:2:0:0:
286,358,129033,1,8,0:2:0:0:
213,326,129183,1,0,0:2:0:0:
138,375,129333,1,0,3:2:0:0:
47,323,129483,2,0,P|28:258|46:162,1,150,2|0,3:2|0:2,0:2:0:0:
145,192,129933,6,0,L|159:294,2,75,0|0|8,0:2|0:2|0:2,0:0:0:0:
237,106,130383,2,0,B|274:86|312:110|312:110|342:127|380:110,1,150,2|0,0:2|3:2,0:2:0:0:
474,17,130833,2,0,P|458:65|459:99,1,75,8|0,0:2|0:2,0:0:0:0:
512,181,131133,6,0,L|433:174,1,75,2|0,3:2|0:0,0:2:0:0:
349,259,131433,2,0,L|274:265,1,75,10|0,0:2|0:2,0:2:0:0:
164,286,131733,1,0,3:2:0:0:
243,340,131883,1,0,0:2:0:0:
150,359,132033,2,0,L|167:265,1,75,8|0,0:2|0:2,0:0:0:0:
65,210,132333,6,0,L|77:305,2,75,0|0|8,3:2|0:2|0:2,0:0:0:0:
30,86,132783,2,0,P|88:126|161:93,1,150,2|0,0:2|3:2,0:0:0:0:
295,37,133233,1,8,0:2:0:0:
208,21,133383,1,0,3:2:0:0:
296,130,133533,6,0,B|323:161|323:161|311:270,1,150,6|8,3:2|0:2,0:2:0:0:
155,337,133983,1,0,0:2:0:0:
229,288,134133,1,0,3:2:0:0:
144,263,134283,2,0,L|155:337,1,75,2|8,3:2|0:2,0:2:0:0:
300,343,134583,1,0,0:2:0:0:
300,343,134733,6,0,L|314:241,1,75,0|0,0:2|0:2,0:0:0:0:
294,168,135033,1,8,0:2:0:0:
396,236,135183,2,0,P|464:235|479:140,1,150,2|0,0:2|3:2,0:2:0:0:
429,66,135633,2,0,L|347:81,1,75,8|0,0:2|0:2,0:0:0:0:
294,168,135933,6,0,L|204:153,1,75,2|0,3:2|0:0,0:2:0:0:
90,244,136233,2,0,L|180:229,1,75,10|0,0:2|0:2,0:2:0:0:
23,182,136533,2,0,P|4:223|2:268,2,75,0|0|8,3:2|0:2|0:2,0:0:0:0:
101,126,136983,1,0,0:2:0:0:
193,241,137133,6,0,L|182:326,1,75,0|0,0:2|0:2,0:0:0:0:
119,370,137433,1,8,0:2:0:0:
267,349,137583,2,0,P|330:323|419:326,1,150,2|0,0:2|3:2,0:0:0:0:
501,371,138033,1,8,0:2:0:0:
487,287,138183,1,0,3:2:0:0:
378,235,138333,6,0,L|220:250,1,150,2|10,3:2|0:2,0:2:0:0:
116,268,138783,1,0,0:2:0:0:
161,189,138933,1,0,3:2:0:0:
3,172,139083,2,0,L|88:181,1,75,0|8,0:2|0:2,0:0:0:0:
224,117,139383,1,0,0:2:0:0:
161,189,139533,5,0,3:2:0:0:
150,60,139683,1,0,0:2:0:0:
256,204,139833,1,8,0:2:0:0:
313,83,139983,2,0,L|387:89,1,75,2|0,0:2|3:2,0:0:0:0:
466,131,140283,1,0,3:2:0:0:
395,207,140433,2,0,P|395:250|408:286,1,75,8|0,0:2|3:2,0:0:0:0:
437,369,140733,6,0,L|332:356,1,75,6|0,3:2|0:0,0:2:0:0:
256,303,141033,2,0,L|151:316,1,75,8|0,0:2|3:2,0:0:0:0:
20,253,141333,1,0,3:2:0:0:
103,278,141483,1,2,3:2:0:0:
9,164,141633,1,8,0:2:0:0:
34,338,141783,1,0,0:2:0:0:
92,197,141933,5,2,3:2:0:0:
120,360,142083,1,0,3:2:0:0:
9,164,142233,1,8,0:2:0:0:
178,225,142383,2,0,P|213:214|244:192,1,75,10|0,0:2|0:0,0:2:0:0:
147,71,142683,1,0,3:2:0:0:
147,71,142833,2,0,P|111:81|80:103,1,75,8|0,0:2|0:2,0:0:0:0:
238,93,143133,6,0,B|295:84|295:84|336:94|336:94|397:84,1,150,2|8,3:2|0:2,0:2:0:0:
456,25,143583,1,0,0:2:0:0:
512,116,143733,1,0,3:2:0:0:
512,116,143883,2,0,P|504:166|477:209,1,75,0|8,3:2|0:2,0:0:0:0:
443,264,144183,1,0,3:2:0:0:
307,198,144333,6,0,L|232:197,2,75,2|2|8,3:2|3:2|0:2,0:0:0:0:
347,334,144783,2,0,P|317:316|292:272,1,75,2|0,3:2|0:0,0:2:0:0:
401,178,145083,1,2,3:2:0:0:
401,178,145233,2,0,L|388:259,1,75,10|2,0:2|3:2,0:2:0:0:
262,107,145533,6,0,L|350:109,1,75,6|0,3:2|0:0,0:2:0:0:
195,39,145833,2,0,L|107:41,1,75,8|0,0:2|0:2,0:0:0:0:
5,125,146133,1,0,3:2:0:0:
93,121,146283,1,0,3:2:0:0:
0,215,146433,1,8,0:2:0:0:
147,195,146583,1,0,0:2:0:0:
80,257,146733,5,2,3:2:0:0:
5,125,146883,1,0,0:2:0:0:
178,115,147033,1,8,0:2:0:0:
83,46,147183,2,0,L|96:145,1,75,8|0,0:2|3:0,0:2:0:0:
167,273,147483,1,0,3:2:0:0:
240,176,147633,1,8,0:2:0:0:
223,344,147783,1,0,0:2:0:0:
80,257,147933,6,0,P|133:241|177:243,1,75,2|0,3:2|3:2,0:2:0:0:
240,175,148233,2,0,P|277:179|312:192,1,75,0|0,3:2|3:2,0:2:0:0:
435,143,148533,1,0,3:0:0:0:
435,143,148683,1,8,0:0:0:0:
498,298,148833,1,8,0:2:0:0:
391,258,148983,1,0,3:2:0:0:
391,258,149058,1,0,3:0:0:0:
391,258,149133,6,0,L|294:275,1,75,10|8,0:2|0:2,0:0:0:0:
207,350,149433,2,0,L|133:337,1,75,8|8,3:2|3:2,0:0:0:0:
47,260,149733,6,0,L|36:210,3,37.5,0|8|8|8,3:2|0:0|3:2|0:0,0:0:0:0:
81,149,150033,1,8,0:2:0:0:
361,224,150333,6,0,L|356:255,14,18.75,2|2|2|2|2|2|2|2|0|0|0|0|0|0|0,0:0|0:0|0:2|0:2|0:2|0:2|0:2|0:2|0:0|0:0|0:0|0:0|0:0|0:0|0:0,0:0:0:0:
394,149,150933,6,0,L|413:297,2,123.75000377655,8|8|8,0:2|0:2|0:2,0:0:0:0:
343,52,151533,6,0,P|294:42|251:42,1,89.9999972534181,14|0,0:2|0:2,0:2:0:0:
95,145,151833,2,0,P|140:144|184:135,1,89.9999972534181,10|0,0:2|0:2,0:0:0:0:
349,237,152133,2,0,P|300:227|257:227,1,89.9999972534181,2|0,3:2|3:0,0:2:0:0:
110,314,152433,1,10,0:2:0:0:
245,341,152583,1,0,3:0:0:0:
196,265,152733,5,2,3:2:0:0:
93,329,152883,1,0,3:0:0:0:
102,214,153033,1,10,0:2:0:0:
245,341,153183,2,0,L|428:322,1,179.999994506836,0|0,3:2|3:2,0:0:0:0:
478,192,153633,1,8,0:2:0:0:
394,239,153783,1,2,3:2:0:0:
411,112,153933,6,0,L|424:20,1,89.9999972534181,2|0,3:2|3:2,0:0:0:0:
268,73,154233,1,8,0:2:0:0:
324,158,154383,1,0,0:2:0:0:
189,248,154533,1,2,3:2:0:0:
214,151,154683,1,0,0:2:0:0:
296,272,154833,1,8,0:2:0:0:
131,311,154983,6,0,P|75:291|5:297,1,89.9999972534181,2|2,0:2|3:2,0:0:0:0:
183,382,155283,1,0,3:2:0:0:
189,248,155433,1,8,0:2:0:0:
281,355,155583,1,2,3:2:0:0:
301,193,155733,1,0,0:0:0:0:
131,311,155883,5,0,0:2:0:0:
270,273,156033,1,8,0:2:0:0:
123,171,156183,1,0,3:2:0:0:
325,115,156333,6,0,L|425:104,1,89.9999972534181,6|2,3:2|3:2,0:0:0:0:
512,231,156633,2,0,L|412:220,1,89.9999972534181,10|2,3:2|3:2,0:0:0:0:
339,344,156933,2,0,L|439:333,1,89.9999972534181,2|0,3:2|0:0,0:2:0:0:
270,273,157233,1,10,0:2:0:0:
209,383,157383,1,0,0:0:0:0:
102,269,157533,5,2,3:2:0:0:
182,301,157683,1,0,3:2:0:0:
97,169,157833,1,8,0:2:0:0:
306,192,157983,2,0,L|399:179,1,89.9999972534181,2|0,0:2|3:2,0:0:0:0:
197,75,158283,2,0,L|104:62,2,89.9999972534181,0|8|2,0:2|0:2|0:2,0:2:0:0:
342,92,158733,5,6,3:2:0:0:
201,269,158883,1,0,3:2:0:0:
148,166,159033,1,8,0:2:0:0:
391,209,159183,5,14,0:2:0:0:
120,324,159483,5,14,0:0:0:0:
371,365,159783,5,14,0:2:0:0:
265,163,160083,6,0,P|252:233|262:276,1,89.9999972534181,14|8,0:2|0:0,0:0:0:0:
400,174,160383,1,0,3:2:0:0:
400,174,160458,1,0,3:2:0:0:
400,174,160533,2,0,L|412:119,3,44.999998626709,0|0|0|0,3:2|3:2|3:2|3:2,0:0:0:0:
358,60,160833,1,8,0:0:0:0:
313,56,160908,1,8,0:0:0:0:
275,79,160983,1,8,0:0:0:0:
257,119,161058,1,8,0:0:0:0:
265,163,161133,6,0,L|171:148,1,89.9999972534181,6|0,3:2|0:0,0:2:0:0:
66,264,161433,2,0,L|160:249,1,89.9999972534181,10|0,0:2|0:0,0:2:0:0:
273,361,161733,2,0,L|179:346,1,89.9999972534181,2|0,3:2|3:0,0:2:0:0:
294,210,162033,1,10,0:2:0:0:
336,292,162183,1,0,3:2:0:0:
335,136,162333,5,2,3:2:0:0:
248,287,162483,1,0,3:2:0:0:
388,217,162633,1,8,0:2:0:0:
239,126,162783,2,0,P|173:113|76:175,1,179.999994506836,2|0,3:2|3:2,0:2:0:0:
169,299,163233,2,0,L|177:187,1,89.9999972534181,8|0,0:2|0:2,0:0:0:0:
381,127,163533,6,0,L|389:239,1,89.9999972534181,6|0,3:2|0:2,0:2:0:0:
307,58,163833,1,8,0:2:0:0:
467,93,163983,1,0,0:2:0:0:
292,145,164133,1,2,3:2:0:0:
392,40,164283,1,0,3:2:0:0:
458,191,164433,1,8,0:2:0:0:
307,58,164583,6,0,P|219:52|130:96,1,179.999994506836,2|0,3:2|0:2,0:2:0:0:
40,179,165033,2,0,L|28:71,2,89.9999972534181,8|0|0,0:2|3:2|0:2,0:0:0:0:
21,316,165483,1,2,3:2:0:0:
132,233,165633,1,10,0:2:0:0:
186,361,165783,1,2,3:2:0:0:
270,265,165933,6,0,L|378:252,1,89.9999972534181,6|0,3:2|0:0,0:2:0:0:
456,160,166233,2,0,L|348:147,1,89.9999972534181,10|0,0:2|0:0,0:2:0:0:
231,57,166533,2,0,L|339:44,1,89.9999972534181,2|0,3:2|3:2,0:0:0:0:
204,151,166833,1,8,0:2:0:0:
137,83,166983,1,0,0:2:0:0:
299,131,167133,5,0,3:2:0:0:
183,250,167283,1,0,0:2:0:0:
231,57,167433,1,8,0:2:0:0:
276,224,167583,2,0,L|256:338,1,89.9999972534181,2|0,0:2|3:0,0:2:0:0:
372,199,167883,1,0,3:2:0:0:
299,131,168033,1,8,0:2:0:0:
461,156,168183,1,0,3:2:0:0:
276,224,168333,6,0,B|223:213|223:213|175:226|175:226|102:215,1,150,14|0,0:2|0:2,0:0:0:0:
33,194,168783,2,0,P|54:231|63:267,1,75,2|0,0:2|0:2,0:2:0:0:
112,352,169083,2,0,P|122:316|141:283,1,75,2|0,0:2|0:2,0:2:0:0:
272,358,169383,2,0,L|188:345,1,75,2|0,0:2|0:2,0:2:0:0:
251,263,169683,2,0,L|335:250,1,75,2|0,0:2|0:2,0:2:0:0:
414,325,169983,1,0,3:0:0:0:
414,325,170058,1,0,3:0:0:0:
414,325,170133,2,0,L|361:319,2,37.5,8|8|8,0:2|0:2|0:2,0:0:0:0:
272,358,170433,1,10,0:2:0:0:
96,145,170733,6,0,L|191:159,1,75,6|0,3:2|0:2,0:2:0:0:
347,82,171033,2,0,L|252:96,1,75,8|0,0:2|0:2,0:2:0:0:
402,145,171333,1,0,3:2:0:0:
428,63,171483,1,0,3:2:0:0:
320,168,171633,1,8,0:2:0:0:
487,123,171783,5,2,0:2:0:0:
473,269,171933,1,0,3:2:0:0:
402,145,172083,1,0,3:2:0:0:
360,318,172233,2,0,L|380:230,1,75,8|0,0:2|0:2,0:2:0:0:
252,288,172533,2,0,L|273:376,1,75,0|0,3:2|3:2,0:2:0:0:
143,274,172833,1,8,0:2:0:0:
152,230,172908,1,0,3:2:0:0:
160,186,172983,1,0,3:2:0:0:
168,142,173058,1,0,3:2:0:0:
183,96,173133,6,0,P|222:74|280:70,1,75,6|0,3:2|0:2,0:2:0:0:
412,170,173433,2,0,P|369:161|330:139,1,75,8|0,0:2|0:2,0:0:0:0:
341,147,173658,1,2,0:0:0:0:
341,147,173733,1,0,3:2:0:0:
484,108,173883,1,0,3:2:0:0:
496,190,174033,1,8,0:2:0:0:
401,75,174183,1,0,0:2:0:0:
433,265,174333,6,0,L|446:360,1,75,2|0,3:2|3:2,0:2:0:0:
287,316,174633,2,0,L|297:241,1,75,8|0,0:2|0:2,0:2:0:0:
150,209,174933,1,0,3:2:0:0:
208,268,175083,1,0,3:2:0:0:
84,274,175233,1,8,0:2:0:0:
231,183,175383,1,0,0:2:0:0:
58,115,175533,6,0,L|67:190,1,75,6|0,3:2|0:2,0:2:0:0:
236,105,175833,2,0,L|244:30,1,75,8|0,0:2|0:2,0:0:0:0:
244,30,176058,1,0,0:0:0:0:
244,30,176133,1,0,3:2:0:0:
149,133,176283,1,0,3:2:0:0:
231,183,176433,1,8,0:2:0:0:
162,49,176583,1,2,0:2:0:0:
74,142,176733,6,0,L|149:132,1,75,2|0,3:2|0:2,0:2:0:0:
48,240,177033,2,0,L|123:230,1,75,8|0,0:2|0:2,0:2:0:0:
336,284,177333,1,0,3:2:0:0:
263,336,177483,1,0,3:2:0:0:
310,198,177633,2,0,L|346:191,3,37.5,10|2|2|2,3:2|3:2|3:2|3:2,3:2:0:0:
382,110,177933,6,0,P|385:181|447:217,1,150,6|8,3:2|0:2,0:2:0:0:
502,314,178383,2,0,P|442:299|408:301,1,75,0|0,0:2|3:2,0:0:0:0:
429,298,178608,1,2,0:0:0:0:
429,298,178683,1,0,3:2:0:0:
310,352,178833,1,8,0:2:0:0:
326,240,178983,1,0,0:2:0:0:
186,293,179133,6,0,L|98:303,1,75,8|8,0:0|0:0,0:0:0:0:
111,301,179358,1,8,0:0:0:0:
111,301,179433,2,0,L|99:236,3,37.5,8|8|8|8,0:0|0:0|0:0|0:0,0:0:0:0:
164,198,179733,5,8,0:0:0:0:
175,162,179808,1,8,0:0:0:0:
173,125,179883,1,8,0:0:0:0:
155,92,179958,1,8,0:0:0:0:
127,69,180033,2,8,L|61:81,3,37.5,0|0|0|8,0:0|0:0|0:0|0:0,0:0:0:0:
