osu file format v14

[General]
AudioFilename: audio.mp3
AudioLeadIn: 0
PreviewTime:30858
Countdown: 0
SampleSet: Soft
StackLeniency: 0.2
Mode: 0
LetterboxInBreaks: 0
WidescreenStoryboard: 1

[Editor]
DistanceSpacing: 2.9
BeatDivisor: 8
GridSize: 4
TimelineZoom: 2.999998

[Metadata]
Title:Kuuchuu Bunkai
TitleUnicode:空中分解
Artist:Three
ArtistUnicode:すりぃ
Creator:Ryuusei Aika
Version:wyrio's Insane
Source:
Tags:Collage Japanese Rock J-Rock JRock Male Vocal Surii ボーカロイド ボカロ VOCALOID 鏡音レン Kagamine Len 真ひろ まめでん ま子 Akitoshi Ujimatcha -ClariS- Yorita Yoshino Yorita_Yoshino Dored Yugu Skyflame Cami wyrio Firika AncuL -Eriri- Laura -Laura- Corinn -Mikan Mikan Bazz Bazz_B X Light X_Light XLT Reform Kujinn Seto Kousuke Seto_Kousuke Djulus -MikanMyMommy gary00737 HabiHolic Haruto Haruto_Aizawa Armin A_r_M_i_N Agatsu Garden kanor Error- -Keitaro SnowNiNo_ Sylas TheKoala CoLouRed GlaZeE CoLouRed_GlaZeE caren_sk CRN
BeatmapID:2042434
BeatmapSetID:952132

[Difficulty]
HPDrainRate:5
CircleSize:4.8
OverallDifficulty:8
ApproachRate:9.1
SliderMultiplier:1.5
SliderTickRate:1

[Events]
//Background and Video events
0,0,"BG.jpg",0,0
Video,3,"video.mp4"
//Break Periods
//Storyboard Layer 0 (Background)
//Storyboard Layer 1 (Fail)
//Storyboard Layer 2 (Pass)
//Storyboard Layer 3 (Foreground)
//Storyboard Layer 4 (Overlay)
//Storyboard Sound Samples

[TimingPoints]
333,300,4,2,1,55,1,0
333,-133.333333333333,4,2,1,55,0,0
1233,-133.333333333333,4,2,1,99,0,0
1533,-133.333333333333,4,2,1,77,0,0
11433,-133.333333333333,4,2,0,44,0,0
15483,-133.333333333333,4,2,1,66,0,0
15933,-133.333333333333,4,2,1,66,0,0
16233,-133.333333333333,4,2,1,55,0,0
16383,-133.333333333333,4,2,1,66,0,0
17883,-133.333333333333,4,2,1,55,0,0
17958,-133.333333333333,4,2,1,66,0,0
18483,-133.333333333333,4,2,1,55,0,0
18633,-133.333333333333,4,2,1,66,0,0
18783,-133.333333333333,4,2,1,55,0,0
18933,-133.333333333333,4,2,1,66,0,0
19083,-133.333333333333,4,2,1,55,0,0
19233,-133.333333333333,4,2,1,66,0,0
19833,-133.333333333333,4,2,1,55,0,0
19983,-133.333333333333,4,2,1,66,0,0
20283,-133.333333333333,4,2,1,77,0,0
20733,-133.333333333333,4,2,1,66,0,0
30333,-133.333333333333,4,2,88,55,0,0
30933,-133.333333333333,4,2,88,77,0,0
31533,-100,4,2,1,99,0,0
31683,-100,4,2,1,99,0,0
38733,-100,4,2,1,99,0,0
38883,-100,4,2,1,99,0,0
41133,-100,4,2,1,99,0,0
41283,-100,4,2,1,99,0,0
47883,-100,4,2,1,99,0,0
48333,-100,4,2,99,99,0,0
48633,-100,4,2,1,77,0,0
49983,-100,4,2,1,77,0,0
50133,-100,4,2,1,88,0,0
50433,-133.333333333333,4,2,1,88,0,0
50733,-133.333333333333,4,2,1,77,0,0

[Colours]
Combo1 : 255,120,55
Combo2 : 0,49,98
Combo3 : 128,64,64

[HitObjects]
95,168,333,6,0,L|88:71,2,84.3750032186509,8|8|8,2:0|2:0|2:0,0:0:0:0:
166,217,933,1,8,2:0:0:0:
166,217,1233,6,2,L|184:212,1,14.0625005364418,2|0,0:0|0:0,3:3:0:0:
397,280,1533,5,4,1:0:0:0:
465,242,1683,1,0,0:0:0:0:
465,242,1758,1,0,0:0:0:0:
465,242,1833,2,0,P|476:276|473:298,1,56.2500021457673,2|0,3:0|0:0,0:0:0:0:
407,333,2058,1,0,0:0:0:0:
407,333,2133,6,0,P|395:296|401:267,1,56.2500021457673,0|0,1:0|0:0,0:0:0:0:
469,132,2433,1,2,3:0:0:0:
459,30,2583,1,2,0:1:0:0:
359,0,2733,6,0,L|356:57,1,56.2500021457673,0|0,1:0|0:0,0:0:0:0:
469,132,3033,2,0,L|421:100,1,56.2500021457673,2|0,3:0|0:0,0:0:0:0:
296,157,3333,5,0,1:0:0:0:
296,157,3408,1,0,0:0:0:0:
296,157,3483,1,0,0:0:0:0:
225,81,3633,2,0,L|223:118,1,28.1250010728836,2|0,3:0|0:0,0:0:0:0:
217,186,3783,1,0,0:0:0:0:
283,244,3933,5,0,1:0:0:0:
283,244,4008,1,0,0:0:0:0:
283,244,4083,1,0,0:0:0:0:
231,308,4233,1,2,3:0:0:0:
163,255,4383,2,0,L|161:287,1,28.1250010728836
160,359,4533,6,0,L|90:350,1,56.2500021457673,0|0,1:0|0:0,0:0:0:0:
15,289,4833,1,2,3:0:0:0:
8,201,4983,1,2,0:1:0:0:
82,150,5133,6,0,P|110:146|143:157,1,56.2500021457673,0|0,1:0|0:0,0:0:0:0:
161,283,5433,2,0,P|143:260|136:226,1,56.2500021457673,2|0,3:0|0:0,0:0:0:0:
236,148,5733,6,2,P|225:174|199:197,1,56.2500021457673,0|0,1:0|0:0,0:1:0:0:
231,22,6033,2,2,P|262:46|270:64,1,56.2500021457673,8|8,3:0|0:0,0:1:0:0:
391,128,6333,5,4,1:0:0:0:
391,128,6408,1,0,0:0:0:0:
391,128,6483,1,0,0:0:0:0:
317,217,6633,2,0,L|325:280,1,56.2500021457673,2|0,3:0|0:0,0:0:0:0:
431,240,6933,6,0,P|460:222|486:221,1,56.2500021457673,0|0,1:0|0:0,0:0:0:0:
418,380,7233,1,2,3:0:0:0:
473,318,7383,1,2,0:1:0:0:
431,240,7533,6,0,P|434:206|421:180,1,56.2500021457673,0|0,1:0|0:0,0:0:0:0:
274,155,7833,2,0,P|265:111|266:96,1,56.2500021457673,2|0,3:0|0:0,0:0:0:0:
452,30,8133,6,0,L|419:37,1,28.1250010728836,0|0,1:0|0:0,0:0:0:0:
369,92,8283,1,0,0:0:0:0:
369,92,8358,1,0,0:0:0:0:
369,92,8433,2,0,L|399:99,1,28.1250010728836,2|0,3:0|0:0,0:0:0:0:
452,30,8583,2,0,L|447:-9,1,28.1250010728836
489,114,8733,6,0,L|479:186,1,56.2500021457673,0|0,1:0|0:0,0:0:0:0:
429,284,8958,1,0,0:0:0:0:
429,284,9033,2,0,L|421:211,1,56.2500021457673,2|0,3:0|0:0,0:0:0:0:
347,304,9258,1,0,0:0:0:0:
347,304,9333,6,0,L|336:370,1,56.2500021457673,0|0,1:0|0:0,0:0:0:0:
202,384,9633,1,2,3:0:0:0:
256,228,9783,1,2,0:0:0:0:
328,232,9933,5,2,3:0:0:0:
187,225,10083,2,0,L|178:194,1,28.1250010728836,2|2,0:0|0:0,0:0:0:0:
256,228,10233,5,2,3:0:0:0:
118,222,10383,1,2,0:0:0:0:
187,225,10533,5,2,3:0:0:0:
49,219,10683,1,2,3:0:0:0:
118,222,10833,6,0,L|111:188,1,28.1250010728836,8|8,0:0|0:0,0:0:0:0:
86,126,10983,2,0,P|94:99|94:97,1,28.1250010728836,8|8,0:0|0:0,0:0:0:0:
61,26,11133,5,8,0:0:0:0:
145,33,11433,5,8,0:0:0:0:
173,36,12033,5,8,0:0:0:0:
200,40,12633,5,8,0:0:0:0:
224,45,13233,5,8,0:0:0:0:
252,48,13833,5,8,0:0:0:0:
279,52,14433,5,8,0:0:0:0:
306,55,15033,5,8,0:0:0:0:
306,55,15333,1,2,0:0:0:0:
384,100,15483,6,0,P|397:132|389:170,2,56.2500021457673,8|8|8,0:0|0:0|0:0,0:0:0:0:
306,55,15933,5,12,0:0:0:0:
105,41,16233,5,2,0:0:0:0:
105,41,16383,1,2,0:0:0:0:
204,48,16533,1,0,1:0:0:0:
204,48,16683,1,2,0:0:0:0:
31,71,16983,5,0,0:0:0:0:
31,71,17133,2,0,L|26:128,1,56.2500021457673,0|2,1:0|0:0,0:0:0:0:
107,168,17433,2,0,L|114:227,1,56.2500021457673,2|2,0:0|0:0,0:0:0:0:
2,292,17733,6,0,P|43:279|66:286,1,56.2500021457673,0|2,1:0|0:0,0:0:0:0:
76,303,17958,1,0,0:0:0:0:
76,303,18033,2,0,L|133:316,1,56.2500021457673,2|0,0:0|0:0,0:0:0:0:
198,190,18333,6,0,L|190:258,1,56.2500021457673,0|0,1:0|0:0,0:0:0:0:
294,200,18633,2,0,L|283:128,1,56.2500021457673,2|2,0:0|0:0,0:0:0:0:
197,93,18933,5,0,1:0:0:0:
197,93,19083,1,2,0:0:0:0:
260,43,19233,2,0,L|326:35,1,56.2500021457673,2|0,0:0|0:0,0:0:0:0:
373,92,19533,6,0,P|405:102|429:102,2,56.2500021457673,0|0|2,1:0|0:0|0:0,0:0:0:0:
315,36,19983,5,2,0:0:0:0:
427,102,20283,6,0,L|418:45,2,56.2500021457673,8|8|8,0:0|0:0|0:0,0:0:0:0:
274,115,20733,6,0,B|203:135|229:91|150:116,1,112.500004291535,0|8,1:0|0:0,0:0:0:0:
347,162,21183,1,0,0:0:0:0:
347,162,21333,5,0,1:0:0:0:
305,229,21483,2,0,P|302:264|309:295,1,56.2500021457673,0|8,1:0|0:0,0:0:0:0:
397,356,21783,1,0,0:0:0:0:
397,356,21933,6,0,L|332:350,1,56.2500021457673,0|0,1:0|0:0,0:0:0:0:
221,373,22233,1,8,0:0:0:0:
221,373,22383,2,0,P|253:362|276:346,1,56.2500021457673,8|0,0:0|0:0,0:0:0:0:
165,321,22683,5,0,1:0:0:0:
99,345,22833,1,8,0:0:0:0:
53,289,22983,1,0,0:0:0:0:
98,229,23133,6,0,B|105:196|105:196|94:157,1,56.2500021457673,0|0,1:0|0:0,0:0:0:0:
40,67,23433,2,0,B|34:96|34:96|48:142,1,56.2500021457673,8|0,0:0|0:0,0:0:0:0:
96,12,23733,5,0,1:0:0:0:
147,71,23883,1,0,1:0:0:0:
199,18,24033,1,8,0:0:0:0:
234,47,24183,1,0,0:0:0:0:
271,26,24333,5,0,1:0:0:0:
339,61,24483,1,0,1:0:0:0:
324,134,24633,1,8,0:0:0:0:
251,146,24783,2,0,P|247:187|254:207,1,56.2500021457673,8|0,0:0|0:0,0:0:0:0:
318,223,25083,5,0,1:0:0:0:
393,184,25233,1,8,1:2:0:0:
324,134,25383,1,0,1:0:0:0:
248,171,25533,6,0,L|259:297,1,112.500004291535,4|8,1:0|0:0,0:0:0:0:
320,335,25983,1,0,0:0:0:0:
320,335,26133,5,0,1:0:0:0:
397,297,26283,2,0,L|388:370,1,56.2500021457673,0|8,0:0|0:0,0:0:0:0:
508,199,26583,1,0,0:0:0:0:
512,233,26733,5,0,1:0:0:0:
477,292,26883,1,0,0:0:0:0:
397,297,27033,1,8,0:0:0:0:
343,212,27183,2,0,L|353:152,1,56.2500021457673,8|0,0:0|1:0,0:0:0:0:
426,140,27483,5,0,1:0:0:0:
365,80,27633,1,8,0:0:0:0:
441,61,27783,1,0,0:0:0:0:
379,4,27933,6,0,B|350:-3|350:-3|309:8,1,56.2500021457673,0|0,1:0|0:0,0:0:0:0:
226,119,28233,2,0,B|198:136|164:123,1,56.2500021457673,8|0,0:0|0:0,0:0:0:0:
94,75,28533,5,0,1:0:0:0:
152,125,28683,1,0,0:0:0:0:
100,182,28833,1,8,0:0:0:0:
42,133,28983,1,0,0:0:0:0:
129,201,29133,5,0,1:0:0:0:
69,265,29283,1,0,1:0:0:0:
127,316,29433,1,8,0:0:0:0:
97,379,29583,1,8,0:0:0:0:
119,376,29733,5,0,0:0:0:0:
119,376,29883,2,0,L|181:385,2,56.2500021457673,0|8|8,1:0|0:0|0:0,0:0:0:0:
273,219,30333,6,0,L|280:244,14,14.0625005364418,2|0|0|0|0|0|0|0|0|0|0|0|0|0|0,1:0|0:0|0:0|0:0|0:0|0:0|0:0|0:0|0:0|0:0|0:0|0:0|0:0|0:0|0:0,0:0:0:0:
334,110,30933,6,0,P|348:153|338:181,1,56.2500021457673,8|0,1:0|0:0,0:0:0:0:
273,219,31158,2,0,P|261:172|272:149,1,56.2500021457673,8|0,1:0|0:0,0:0:0:0:
334,110,31383,2,0,L|375:118,1,28.1250010728836,8|0,1:0|0:0,0:0:0:0:
451,125,31533,6,0,L|444:28,1,75,4|0,1:0|0:0,0:0:0:0:
354,257,31833,2,0,L|441:299,1,75,2|0,3:0|0:0,0:0:0:0:
289,107,32133,2,0,L|208:161,1,75,0|0,1:0|0:0,0:0:0:0:
404,192,32433,5,2,3:0:0:0:
324,184,32583,1,0,3:0:0:0:
372,114,32733,5,0,1:0:0:0:
487,193,32883,1,0,0:0:0:0:
411,308,33033,1,2,3:0:0:0:
487,193,33183,2,0,P|435:194|390:228,1,75,0|0,1:0|0:0,0:0:0:0:
411,308,33483,6,0,L|416:352,1,37.5,0|0,1:0|0:0,0:0:0:0:
390,231,33633,2,0,L|419:198,1,37.5,2|0,3:0|0:0,0:0:0:0:
339,291,33783,2,0,L|293:272,1,37.5
210,243,33933,6,0,L|199:333,1,75,0|0,1:0|0:0,0:0:0:0:
258,359,34233,1,2,3:0:0:0:
200,317,34383,1,0,0:0:0:0:
142,356,34533,5,0,1:0:0:0:
85,314,34683,1,0,0:0:0:0:
104,250,34833,1,2,3:0:0:0:
224,168,34983,6,0,B|234:130|234:130|218:75,1,75,0|0,0:0|1:0,0:0:0:0:
176,21,35283,6,0,L|158:67,1,37.5
96,27,35433,2,0,L|79:73,1,37.5,2|0,3:0|0:0,0:0:0:0:
15,29,35583,2,0,L|-2:71,1,37.5,0|0,1:0|0:0,0:0:0:0:
47,134,35733,5,0,1:0:0:0:
167,81,35883,1,8,1:2:0:0:
83,62,36033,1,8,1:2:0:0:
173,163,36183,1,0,1:0:0:0:
100,192,36333,6,0,B|89:226|89:226|102:277,1,75,4|0,1:0|0:0,0:0:0:0:
167,81,36633,2,0,B|143:54|143:54|92:40,1,75,2|0,3:0|0:0,0:0:0:0:
230,195,36933,5,0,1:0:0:0:
298,85,37083,1,0,3:0:0:0:
230,195,37233,2,0,B|264:187|264:187|302:150,1,75,2|0,3:0|0:0,0:0:0:0:
310,49,37533,6,0,P|297:91|297:101,1,37.5,0|0,1:0|0:0,0:0:0:0:
410,49,37683,2,0,P|380:16|371:11,1,37.5,0|0,3:0|3:0,0:0:0:0:
360,136,37833,2,0,P|402:126|411:121,1,37.5,2|0,3:0|0:0,0:0:0:0:
472,106,37983,2,0,L|460:212,1,75,0|0,1:0|1:0,0:0:0:0:
438,256,38283,5,0,1:0:0:0:
366,219,38433,1,8,1:2:0:0:
372,300,38583,1,8,1:2:0:0:
444,338,38733,2,0,L|469:328,1,18.75,6|0,1:0|0:0,0:0:0:0:
186,189,39033,6,0,L|208:184,1,18.75,0|0,1:0|0:0,0:0:0:0:
212,167,39183,1,2,1:0:0:0:
166,279,39483,5,2,1:0:0:0:
90,180,39783,5,6,1:0:0:0:
212,167,40083,5,2,1:0:0:0:
251,101,40233,1,0,3:0:0:0:
251,101,40383,2,0,L|247:61,1,37.5,2|0,3:1|3:0,0:0:0:0:
179,22,40533,1,0,3:0:0:0:
179,22,40683,6,0,L|141:19,1,37.5,2|2,3:0|3:0,0:0:0:0:
61,125,40833,1,2,3:0:0:0:
61,125,40908,1,2,3:0:0:0:
61,125,40983,1,8,0:0:0:0:
61,125,41058,1,8,0:0:0:0:
61,125,41133,6,0,L|68:28,1,75,4|0,1:0|0:0,0:0:0:0:
158,257,41433,2,0,L|71:299,1,75,2|0,3:0|0:0,0:0:0:0:
223,107,41733,2,0,L|304:161,1,75,0|0,1:0|0:0,0:0:0:0:
108,192,42033,5,2,3:0:0:0:
188,184,42183,1,0,0:0:0:0:
140,114,42333,5,0,1:0:0:0:
25,193,42483,1,0,0:0:0:0:
101,308,42633,1,2,3:0:0:0:
25,193,42783,2,0,P|77:194|122:228,1,75,0|0,1:0|0:0,0:0:0:0:
101,308,43083,6,0,L|96:352,1,37.5,0|0,1:0|0:0,0:0:0:0:
122,231,43233,2,0,L|93:198,1,37.5,2|0,3:0|0:0,0:0:0:0:
173,291,43383,2,0,L|219:272,1,37.5,0|0,1:0|0:0,0:0:0:0:
302,243,43533,6,0,L|313:333,1,75,4|0,1:2|0:0,0:0:0:0:
254,359,43833,1,2,3:0:0:0:
312,317,43983,1,0,0:0:0:0:
370,356,44133,5,0,1:0:0:0:
427,314,44283,1,0,1:0:0:0:
408,250,44433,1,2,3:0:0:0:
288,168,44583,2,0,B|278:130|278:130|294:75,1,75,2|0,0:0|1:0,0:0:0:0:
336,21,44883,6,0,L|354:67,1,37.5,0|0,1:0|0:0,0:0:0:0:
416,27,45033,2,0,L|433:73,1,37.5,2|0,3:0|0:0,0:0:0:0:
497,29,45183,2,0,L|514:71,1,37.5,0|0,1:0|0:0,0:0:0:0:
465,134,45333,5,0,1:0:0:0:
345,81,45483,1,8,1:2:0:0:
429,62,45633,1,8,1:2:0:0:
339,163,45783,1,0,1:0:0:0:
412,192,45933,6,0,B|423:226|423:226|410:277,1,75,4|0,1:0|0:0,0:0:0:0:
345,81,46233,2,0,B|369:54|369:54|420:40,1,75,2|0,3:0|0:0,0:0:0:0:
282,195,46533,5,0,1:0:0:0:
214,85,46683,1,0,1:0:0:0:
282,195,46833,2,0,B|248:187|248:187|210:150,1,75,2|0,3:0|0:0,0:0:0:0:
115,128,47133,6,0,P|133:133|152:136,1,37.5,0|0,1:0|0:0,0:0:0:0:
213,84,47283,2,0,P|209:65|201:49,1,37.5,0|0,1:0|3:0,0:0:0:0:
125,20,47433,2,0,P|112:33|102:49,1,37.5,2|0,3:0|0:0,0:0:0:0:
40,106,47583,2,0,L|52:212,1,75,0|0,1:0|1:0,0:0:0:0:
74,256,47883,5,0,1:0:0:0:
140,300,48033,1,8,0:0:0:0:
146,219,48183,1,8,0:0:0:0:
68,338,48333,2,0,L|43:328,1,18.75,12|0,1:0|0:0,0:0:0:0:
270,116,49983,6,0,L|265:67,1,37.5,2|2,3:0|3:0,0:0:0:0:
333,22,50133,1,8,0:0:0:0:
333,22,50208,1,8,0:0:0:0:
333,22,50283,1,8,0:0:0:0:
333,22,50358,1,8,0:0:0:0:
333,22,50433,2,0,L|398:29,1,56.25,8|0,0:0|0:0,0:0:0:0:
467,74,50733,6,0,L|478:141,1,56.2500021457673,4|0,1:0|0:0,0:0:0:0:
406,194,51033,2,0,L|400:259,1,56.2500021457673,2|0,3:0|0:0,0:0:0:0:
493,339,51333,6,0,B|469:323|433:333,1,56.2500021457673,0|0,1:0|0:0,0:0:0:0:
377,370,51633,1,2,3:0:0:0:
287,283,51783,1,2,0:1:0:0:
287,283,51858,1,0,0:0:0:0:
287,283,51933,6,0,L|279:340,1,56.2500021457673,0|0,1:0|0:0,0:0:0:0:
167,178,52233,2,0,L|121:142,1,56.2500021457673,2|0,3:0|0:0,0:0:0:0:
318,127,52533,6,0,L|371:105,1,56.2500021457673,0|2,1:0|0:0,0:0:0:0:
454,94,52758,1,0,0:0:0:0:
454,94,52833,2,0,L|446:151,1,56.2500021457673,2|2,3:0|0:0,0:0:0:0:
405,214,53058,1,0,0:0:0:0:
413,232,53133,6,0,L|437:254,2,28.1250010728836,4|0|0,1:0|0:0|0:0,0:0:0:0:
331,193,53433,1,2,3:0:0:0:
391,331,53583,2,0,L|397:355,2,14.0625005364418,2|0|0,0:0|0:0|0:0,0:0:0:0:
319,313,53733,5,0,1:0:0:0:
227,240,53883,2,0,L|227:258,1,14.0625005364418
210,246,53958,2,0,L|215:268,1,14.0625005364418
196,256,54033,1,2,3:0:0:0:
139,326,54183,1,2,0:1:0:0:
227,240,54333,6,0,L|189:232,1,28.1250010728836,0|0,1:0|0:0,0:0:0:0:
155,137,54483,2,0,L|167:173,1,28.1250010728836,0|0,0:0|3:0,0:0:0:0:
106,250,54633,2,0,L|131:221,1,28.1250010728836,2|0,3:0|0:0,0:0:0:0:
155,137,54783,2,0,L|141:74,1,56.2500021457673,0|0,0:0|1:0,0:0:0:0:
167,16,55083,5,0,0:0:0:0:
167,16,55233,1,8,0:0:0:0:
167,16,55383,1,8,0:0:0:0:
98,32,55533,6,0,L|38:21,1,56.2500021457673,0|0,1:0|0:0,0:0:0:0:
167,16,55833,2,0,B|194:9|194:9|222:12,1,56.2500021457673,2|2,3:0|0:0,0:0:0:0:
245,34,56058,1,2,0:0:0:0:
260,56,56133,2,0,L|322:45,1,56.2500021457673,0|0,1:0|0:0,0:0:0:0:
394,74,56433,5,2,3:0:0:0:
394,74,56583,1,2,0:1:0:0:
365,154,56733,6,0,B|336:148|336:148|309:159,1,56.2500021457673,0|2,1:0|0:0,0:0:0:0:
390,267,57033,2,0,B|409:244|409:244|413:216,1,56.2500021457673,2|2,3:0|0:0,0:0:0:0:
280,233,57333,6,0,B|289:261|289:261|312:278,1,56.2500021457673,0|2,1:0|0:0,0:0:0:0:
468,330,57633,2,0,L|475:353,1,14.0625005364418,0|0,1:0|0:0,0:0:0:0:
453,349,57708,2,0,L|451:375,1,14.0625005364418,0|0,1:0|0:0,0:0:0:0:
431,351,57783,2,0,L|421:376,1,14.0625005364418,0|0,1:0|0:0,0:0:0:0:
411,343,57858,2,0,L|396:360,1,14.0625005364418,0|0,1:0|0:0,0:0:0:0:
404,323,57933,6,0,B|377:350|345:344,1,56.2500021457673,4|0,1:0|0:0,0:0:0:0:
258,332,58233,1,2,3:0:0:0:
258,332,58383,6,0,B|271:361|271:361|265:390,1,56.2500021457673,0|2,0:0|1:2,0:0:0:0:
170,327,58683,1,0,0:0:0:0:
170,327,58833,2,0,L|165:289,1,28.1250010728836,2|0,3:0|0:0,0:0:0:0:
81,266,58983,6,0,L|70:278,2,14.0625005364418
113,186,59133,2,0,L|109:168,2,14.0625005364418,2|0|2,3:2|0:0|0:0,0:0:0:0:
174,255,59283,2,0,L|179:285,2,28.1250010728836,2|2|2,0:0|0:0|0:0,0:0:0:0:
174,255,59583,6,0,L|214:250,1,28.1250010728836,2|2,3:0|3:0,0:0:0:0:
257,176,59733,1,2,3:0:0:0:
257,176,59808,1,2,3:0:0:0:
257,176,59883,1,2,3:0:0:0:
257,176,59958,1,2,3:0:0:0:
257,176,60033,2,0,L|288:176,1,28.1250010728836,8|8,0:0|0:0,0:0:0:0:
372,252,60183,2,0,L|334:245,1,28.1250010728836,8|8,0:0|0:0,0:0:0:0:
