osu file format v14

[General]
AudioFilename: audio.mp3
AudioLeadIn: 0
PreviewTime:30858
Countdown: 0
SampleSet: Soft
StackLeniency: 0.2
Mode: 0
LetterboxInBreaks: 0
WidescreenStoryboard: 1

[Editor]
DistanceSpacing: 1.4
BeatDivisor: 4
GridSize: 4
TimelineZoom: 3.399999

[Metadata]
Title:Kuuchuu Bunkai
TitleUnicode:空中分解
Artist:Three
ArtistUnicode:すりぃ
Creator:Ryuusei Aika
Version:kanor's Extra
Source:
Tags:Collage Japanese Rock J-Rock JRock Male Vocal Surii ボーカロイド ボカロ VOCALOID 鏡音レン Kagamine Len 真ひろ まめでん ま子 Akitoshi Ujimatcha -ClariS- Yorita Yoshino Yorita_Yoshino Dored Yugu Skyflame Cami wyrio Firika AncuL -Eriri- Laura -Laura- Corinn -Mikan Mikan Bazz Bazz_B X Light X_Light XLT Reform Kujinn Seto Kousuke Seto_Kousuke Djulus -MikanMyMommy gary00737 HabiHolic Haruto Haruto_Aizawa Armin A_r_M_i_N Agatsu Garden kanor Error- -Keitaro SnowNiNo_ Sylas TheKoala CoLouRed GlaZeE CoLouRed_GlaZeE caren_sk CRN
BeatmapID:1988249
BeatmapSetID:952132

[Difficulty]
HPDrainRate:6
CircleSize:4.5
OverallDifficulty:8.5
ApproachRate:9.2
SliderMultiplier:1.8
SliderTickRate:1

[Events]
//Background and Video events
0,0,"BG.jpg",0,0
Video,3,"video.mp4"
//Break Periods
2,48682,49373
//Storyboard Layer 0 (Background)
//Storyboard Layer 1 (Fail)
//Storyboard Layer 2 (Pass)
//Storyboard Layer 3 (Foreground)
//Storyboard Layer 4 (Overlay)
//Storyboard Sound Samples

[TimingPoints]
333,300,4,2,1,55,1,0
1158,-100,4,2,1,55,0,0
1233,-100,4,2,1,99,0,0
1458,-100,4,2,1,5,0,0
1533,-100,4,2,1,77,0,0
9933,-100,4,2,1,77,0,0
11133,-100,4,2,1,77,0,0
11433,-100,4,2,0,44,0,0
15483,-100,4,2,1,66,0,0
15933,-166.666666666667,4,2,1,55,0,0
19533,-100,4,2,1,55,0,0
20283,-100,4,2,1,77,0,0
20733,-100,4,2,1,66,0,0
30333,-500,4,2,88,55,0,0
30933,-66.6666666666667,4,2,88,77,0,0
31383,-33.3333333333333,4,2,88,77,0,0
31533,-83.3333333333333,4,2,1,99,0,0
38733,-83.3333333333333,4,2,1,88,0,0
40383,-83.3333333333333,4,2,1,66,0,0
40683,-83.3333333333333,4,2,1,77,0,0
41133,-83.3333333333333,4,2,1,99,0,0
47883,-83.3333333333333,4,2,1,99,0,0
48333,-83.3333333333333,4,2,99,99,0,0
49983,-83.3333333333333,4,2,1,66,0,0
50133,-83.3333333333333,4,2,1,88,0,0
50283,-83.3333333333333,4,2,1,66,0,0
50733,-100,4,2,1,77,0,0
55833,-100,4,2,1,77,0,0
56208,-100,4,2,1,77,0,0
57333,-100,4,2,1,77,0,0
57670,-100,4,2,1,11,0,0
57708,-100,4,2,1,77,0,0
57745,-100,4,2,1,11,0,0
57783,-100,4,2,1,77,0,0
57820,-100,4,2,1,11,0,0
57858,-100,4,2,1,77,0,0
57895,-100,4,2,1,11,0,0
57933,-100,4,2,1,77,0,0

[Colours]
Combo1 : 255,120,55
Combo2 : 0,49,98
Combo3 : 128,64,64

[HitObjects]
256,192,333,12,0,1158,0:0:0:0:
260,328,1233,6,2,B|236:324|208:336|208:336|180:316|180:316|148:328|98:326,1,135,2|0,0:0|0:0,3:3:0:0:
20,352,1533,6,0,P|44:360|92:344,1,45,4|0,1:0|0:0,0:0:0:0:
64,200,1683,1,2,0:0:0:0:
64,200,1758,1,2,0:0:0:0:
64,200,1833,2,0,L|52:296,1,90,2|0,3:0|0:0,0:0:0:0:
188,372,2133,1,0,1:0:0:0:
188,372,2283,2,0,L|176:282,1,90,2|2,0:0|3:0,0:0:0:0:
160,128,2583,1,2,0:1:0:0:
160,128,2658,1,0,0:0:0:0:
160,128,2733,5,0,1:0:0:0:
224,160,2883,1,0,0:0:0:0:
296,148,3033,1,2,3:0:0:0:
340,92,3183,1,0,0:0:0:0:
292,40,3333,5,0,1:0:0:0:
296,148,3483,1,0,0:0:0:0:
384,216,3633,1,2,3:0:0:0:
384,216,3708,1,2,0:0:0:0:
384,216,3783,2,0,P|412:216|448:208,1,45,2|0,0:0|0:0,0:0:0:0:
412,364,3933,5,4,1:2:0:0:
508,324,4083,1,0,0:0:0:0:
508,308,4158,1,0,0:0:0:0:
508,296,4233,2,0,P|460:280|420:296,1,90,2|0,3:0|0:0,0:0:0:0:
252,360,4533,1,2,1:2:0:0:
252,360,4683,2,0,P|300:376|340:360,1,90,0|2,0:0|3:0,0:0:0:0:
300,224,4983,1,2,0:1:0:0:
300,240,5058,1,0,0:0:0:0:
300,256,5133,5,0,1:0:0:0:
232,200,5283,1,0,0:0:0:0:
300,272,5433,5,2,3:0:0:0:
368,192,5583,1,0,0:0:0:0:
300,292,5733,5,0,1:0:0:0:
296,148,5883,1,2,0:0:0:0:
168,228,6033,1,8,3:2:0:0:
168,252,6108,1,2,0:0:0:0:
180,276,6183,2,0,P|212:280|232:272,1,45,10|0,0:0|0:0,0:0:0:0:
488,156,6333,6,0,P|456:160|432:144,1,45,4|0,1:0|0:0,0:0:0:0:
456,0,6483,1,0,0:0:0:0:
456,0,6558,1,0,0:0:0:0:
456,0,6633,2,0,L|468:96,1,90,2|0,3:0|0:0,0:0:0:0:
296,148,6933,1,2,1:2:0:0:
296,148,7083,2,0,L|307:58,1,90,0|2,0:0|3:0,0:0:0:0:
88,28,7383,1,2,0:1:0:0:
88,28,7458,1,0,0:0:0:0:
88,28,7533,5,0,1:0:0:0:
56,92,7683,1,0,0:0:0:0:
68,164,7833,1,2,3:0:0:0:
124,208,7983,1,0,0:0:0:0:
176,160,8133,5,0,1:0:0:0:
68,164,8283,1,2,0:0:0:0:
0,252,8433,1,2,3:0:0:0:
0,252,8508,1,2,0:0:0:0:
0,252,8583,2,0,P|0:280|8:316,1,45,2|0,0:0|0:0,0:0:0:0:
116,380,8733,5,4,1:2:0:0:
184,332,8883,1,0,0:0:0:0:
168,320,8958,1,0,0:0:0:0:
148,312,9033,2,0,P|101:307|60:332,1,90,2|2,3:0|0:0,0:0:0:0:
256,368,9333,1,0,1:0:0:0:
280,280,9483,1,0,0:0:0:0:
436,360,9633,2,0,P|389:364|348:340,1,90,2|2,3:0|0:0,0:0:0:0:
404,296,9858,1,0,0:0:0:0:
404,296,9933,5,2,3:0:0:0:
512,376,10083,1,2,0:0:0:0:
348,244,10233,5,2,3:0:0:0:
512,276,10383,1,2,0:0:0:0:
292,192,10533,6,0,P|310:174|352:172,1,45,2|0,3:0|0:0,0:0:0:0:
512,188,10683,2,0,P|493:170|452:168,1,45,2|0,3:0|0:0,0:0:0:0:
404,64,10833,5,8,0:0:0:0:
405,108,10908,1,8,0:0:0:0:
406,153,10983,1,8,0:0:0:0:
407,198,11058,1,8,0:0:0:0:
432,232,11133,5,8,0:0:0:0:
475,164,11433,1,8,0:0:0:0:
432,232,11733,5,0,0:0:0:0:
512,235,12033,1,8,0:0:0:0:
432,232,12333,5,0,0:0:0:0:
469,302,12633,1,8,0:0:0:0:
256,364,13233,5,8,0:0:0:0:
80,232,13533,5,0,0:0:0:0:
37,164,13833,1,8,0:0:0:0:
80,232,14133,5,0,0:0:0:0:
0,235,14433,1,8,0:0:0:0:
80,232,14733,5,0,0:0:0:0:
43,302,15033,1,8,0:0:0:0:
256,364,15333,1,2,1:2:0:0:
256,364,15483,6,0,L|264:308,1,45,8|0,0:0|0:0,0:0:0:0:
260,220,15633,2,0,L|252:164,1,45,8|0,0:0|0:0,0:0:0:0:
248,64,15783,2,0,L|256:8,1,45,8|0,0:0|0:0,0:0:0:0:
192,128,15933,5,12,0:0:0:0:
192,128,16233,2,0,P|160:128|132:116,1,53.9999983520508,2|2,0:0|0:0,0:0:0:0:
112,0,16533,1,0,1:0:0:0:
96,68,16683,1,2,0:0:0:0:
0,152,16833,2,0,P|32:152|60:164,1,53.9999983520508,2|0,0:0|0:0,0:0:0:0:
84,324,17133,5,0,1:0:0:0:
97,292,17283,1,2,0:0:0:0:
94,257,17433,1,2,0:0:0:0:
76,228,17583,1,2,0:0:0:0:
12,308,17733,5,0,1:0:0:0:
6,324,17883,1,2,0:0:0:0:
7,342,18033,1,2,0:0:0:0:
16,356,18183,1,0,0:0:0:0:
84,324,18333,6,0,L|152:316,1,53.9999983520508,0|0,1:0|0:0,0:0:0:0:
312,248,18633,2,0,L|336:188,1,53.9999983520508,2|2,0:0|0:0,0:0:0:0:
428,324,18933,2,0,L|360:316,1,53.9999983520508,0|2,0:0|0:0,0:0:0:0:
200,248,19233,2,0,L|176:188,1,53.9999983520508,2|0,0:0|0:0,0:0:0:0:
240,40,19533,5,0,1:0:0:0:
272,40,19683,1,0,0:0:0:0:
256,20,19833,1,2,0:0:0:0:
256,65,19983,1,2,0:0:0:0:
256,20,20283,6,0,L|256:80,1,45,8|0,0:0|0:0,0:0:0:0:
160,120,20433,2,0,P|184:120|213:137,1,45,8|0,0:0|0:0,0:0:0:0:
352,120,20583,2,0,P|327:120|298:137,1,45,8|0,0:0|0:0,0:0:0:0:
256,192,20733,5,4,1:2:0:0:
284,200,21033,2,0,B|328:212|328:212|392:192,1,90,8|0,0:0|0:0,0:0:0:0:
500,268,21333,1,0,1:0:0:0:
500,141,21483,1,2,1:2:0:0:
472,276,21633,2,0,B|428:288|428:288|364:268,1,90,8|0,0:0|0:0,0:0:0:0:
128,372,21933,5,0,1:0:0:0:
180,316,22083,1,0,0:0:0:0:
260,308,22233,1,8,0:0:0:0:
320,360,22383,2,0,B|364:348|364:348|428:368,1,90
320,360,22683,1,0,1:0:0:0:
256,236,22833,1,8,0:0:0:0:
312,88,22983,1,0,0:0:0:0:
356,156,23133,6,0,P|292:164|232:108,1,135,0|0,1:0|0:0,0:0:0:0:
232,164,23433,2,0,P|216:128|232:76,1,90,8|0,0:0|0:0,0:0:0:0:
12,48,23733,5,0,1:0:0:0:
92,16,23883,1,0,1:0:0:0:
172,44,24033,1,8,0:0:0:0:
9,170,24183,5,0,0:0:0:0:
9,170,24258,1,0,0:0:0:0:
9,170,24333,1,0,1:0:0:0:
120,112,24483,1,0,1:0:0:0:
232,164,24633,1,8,0:0:0:0:
0,296,24783,1,8,0:0:0:0:
0,296,25083,6,0,P|28:300|56:316,1,45,0|0,1:0|0:0,0:0:0:0:
152,228,25233,2,0,P|168:250|177:281,1,45,8|0,1:2|0:0,0:0:0:0:
324,272,25383,2,0,P|320:300|304:328,1,45,0|0,1:0|0:0,0:0:0:0:
236,364,25533,5,4,1:0:0:0:
220,348,25683,1,0,0:0:0:0:
236,332,25833,1,8,0:0:0:0:
251,348,25983,1,0,0:0:0:0:
432,272,26133,5,0,1:0:0:0:
423,239,26283,1,0,0:0:0:0:
456,230,26433,1,8,0:0:0:0:
463,262,26583,1,0,0:0:0:0:
232,240,26733,5,0,1:0:0:0:
212,167,26883,1,0,0:0:0:0:
284,147,27033,1,8,0:0:0:0:
300,218,27183,1,8,0:0:0:0:
48,196,27333,5,0,1:0:0:0:
8,50,27483,1,0,1:0:0:0:
184,152,27633,1,8,0:0:0:0:
152,10,27783,1,0,0:0:0:0:
105,278,27933,5,4,1:0:0:0:
169,342,28083,1,0,0:0:0:0:
256,365,28233,1,8,0:0:0:0:
342,342,28383,1,0,0:0:0:0:
406,278,28533,5,0,1:0:0:0:
429,192,28683,1,0,0:0:0:0:
406,105,28833,1,8,0:0:0:0:
342,41,28983,1,0,0:0:0:0:
256,18,29133,5,0,1:0:0:0:
169,41,29283,1,0,1:0:0:0:
105,105,29433,1,8,0:0:0:0:
82,191,29583,1,8,0:0:0:0:
82,191,29883,5,0,1:0:0:0:
342,41,30033,1,8,0:0:0:0:
342,342,30183,1,8,0:0:0:0:
256,172,30333,6,0,B|253:180|253:180|260:184|260:184|253:192|253:192|260:196|260:196|253:204|253:204|260:208|260:208|253:216|253:216,1,63,2|0,1:0|0:0,0:0:0:0:
342,343,30933,6,0,B|334:370|334:370|300:311|341:269,1,135.000005149842,8|0,1:0|0:0,0:0:0:0:
343,41,31158,2,0,B|371:34|371:34|337:93|280:79,1,135.000005149842,8|0,1:0|0:0,0:0:0:0:
82,191,31383,2,0,B|62:171|62:171|130:171|146:227,1,135.000005149842,8|0,1:0|0:0,0:0:0:0:
196,272,31533,6,0,B|148:252|148:252|93:269,1,107.999996704102,4|0,1:0|0:0,0:0:0:0:
28,384,31833,2,0,B|69:352|69:352|81:296,1,107.999996704102,2|0,3:0|0:0,0:0:0:0:
0,180,32133,5,0,1:0:0:0:
0,296,32283,1,2,3:0:0:0:
4,276,32358,1,2,3:0:0:0:
8,256,32433,1,2,3:0:0:0:
4,104,32583,1,0,0:0:0:0:
176,28,32733,5,0,1:0:0:0:
144,224,32883,1,0,0:0:0:0:
84,64,33033,1,2,3:0:0:0:
84,48,33108,1,2,3:0:0:0:
84,32,33183,1,0,1:0:0:0:
276,184,33333,5,0,0:0:0:0:
80,152,33483,1,0,1:0:0:0:
232,100,33633,1,2,3:0:0:0:
164,148,33783,1,0,0:0:0:0:
320,288,33933,6,0,P|268:256|224:260,1,107.999996704102,0|0,1:0|0:0,0:0:0:0:
260,328,34158,1,2,3:0:0:0:
260,328,34233,1,2,3:0:0:0:
312,380,34383,1,0,0:0:0:0:
376,160,34533,5,0,1:0:0:0:
400,268,34683,1,0,0:0:0:0:
424,368,34833,1,2,3:0:0:0:
504,52,34983,5,2,0:0:0:0:
504,52,35058,1,2,0:0:0:0:
504,52,35133,1,0,1:0:0:0:
432,96,35283,1,0,0:0:0:0:
348,80,35433,1,2,3:0:0:0:
312,4,35583,1,0,0:0:0:0:
312,4,35733,5,0,1:0:0:0:
258,118,35883,1,8,1:2:0:0:
132,142,36033,1,8,1:2:0:0:
24,76,36183,1,0,1:0:0:0:
0,276,36333,6,0,P|43:288|104:236,1,107.999996704102,4|0,1:0|0:0,0:0:0:0:
164,99,36633,2,0,P|131:130|146:209,1,107.999996704102,2|0,3:0|0:0,0:0:0:0:
264,356,36933,5,0,1:0:0:0:
94,258,37083,1,2,3:0:0:0:
95,285,37158,1,2,3:0:0:0:
96,308,37233,1,2,3:0:0:0:
256,236,37383,1,0,0:0:0:0:
100,380,37533,5,0,1:0:0:0:
172,268,37683,1,2,3:0:0:0:
173,295,37758,1,2,3:0:0:0:
174,318,37833,1,2,3:0:0:0:
304,292,37983,1,2,0:0:0:0:
492,384,38133,5,0,0:0:0:0:
440,324,38283,1,0,1:0:0:0:
448,252,38433,1,8,1:2:0:0:
512,208,38583,1,8,1:2:0:0:
500,16,38733,6,0,B|500:56|500:56|512:76|512:76|508:136,1,107.999996704102,6|0,1:0|0:0,0:0:0:0:
512,208,39033,1,0,1:0:0:0:
484,24,39183,6,0,B|484:64|484:64|496:84|496:84|492:144,1,107.999996704102,2|0,1:0|0:0,0:0:0:0:
468,36,39483,2,0,B|468:76|468:76|480:96|480:96|476:156,1,107.999996704102,2|0,1:0|0:0,0:0:0:0:
268,120,39783,6,2,B|312:125|312:125|336:140|336:140|376:144,1,107.999996704102,6|0,1:0|0:0,0:0:0:0:
324,28,40083,1,2,1:0:0:0:
188,48,40233,1,0,3:0:0:0:
160,304,40383,5,0,1:0:0:0:
160,304,40458,1,0,1:0:0:0:
160,304,40533,1,0,1:0:0:0:
128,176,40683,2,0,L|192:176,1,53.9999983520508,2|2,3:0|3:0,0:0:0:0:
16,100,40833,2,0,L|80:100,1,53.9999983520508,2|2,3:0|3:0,0:0:0:0:
16,284,40983,2,0,L|80:284,1,53.9999983520508,8|8,0:0|0:0,0:0:0:0:
316,272,41133,6,0,B|364:252|364:252|419:269,1,107.999996704102,4|0,1:0|0:0,0:0:0:0:
484,384,41433,2,0,B|443:352|443:352|431:296,1,107.999996704102,2|0,3:0|0:0,0:0:0:0:
512,180,41733,5,0,1:0:0:0:
512,296,41883,1,2,3:0:0:0:
508,276,41958,1,2,3:0:0:0:
504,256,42033,1,2,3:0:0:0:
508,104,42183,1,0,0:0:0:0:
336,28,42333,5,0,1:0:0:0:
368,224,42483,1,0,0:0:0:0:
436,72,42633,1,2,3:0:0:0:
420,72,42708,1,2,3:0:0:0:
404,72,42783,1,0,1:0:0:0:
268,176,42933,5,0,0:0:0:0:
432,152,43083,1,0,1:0:0:0:
280,100,43233,1,2,3:0:0:0:
352,136,43383,1,0,1:0:0:0:
192,288,43533,6,0,P|244:256|288:260,1,107.999996704102,4|0,1:2|0:0,0:0:0:0:
256,328,43758,1,2,3:0:0:0:
256,328,43833,1,2,3:0:0:0:
316,368,43983,1,0,0:0:0:0:
88,368,44133,5,0,1:0:0:0:
112,268,44283,1,0,1:0:0:0:
136,160,44433,1,2,3:0:0:0:
108,4,44583,5,2,0:0:0:0:
108,4,44658,1,2,0:0:0:0:
108,4,44733,1,0,1:0:0:0:
152,76,44883,1,0,1:0:0:0:
136,160,45033,1,2,3:0:0:0:
60,196,45183,1,0,1:0:0:0:
60,196,45333,5,0,1:0:0:0:
122,62,45483,1,8,1:2:0:0:
269,34,45633,1,8,1:2:0:0:
396,111,45783,1,0,1:0:0:0:
512,276,45933,6,0,P|469:288|408:236,1,107.999996704102,4|0,1:0|0:0,0:0:0:0:
348,99,46233,2,0,P|381:130|366:209,1,107.999996704102,2|0,3:0|0:0,0:0:0:0:
248,356,46533,5,0,1:0:0:0:
418,258,46683,1,0,1:0:0:0:
417,285,46758,1,0,1:0:0:0:
416,308,46833,1,2,3:0:0:0:
256,236,46983,1,0,0:0:0:0:
412,380,47133,5,0,1:0:0:0:
340,268,47283,1,0,1:0:0:0:
339,295,47358,1,0,1:0:0:0:
338,318,47433,1,2,3:0:0:0:
208,292,47583,1,0,1:0:0:0:
20,384,47733,5,0,0:0:0:0:
72,324,47883,1,0,1:0:0:0:
64,252,48033,1,8,0:0:0:0:
0,208,48183,1,8,0:0:0:0:
12,16,48333,6,0,B|12:56|12:56|0:76|0:76|4:136,1,107.999996704102,12|0,1:0|0:0,0:0:0:0:
368,144,49983,5,2,3:0:0:0:
368,144,50058,1,2,3:0:0:0:
368,144,50133,2,0,B|340:136|340:136|304:144,1,53.9999983520508,8|8,0:0|0:0,0:0:0:0:
241,312,50283,2,0,B|262:292|262:292|273:257,1,53.9999983520508,8|8,0:0|0:0,0:0:0:0:
158,119,50433,2,0,B|165:147|165:147|190:174,1,53.9999983520508,8|0,0:0|0:0,0:0:0:0:
492,352,50733,6,0,P|468:360|420:344,1,45,4|0,1:0|0:0,0:0:0:0:
448,200,50883,1,0,0:0:0:0:
448,200,50958,1,0,0:0:0:0:
448,200,51033,2,0,L|460:296,1,90,2|0,3:0|0:0,0:0:0:0:
324,372,51333,1,0,1:0:0:0:
324,372,51483,2,0,L|336:282,1,90,0|2,0:0|3:0,0:0:0:0:
352,128,51783,1,2,0:1:0:0:
352,128,51858,1,0,0:0:0:0:
352,128,51933,5,0,1:0:0:0:
288,160,52083,1,0,0:0:0:0:
216,148,52233,1,2,3:0:0:0:
172,92,52383,1,0,0:0:0:0:
220,40,52533,5,0,1:0:0:0:
216,148,52683,1,2,0:0:0:0:
128,216,52833,1,2,3:0:0:0:
128,216,52908,1,0,0:0:0:0:
128,216,52983,2,0,P|100:216|64:208,1,45,2|0,0:0|0:0,0:0:0:0:
100,364,53133,5,4,1:0:0:0:
4,324,53283,1,0,0:0:0:0:
4,308,53358,1,0,0:0:0:0:
4,296,53433,2,0,P|52:280|92:296,1,90,2|2,3:0|0:0,0:0:0:0:
260,360,53733,1,0,1:0:0:0:
260,360,53883,2,0,P|212:376|172:360,1,90,0|2,0:0|3:0,0:0:0:0:
212,224,54183,1,2,0:1:0:0:
212,240,54258,1,0,0:0:0:0:
212,256,54333,5,0,1:0:0:0:
280,200,54483,1,0,0:0:0:0:
212,272,54633,5,2,3:0:0:0:
144,192,54783,1,0,0:0:0:0:
212,292,54933,5,2,1:3:0:0:
216,148,55083,1,2,3:0:0:0:
344,228,55233,1,10,0:0:0:0:
344,252,55308,1,0,0:0:0:0:
332,276,55383,2,0,P|300:280|280:272,1,45,10|0,0:0|0:0,0:0:0:0:
24,156,55533,6,0,P|56:160|80:144,1,45,4|0,1:0|0:0,0:0:0:0:
36,0,55683,1,0,0:0:0:0:
36,24,55758,1,0,0:0:0:0:
36,48,55833,1,2,3:0:0:0:
140,120,55983,6,0,L|136:84,4,22.5,2|0|2|0|0,0:0|0:0|0:0|0:0|1:0,0:0:0:0:
216,148,56283,2,0,L|205:58,1,90,2|2,0:0|3:0,0:0:0:0:
424,28,56583,1,2,0:1:0:0:
424,28,56658,1,0,0:0:0:0:
424,28,56733,5,0,1:0:0:0:
456,92,56883,1,2,0:0:0:0:
444,164,57033,1,2,3:0:0:0:
388,208,57183,1,2,0:0:0:0:
336,160,57333,5,0,1:0:0:0:
444,164,57483,1,2,0:0:0:0:
507,269,57633,6,0,P|509:246|507:225,3,45,2|2|2|2,1:2|1:2|1:2|1:2,0:0:0:0:
396,380,57933,5,4,1:0:0:0:
328,332,58083,1,0,0:0:0:0:
344,320,58158,1,0,0:0:0:0:
364,312,58233,2,0,P|411:307|452:332,1,90,2|0,3:0|0:0,0:0:0:0:
256,368,58533,1,2,1:2:0:0:
232,280,58683,1,0,0:0:0:0:
76,360,58833,2,0,P|123:364|164:340,1,90,2|2,3:0|0:0,0:0:0:0:
108,296,59058,1,0,0:0:0:0:
108,296,59133,6,0,L|112:239,4,45,2|2|2|2|2,3:2|0:0|0:0|0:0|0:0,0:0:0:0:
8,76,59583,5,2,3:0:0:0:
8,76,59658,1,2,3:0:0:0:
8,76,59733,2,0,P|26:94|28:136,1,45,2|2,3:0|3:0,0:0:0:0:
12,296,59883,2,0,P|30:277|32:236,1,45,2|2,3:0|3:0,0:0:0:0:
136,188,60033,5,8,0:0:0:0:
92,189,60108,1,8,0:0:0:0:
47,190,60183,1,8,0:0:0:0:
2,191,60258,1,8,0:0:0:0:
