osu file format v14

[General]
AudioFilename: audio.mp3
AudioLeadIn: 0
PreviewTime:30858
Countdown: 0
SampleSet: Soft
StackLeniency: 0.4
Mode: 0
LetterboxInBreaks: 0
WidescreenStoryboard: 1

[Editor]
Bookmarks: 49383
DistanceSpacing: 1.6
BeatDivisor: 4
GridSize: 32
TimelineZoom: 2.599999

[Metadata]
Title:Kuuchuu Bunkai
TitleUnicode:空中分解
Artist:Three
ArtistUnicode:すりぃ
Creator:Ryuusei Aika
Version:gary00737's Extra
Source:
Tags:Collage Japanese Rock J-Rock JRock Male Vocal Surii ボーカロイド ボカロ VOCALOID 鏡音レン Kagamine Len 真ひろ まめでん ま子 Akitoshi Ujimatcha -ClariS- Yorita Yoshino Yorita_Yoshino Dored Yugu Skyflame Cami wyrio Firika AncuL -Eriri- Laura -Laura- Corinn -Mikan Mikan Bazz Bazz_B X Light X_Light XLT Reform Kujinn Seto Kousuke Seto_Kousuke Djulus -MikanMyMommy gary00737 HabiHolic Haruto Haruto_Aizawa Armin A_r_M_i_N Agatsu Garden kanor Error- -Keitaro SnowNiNo_ Sylas TheKoala CoLouRed GlaZeE CoLouRed_GlaZeE caren_sk CRN
BeatmapID:1994461
BeatmapSetID:952132

[Difficulty]
HPDrainRate:5.5
CircleSize:3.5
OverallDifficulty:8.5
ApproachRate:9.5
SliderMultiplier:2
SliderTickRate:1

[Events]
//Background and Video events
Video,3,"video.mp4"
0,0,"BG.jpg",0,0
//Break Periods
//Storyboard Layer 0 (Background)
//Storyboard Layer 1 (Fail)
//Storyboard Layer 2 (Pass)
//Storyboard Layer 3 (Foreground)
//Storyboard Layer 4 (Overlay)
//Storyboard Sound Samples

[TimingPoints]
333,300,4,2,1,55,1,0
333,-133.333333333333,4,2,1,55,0,0
520,-133.333333333333,4,2,1,5,0,0
558,-133.333333333333,4,2,1,55,0,0
745,-133.333333333333,4,2,1,5,0,0
783,-133.333333333333,4,2,1,55,0,0
1233,-66.6666666666667,4,2,1,99,0,0
1458,-66.6666666666667,4,2,1,5,0,0
1533,-83.3333333333333,4,2,1,77,0,0
2658,-83.3333333333333,4,2,1,5,0,0
2733,-83.3333333333333,4,2,1,77,0,0
5058,-83.3333333333333,4,2,1,5,0,0
5133,-83.3333333333333,4,2,1,77,0,0
7458,-83.3333333333333,4,2,1,5,0,0
7533,-83.3333333333333,4,2,1,77,0,0
10008,-83.3333333333333,4,2,1,5,0,0
10083,-83.3333333333333,4,2,1,77,0,0
10308,-83.3333333333333,4,2,1,5,0,0
10383,-83.3333333333333,4,2,1,77,0,0
11133,-133.333333333333,4,2,1,77,0,0
11433,-133.333333333333,4,2,0,44,0,0
15483,-133.333333333333,4,2,1,66,0,0
15933,-114.942528735632,4,2,1,55,0,0
17320,-114.942528735632,4,2,1,5,0,0
17358,-114.942528735632,4,2,1,55,0,0
17620,-114.942528735632,4,2,1,5,0,0
17658,-114.942528735632,4,2,1,55,0,0
20283,-114.942528735632,4,2,1,77,0,0
20733,-100,4,2,1,66,0,0
28158,-100,4,2,1,5,0,0
28233,-100,4,2,1,66,0,0
28458,-100,4,2,1,5,0,0
28533,-100,4,2,1,66,0,0
30333,-100,4,2,88,55,0,0
30933,-133.333333333333,4,2,88,77,0,0
31120,-133.333333333333,4,2,88,5,0,0
31158,-133.333333333333,4,2,88,77,0,0
31345,-133.333333333333,4,2,88,5,0,0
31383,-133.333333333333,4,2,88,77,0,0
31533,-83.3333333333333,4,2,1,99,0,0
31758,-83.3333333333333,4,2,1,5,0,0
31833,-83.3333333333333,4,2,1,99,0,0
32058,-83.3333333333333,4,2,1,5,0,0
32133,-83.3333333333333,4,2,1,99,0,0
36558,-83.3333333333333,4,2,1,5,0,0
36633,-83.3333333333333,4,2,1,99,0,0
36858,-83.3333333333333,4,2,1,5,0,0
36933,-83.3333333333333,4,2,1,99,0,0
38733,-83.3333333333333,4,2,1,88,0,0
41133,-83.3333333333333,4,2,1,99,0,0
41358,-83.3333333333333,4,2,1,5,0,0
41433,-83.3333333333333,4,2,1,99,0,0
41658,-83.3333333333333,4,2,1,5,0,0
41733,-83.3333333333333,4,2,1,99,0,0
46158,-83.3333333333333,4,2,1,5,0,0
46233,-83.3333333333333,4,2,1,99,0,0
46458,-83.3333333333333,4,2,1,5,0,0
46533,-83.3333333333333,4,2,1,99,0,0
48333,-181.818181818182,4,2,99,99,0,0
49983,-100,4,2,1,66,0,0
50133,-100,4,2,1,88,0,0
50433,-294.117647058824,4,2,1,88,0,0
50658,-294.117647058824,4,2,1,5,0,0
50733,-83.3333333333333,4,2,1,77,0,0
50958,-83.3333333333333,4,2,1,5,0,0
51033,-83.3333333333333,4,2,1,77,0,0
51858,-83.3333333333333,4,2,1,5,0,0
51933,-83.3333333333333,4,2,1,77,0,0
60033,-55.5555555555556,4,2,1,77,0,0

[Colours]
Combo1 : 255,120,55
Combo2 : 0,49,98
Combo3 : 128,64,64

[HitObjects]
236,20,333,6,0,P|199:56|192:109,1,93.7500035762788,8|0,2:0|0:0,0:0:0:0:
196,128,558,2,0,P|232:165|285:172,1,93.7500035762788,8|0,2:0|0:0,0:0:0:0:
304,168,783,2,0,P|341:132|348:79,1,75.0000028610231,8|8,2:0|2:0,0:0:0:0:
270,94,1233,6,0,P|255:226|244:344,1,225.000008583069,2|0,0:0|0:0,0:0:0:0:
246,317,1533,6,0,P|207:299|151:294,1,59.9999981689454,4|0,1:0|0:0,0:0:0:0:
96,330,1683,1,0,0:0:0:0:
32,188,1833,2,0,P|82:232|151:223,1,119.999996337891,2|2,3:0|0:0,0:0:0:0:
242,101,2133,1,0,1:0:0:0:
106,151,2283,2,0,P|111:91|118:32,1,119.999996337891
188,169,2583,2,0,P|217:182|251:186,1,59.9999981689454,2|0,2:1|0:0,0:0:0:0:
440,216,2733,6,0,P|372:228|329:279,1,119.999996337891,0|0,1:0|0:0,0:0:0:0:
270,94,3033,2,0,P|314:133|372:140,1,119.999996337891,2|0,3:0|0:0,0:0:0:0:
479,27,3333,1,0,1:0:0:0:
354,43,3483,1,0,0:0:0:0:
440,216,3633,1,2,3:0:0:0:
440,216,3708,1,0,0:0:0:0:
440,216,3783,1,0,0:0:0:0:
417,358,3933,6,0,L|419:293,1,59.9999981689454,0|0,1:0|0:0,0:0:0:0:
425,121,4083,1,0,0:0:0:0:
286,315,4233,2,0,P|276:259|249:201,1,119.999996337891,2|0,3:0|0:0,0:0:0:0:
167,119,4533,1,0,1:0:0:0:
363,38,4683,2,0,P|337:92|326:150,1,119.999996337891
484,119,4983,2,0,P|443:118|403:125,1,59.9999981689454,2|0,2:1|0:0,0:0:0:0:
249,202,5133,6,0,P|172:172|107:183,1,119.999996337891,0|0,1:0|0:0,0:0:0:0:
354,250,5433,2,0,P|431:220|496:231,1,119.999996337891,2|0,3:0|0:0,0:0:0:0:
260,317,5733,1,0,1:0:0:0:
343,135,5883,1,0,0:0:0:0:
365,365,6033,1,8,3:2:0:0:
238,87,6183,1,8,0:0:0:0:
95,261,6333,6,0,P|125:267|154:268,1,59.9999981689454,4|0,1:0|0:0,0:0:0:0:
249,202,6483,1,0,0:0:0:0:
118,55,6633,2,0,P|129:114|135:173,1,119.999996337891,2|0,3:0|0:0,0:0:0:0:
142,363,6933,1,0,1:0:0:0:
276,198,7083,2,0,P|265:257|259:316,1,119.999996337891,0|2,0:0|3:0,0:0:0:0:
215,95,7383,2,0,P|240:111|283:115,1,59.9999981689454,2|0,2:1|0:0,0:0:0:0:
454,179,7533,6,0,P|395:148|319:161,1,119.999996337891,0|0,1:0|0:0,0:0:0:0:
148,288,7833,2,0,P|207:319|283:306,1,119.999996337891,2|0,3:0|0:0,0:0:0:0:
383,233,8133,1,0,1:0:0:0:
333,351,8283,1,0,0:0:0:0:
269,116,8433,1,2,3:0:0:0:
219,234,8583,1,0,0:0:0:0:
461,336,8733,5,0,1:0:0:0:
461,336,8808,1,0,0:0:0:0:
461,336,8883,2,0,P|466:269|471:212,1,119.999996337891,0|2,0:0|3:0,0:0:0:0:
497,85,9183,1,0,0:0:0:0:
365,249,9333,1,0,1:0:0:0:
373,113,9483,2,0,P|378:172|382:232,1,119.999996337891,0|2,0:0|3:0,0:0:0:0:
250,329,9783,5,0,0:0:0:0:
250,329,9858,1,0,0:0:0:0:
250,329,9933,2,0,P|199:314|169:314,1,59.9999981689454,2|0,3:0|0:0,0:0:0:0:
80,248,10083,5,2,0:0:0:0:
80,248,10158,1,2,0:0:0:0:
80,248,10234,2,0,P|109:243|137:232,1,59.9999981689454,2|0,3:0|0:0,0:0:0:0:
280,129,10383,5,2,0:0:0:0:
280,129,10458,1,2,0:0:0:0:
280,129,10533,2,0,L|267:215,1,59.9999981689454,2|2,3:0|3:0,0:0:0:0:
250,329,10683,1,2,3:0:0:0:
117,71,10833,1,8,0:0:0:0:
117,71,10908,1,8,0:0:0:0:
117,71,10983,1,8,0:0:0:0:
188,210,11133,6,0,B|273:196|246:261|351:244,1,150.000005722046,8|8,0:0|0:0,0:0:0:0:
410,190,11583,1,0,0:0:0:0:
311,92,11733,1,0,0:0:0:0:
311,92,11883,2,0,L|316:187,1,75.0000028610231,0|8,0:0|0:0,0:0:0:0:
401,91,12183,1,0,0:0:0:0:
227,51,12333,6,0,L|232:146,1,75.0000028610231
143,10,12633,1,8,0:0:0:0:
143,10,12783,2,0,L|148:105,1,75.0000028610231
179,240,13083,1,0,0:0:0:0:
90,212,13233,1,8,0:0:0:0:
192,230,13383,1,0,0:0:0:0:
65,298,13533,6,0,L|68:223,1,75.0000028610231
248,375,13833,2,0,L|244:300,1,75.0000028610231,8|0,0:0|0:0,0:0:0:0:
212,112,14133,1,0,0:0:0:0:
138,149,14283,1,0,0:0:0:0:
176,224,14433,1,8,0:0:0:0:
249,185,14583,1,0,0:0:0:0:
142,66,14733,6,0,L|67:62,1,75.0000028610231
294,117,15033,1,8,0:0:0:0:
294,117,15183,2,0,L|368:113,1,75.0000028610231,0|2,0:0|0:0,0:0:0:0:
486,97,15483,5,8,0:0:0:0:
433,362,15633,1,8,0:0:0:0:
419,46,15783,1,8,0:0:0:0:
214,196,15933,6,0,B|117:169|147:244|33:209,1,174.000001460266,12|2,0:0|0:0,0:0:0:0:
84,137,16383,1,2,0:0:0:0:
181,271,16533,1,0,1:0:0:0:
305,204,16683,1,2,0:0:0:0:
305,204,16833,2,0,L|297:303,1,87.0000007301331,2|0,0:0|0:0,0:0:0:0:
310,113,17133,5,0,1:0:0:0:
207,181,17283,2,0,L|182:179,1,21.7500001825333,2|0,0:0|0:0,0:0:0:0:
305,204,17433,5,2,0:0:0:0:
202,272,17583,2,0,L|177:270,1,21.7500001825333,2|0,0:0|0:0,0:0:0:0:
300,295,17733,5,0,1:0:0:0:
197,363,17883,1,2,0:0:0:0:
197,363,17958,1,0,0:0:0:0:
197,363,18033,2,0,L|99:355,1,87.0000007301331,2|0,0:0|0:0,0:0:0:0:
41,119,18333,6,0,P|124:149|96:236,2,174.000001460266,0|2|0,1:0|0:0|1:0,0:0:0:0:
102,231,19083,1,2,0:0:0:0:
226,106,19233,2,0,P|217:186|212:226,1,87.0000007301331,2|0,0:0|0:0,0:0:0:0:
332,350,19533,6,0,P|337:306|341:263,1,87.0000007301331,0|0,1:0|0:0,0:0:0:0:
469,83,19833,1,2,0:0:0:0:
469,83,19983,2,0,P|460:163|455:203,1,87.0000007301331,2|0,0:0|1:0,0:0:0:0:
447,280,20283,1,8,0:0:0:0:
290,46,20433,1,8,0:0:0:0:
205,317,20583,1,8,0:0:0:0:
51,169,20733,6,0,B|165:147|128:235|250:211,1,200,0|8,1:0|0:0,0:0:0:0:
337,133,21183,1,0,0:0:0:0:
390,224,21333,1,0,1:0:0:0:
208,132,21483,2,0,P|153:223|200:291,1,200,0|0,1:0|0:0,0:0:0:0:
384,317,21933,6,0,P|394:259|407:204,1,100,0|0,1:0|0:0,0:0:0:0:
262,30,22233,1,8,0:0:0:0:
278,35,22383,2,0,P|288:83|297:133,1,100
199,290,22683,1,0,1:0:0:0:
152,219,22833,1,8,0:0:0:0:
237,213,22983,1,0,0:0:0:0:
114,296,23133,6,0,P|52:287|5:282,1,100,0|0,1:0|0:0,0:0:0:0:
284,284,23433,2,0,P|346:275|393:270,1,100,8|0,0:0|0:0,0:0:0:0:
190,142,23733,1,0,1:0:0:0:
199,290,23883,1,0,1:0:0:0:
275,136,24033,1,8,0:0:0:0:
114,296,24183,1,0,0:0:0:0:
105,148,24333,5,0,1:0:0:0:
284,284,24483,1,0,1:0:0:0:
190,142,24633,1,8,0:0:0:0:
199,290,24783,1,8,0:0:0:0:
199,290,25083,1,0,1:0:0:0:
275,136,25233,1,8,1:2:0:0:
429,212,25383,1,0,1:0:0:0:
353,366,25533,5,4,1:0:0:0:
290,300,25683,1,0,0:0:0:0:
315,212,25833,1,8,0:0:0:0:
403,189,25983,1,0,0:0:0:0:
378,276,26133,5,0,1:0:0:0:
311,208,26283,1,0,0:0:0:0:
336,115,26433,1,8,0:0:0:0:
429,90,26583,1,0,0:0:0:0:
404,183,26733,5,0,1:0:0:0:
332,111,26883,1,0,0:0:0:0:
241,157,27033,1,8,0:0:0:0:
169,84,27183,1,8,0:0:0:0:
165,80,27483,5,0,1:0:0:0:
155,169,27633,1,8,0:0:0:0:
183,255,27783,1,0,0:0:0:0:
173,344,27933,6,0,P|222:296|310:324,1,150,0|0,1:0|0:0,0:0:0:0:
305,321,28233,2,0,P|315:242|332:150,1,150,8|0,0:0|0:0,0:0:0:0:
352,80,28533,1,0,1:0:0:0:
452,109,28683,1,0,0:0:0:0:
261,105,28833,1,8,0:0:0:0:
161,76,28983,1,0,0:0:0:0:
113,277,29133,5,0,1:0:0:0:
89,194,29283,1,0,1:0:0:0:
171,170,29433,1,8,0:0:0:0:
195,253,29583,2,0,P|187:323|182:382,1,100,8|0,0:0|0:0,0:0:0:0:
254,190,29883,1,0,1:0:0:0:
336,166,30033,1,8,0:0:0:0:
360,249,30183,2,0,P|352:319|347:378,1,100,8|2,0:0|1:0,0:0:0:0:
138,113,30933,6,0,P|174:150|227:157,1,93.7500035762788,8|0,1:0|0:0,0:0:0:0:
246,153,31158,2,0,P|283:117|290:64,1,93.7500035762788,8|0,1:0|0:0,0:0:0:0:
286,45,31383,1,8,1:0:0:0:
212,79,31533,6,0,P|201:173|193:258,1,179.999994506836,4|0,1:0|0:0,0:0:0:0:
182,285,31833,2,0,B|284:253|250:349|388:309,1,179.999994506836,2|0,3:0|0:0,0:0:0:0:
431,243,32133,1,0,1:0:0:0:
320,102,32283,1,0,0:0:0:0:
327,237,32433,2,0,P|337:169|348:106,1,119.999996337891,2|0,3:0|0:0,0:0:0:0:
395,15,32733,5,0,1:0:0:0:
246,153,32883,2,0,P|184:141|116:125,1,119.999996337891,0|2,0:0|3:0,0:0:0:0:
27,327,33183,2,0,P|82:246|228:258,1,239.999992675781,0|0,1:0|1:0,0:0:0:0:
277,360,33633,1,2,3:0:0:0:
147,352,33783,1,0,0:0:0:0:
311,266,33933,6,0,P|369:252|428:241,1,119.999996337891,0|0,1:0|0:0,0:0:0:0:
277,360,34233,1,2,3:0:0:0:
277,360,34383,1,0,0:0:0:0:
213,246,34533,2,0,P|220:189|229:117,1,119.999996337891,0|0,1:0|0:0,0:0:0:0:
249,0,34833,1,2,3:0:0:0:
135,161,34983,6,0,P|77:147|18:136,1,119.999996337891,0|0,0:0|1:0,0:0:0:0:
119,256,35283,1,0,0:0:0:0:
303,192,35433,2,0,P|361:178|420:167,1,119.999996337891,2|0,3:0|1:0,0:0:0:0:
319,287,35733,1,0,1:0:0:0:
340,92,35883,1,2,3:0:0:0:
436,261,36033,1,2,3:0:0:0:
229,254,36183,1,0,1:0:0:0:
116,57,36333,6,0,L|132:251,1,179.999994506836,0|0,1:0|0:0,0:0:0:0:
119,256,36633,2,0,P|214:269|244:351,1,179.999994506836,2|0,3:0|0:0,0:0:0:0:
157,336,36933,1,0,1:0:0:0:
207,172,37083,1,0,0:0:0:0:
16,312,37233,2,0,L|25:192,1,119.999996337891,2|0,3:0|0:0,0:0:0:0:
77,370,37533,5,0,1:0:0:0:
53,162,37683,2,0,L|43:42,1,119.999996337891,0|2,0:0|3:0,0:0:0:0:
294,23,37983,2,0,P|286:125|160:141,1,239.999992675781,0|0,1:0|0:0,0:0:0:0:
34,33,38433,1,2,3:0:0:0:
216,69,38583,1,0,0:0:0:0:
89,316,38733,6,0,L|98:196,1,119.999996337891,2|0,3:1|1:0,0:0:0:0:
115,0,39033,1,0,0:0:0:0:
344,159,39183,2,0,P|357:98|381:37,1,119.999996337891,2|0,3:1|0:0,0:0:0:0:
208,355,39483,2,0,P|195:294|171:233,1,119.999996337891,2|0,3:1|0:0,0:0:0:0:
16,25,39783,6,0,P|108:103|209:40,1,239.999992675781,2|2,3:1|1:0,0:0:0:0:
100,283,40233,1,0,3:0:0:0:
29,224,40383,2,0,L|19:161,2,59.9999981689454,0|0|0,1:0|1:0|1:0,0:0:0:0:
17,384,40683,1,2,3:0:0:0:
17,384,40758,1,2,3:0:0:0:
17,384,40833,2,0,P|55:368|99:359,1,59.9999981689454,2|2,3:0|3:0,0:0:0:0:
267,232,40983,1,8,0:0:0:0:
267,232,41058,1,8,0:0:0:0:
267,232,41133,6,0,P|346:284|437:262,1,179.999994506836,4|0,1:0|0:0,0:0:0:0:
436,258,41433,2,0,P|349:244|277:295,1,179.999994506836,2|0,3:0|0:0,0:0:0:0:
243,384,41733,1,0,1:0:0:0:
263,136,41883,1,0,0:0:0:0:
130,279,42033,2,0,P|120:214|100:142,1,119.999996337891,2|0,3:0|0:0,0:0:0:0:
110,364,42333,5,0,1:0:0:0:
175,117,42483,2,0,P|219:56|292:53,1,119.999996337891,0|2,0:0|3:0,0:0:0:0:
496,131,42783,2,0,B|370:89|393:175|262:135,1,239.999992675781,0|0,1:0|1:0,0:0:0:0:
439,208,43233,1,2,3:0:0:0:
333,318,43383,1,0,1:0:0:0:
472,328,43533,6,0,P|413:306|338:299,1,119.999996337891,4|0,1:2|0:0,0:0:0:0:
215,349,43833,1,2,3:0:0:0:
268,260,43983,1,0,0:0:0:0:
159,141,44133,2,0,L|169:260,1,119.999996337891,0|0,1:0|1:0,0:0:0:0:
268,80,44433,1,2,3:0:0:0:
49,70,44583,6,0,L|59:189,1,119.999996337891,2|0,0:0|1:0,0:0:0:0:
79,360,44883,1,0,1:0:0:0:
167,347,45033,1,2,3:0:0:0:
16,281,45183,1,0,1:0:0:0:
245,116,45333,1,0,0:0:0:0:
159,141,45483,1,0,1:0:0:0:
184,228,45633,1,2,3:0:0:0:
270,203,45783,1,0,1:0:0:0:
383,79,45933,6,0,P|299:129|269:214,1,179.999994506836,4|0,1:0|0:0,0:0:0:0:
270,203,46233,2,0,P|262:124|170:54,1,179.999994506836,2|0,3:0|0:0,0:0:0:0:
79,50,46533,1,0,1:0:0:0:
97,207,46683,1,0,1:0:0:0:
195,44,46833,1,2,3:0:0:0:
9,137,46983,1,0,0:0:0:0:
185,277,47133,5,0,1:0:0:0:
303,240,47283,1,0,0:0:0:0:
165,261,47433,1,2,3:0:0:0:
358,307,47583,2,0,P|389:251|370:186,1,119.999996337891,0|0,1:0|0:0,0:0:0:0:
234,20,47883,1,0,1:0:0:0:
259,169,48033,1,2,3:0:0:0:
321,82,48183,1,0,1:0:0:0:
62,91,48333,6,0,B|88:8|241:46|196:193|104:178|104:178|73:224|56:292,1,385.000011749268,12|0,1:0|0:0,0:0:0:0:
35,368,49683,2,0,P|80:351|107:349,1,55.0000016784668
173,295,49983,5,2,3:0:0:0:
173,295,50058,1,2,3:0:0:0:
173,295,50133,2,0,P|198:307|225:314,1,50,8|8,0:0|0:0,0:0:0:0:
313,357,50283,1,8,0:0:0:0:
313,357,50358,1,8,0:0:0:0:
313,357,50433,6,0,P|337:345|364:338,1,51.0000003112793,8|0,0:0|0:0,0:0:0:0:
459,368,50733,6,0,P|401:296|464:226,1,179.999994506836,4|2,1:0|0:0,0:0:0:0:
471,220,51033,2,0,P|402:202|337:184,1,119.999996337891,2|0,3:0|0:0,0:0:0:0:
234,121,51333,1,0,1:0:0:0:
136,259,51483,2,0,P|126:318|121:378,1,119.999996337891,0|2,0:0|3:0,0:0:0:0:
57,209,51783,2,0,P|53:173|47:136,1,59.9999981689454,2|0,2:1|0:0,0:0:0:0:
15,28,51933,6,0,P|59:67|117:74,1,119.999996337891,0|0,1:0|0:0,0:0:0:0:
336,55,52233,2,0,P|277:61|233:100,1,119.999996337891,2|0,3:0|0:0,0:0:0:0:
155,250,52533,1,0,1:0:0:0:
317,152,52683,1,2,0:0:0:0:
118,73,52833,1,2,3:0:0:0:
118,73,52908,1,0,0:0:0:0:
118,73,52983,1,2,0:0:0:0:
251,244,53133,6,0,P|280:239|310:236,1,59.9999981689454,4|0,1:0|0:0,0:0:0:0:
446,268,53283,1,0,0:0:0:0:
414,71,53433,2,0,P|399:166|394:226,1,119.999996337891,2|2,3:0|0:0,0:0:0:0:
407,354,53733,1,0,1:0:0:0:
294,294,53883,2,0,P|305:252|314:224,2,59.9999981689454,0|0|2,0:0|0:0|3:0,0:0:0:0:
154,373,54183,1,2,2:1:0:0:
119,175,54333,6,0,P|42:145|-23:156,1,119.999996337891,0|0,1:0|0:0,0:0:0:0:
224,223,54633,2,0,P|301:193|366:204,1,119.999996337891,2|0,3:0|0:0,0:0:0:0:
130,290,54933,1,0,1:0:0:0:
213,108,55083,1,0,0:0:0:0:
235,338,55233,1,8,0:0:0:0:
108,60,55383,1,8,0:0:0:0:
331,51,55533,6,0,L|323:117,1,59.9999981689454,0|0,1:0|0:0,0:0:0:0:
302,280,55683,1,0,0:0:0:0:
451,212,55833,1,2,3:0:0:0:
368,184,55983,2,0,L|365:214,4,29.9999990844727,2|0|2|0|0,0:0|0:0|0:0|0:0|1:0,0:0:0:0:
194,169,56283,2,0,L|60:144,1,119.999996337891,0|2,0:0|3:0,0:0:0:0:
217,307,56583,1,2,2:1:0:0:
285,132,56733,6,0,P|230:77|171:73,1,119.999996337891,0|2,1:0|0:0,0:0:0:0:
380,155,57033,2,0,P|367:78|322:40,1,119.999996337891,2|2,3:0|0:0,0:0:0:0:
194,169,57333,1,0,1:0:0:0:
194,169,57483,1,0,0:0:0:0:
303,237,57633,1,2,0:0:0:0:
307,241,57708,1,2,0:0:0:0:
311,245,57783,1,2,0:0:0:0:
315,249,57858,1,2,0:0:0:0:
319,253,57933,6,0,P|378:244|449:237,1,119.999996337891,4|0,1:0|0:0,0:0:0:0:
343,360,58233,1,2,3:0:0:0:
208,261,58383,2,0,P|220:184|265:146,1,119.999996337891,0|2,0:0|1:2,0:0:0:0:
393,129,58683,1,0,0:0:0:0:
393,129,58833,1,2,3:0:0:0:
237,160,58983,6,0,L|101:148,1,119.999996337891,0|2,0:0|3:2,0:0:0:0:
49,54,59283,5,2,0:0:0:0:
58,46,59358,1,2,0:0:0:0:
69,41,59433,1,2,0:0:0:0:
81,39,59508,1,0,0:0:0:0:
139,43,59583,5,2,3:0:0:0:
184,83,59658,1,2,3:0:0:0:
225,126,59733,1,2,3:0:0:0:
277,155,59808,1,2,3:0:0:0:
336,151,59883,1,2,3:0:0:0:
385,116,59958,1,2,3:0:0:0:
416,66,60033,6,0,L|405:159,1,89.9999972534181,8|8,0:0|0:0,0:0:0:0:
356,248,60183,2,0,L|344:340,1,89.9999972534181,8|8,0:0|0:0,0:0:0:0:
