osu file format v14

[General]
AudioFilename: audio.mp3
AudioLeadIn: 0
PreviewTime:30858
Countdown: 0
SampleSet: Soft
StackLeniency: 0.7
Mode: 0
LetterboxInBreaks: 0
WidescreenStoryboard: 1

[Editor]
Bookmarks: 41958,60333
DistanceSpacing: 2.2
BeatDivisor: 4
GridSize: 32
TimelineZoom: 2.499999

[Metadata]
Title:Kuuchuu Bunkai
TitleUnicode:空中分解
Artist:Three
ArtistUnicode:すりぃ
Creator:Ryuusei Aika
Version:Yugu's Insane
Source:
Tags:Collage Japanese Rock J-Rock JRock Male Vocal Surii ボーカロイド ボカロ VOCALOID 鏡音レン Kagamine Len 真ひろ まめでん ま子 Akitoshi Ujimatcha -ClariS- Yorita Yoshino Yorita_Yoshino Dored Yugu Skyflame Cami wyrio Firika AncuL -Eriri- Laura -Laura- Corinn -Mikan Mikan Bazz Bazz_B X Light X_Light XLT Reform Kujinn Seto Kousuke Seto_Kousuke Djulus -MikanMyMommy gary00737 HabiHolic Haruto Haruto_Aizawa Armin A_r_M_i_N Agatsu Garden kanor Error- -Keitaro SnowNiNo_ Sylas TheKoala CoLouRed GlaZeE CoLouRed_GlaZeE caren_sk CRN
BeatmapID:2043971
BeatmapSetID:952132

[Difficulty]
HPDrainRate:5
CircleSize:4
OverallDifficulty:8
ApproachRate:8.5
SliderMultiplier:1.4
SliderTickRate:1

[Events]
//Background and Video events
Video,3,"video.mp4"
0,0,"BG.jpg",0,0
//Break Periods
//Storyboard Layer 0 (Background)
//Storyboard Layer 1 (Fail)
//Storyboard Layer 2 (Pass)
//Storyboard Layer 3 (Foreground)
//Storyboard Layer 4 (Overlay)
//Storyboard Sound Samples

[TimingPoints]
333,300,4,2,1,55,1,0
1233,-100,4,2,1,99,0,0
1533,-83.3333333333333,4,2,1,77,0,0
11433,-100,4,2,0,44,0,0
15483,-83.3333333333333,4,2,1,66,0,0
15933,-125,4,2,1,55,0,0
20133,-83.3333333333333,4,2,1,55,0,0
20283,-83.3333333333333,4,2,1,77,0,0
20733,-100,4,2,1,66,0,0
30333,-166.666666666667,4,2,88,55,0,0
30933,-83.3333333333333,4,2,88,77,0,0
31533,-83.3333333333333,4,2,1,99,0,0
48333,-83.3333333333333,4,2,99,99,0,0
48633,-83.3333333333333,4,2,1,77,0,0
49983,-83.3333333333333,4,2,1,77,0,0
50133,-83.3333333333333,4,2,1,88,0,0
50733,-83.3333333333333,4,2,1,77,0,0

[Colours]
Combo1 : 255,120,55
Combo2 : 0,49,98
Combo3 : 128,64,64

[HitObjects]
206,172,333,6,0,P|188:120|148:66,2,105,8|8|8,2:0|2:0|2:0,0:0:0:0:
178,255,933,1,8,2:0:0:0:
385,50,1233,1,2,0:0:0:0:
405,26,1533,6,0,L|401:127,1,83.9999974365235,4|0,1:0|0:0,0:0:0:0:
336,197,1833,1,2,3:0:0:0:
480,171,1983,2,0,L|484:272,1,83.9999974365235,0|0,0:0|1:0,0:0:0:0:
354,320,2283,2,0,P|305:315|254:292,1,83.9999974365235,0|2,0:0|3:0,0:0:0:0:
69,299,2583,6,0,P|148:284|212:204,1,167.999994873047,2|0,0:1|0:0,0:0:0:0:
276,93,3033,2,0,P|299:46|332:13,1,83.9999974365235,2|0,3:0|0:0,0:0:0:0:
146,21,3333,2,0,P|172:53|190:91,1,83.9999974365235,0|0,1:0|0:0,0:0:0:0:
153,280,3633,1,2,3:0:0:0:
52,261,3783,1,0,0:0:0:0:
238,200,3933,6,0,P|315:217|352:228,1,83.9999974365235,0|0,1:0|0:0,0:0:0:0:
412,168,4233,1,2,3:0:0:0:
469,300,4383,2,0,L|483:406,1,83.9999974365235,0|0,0:0|1:0,0:0:0:0:
316,226,4683,2,0,L|330:120,1,83.9999974365235,0|2,0:0|3:0,0:0:0:0:
476,3,4983,6,0,P|497:71|507:182,1,167.999994873047,2|0,0:1|0:0,0:0:0:0:
388,69,5433,2,0,P|343:60|279:55,1,83.9999974365235,2|0,3:0|0:0,0:0:0:0:
161,149,5733,2,2,L|171:232,1,83.9999974365235,0|0,1:0|0:0,0:0:0:0:
142,48,6033,1,8,3:2:0:0:
41,67,6183,1,8,0:0:0:0:
0,220,6333,6,0,P|58:226|97:214,1,83.9999974365235,4|0,1:0|0:0,0:0:0:0:
161,149,6633,1,2,3:0:0:0:
250,279,6783,2,0,L|239:362,1,83.9999974365235,0|0,0:0|1:0,0:0:0:0:
347,218,7083,2,0,L|336:134,1,83.9999974365235,0|2,0:0|3:0,0:0:0:0:
484,243,7383,6,0,L|461:69,1,167.999994873047,2|0,0:1|0:0,0:0:0:0:
297,26,7833,2,0,P|252:15|194:18,1,83.9999974365235,2|0,3:0|0:0,0:0:0:0:
93,142,8133,2,0,P|138:153|196:150,1,83.9999974365235,0|0,1:0|0:0,0:0:0:0:
348,140,8433,1,2,3:0:0:0:
291,47,8583,1,0,0:0:0:0:
244,207,8733,6,0,P|255:259|258:294,1,83.9999974365235,0|0,1:0|0:0,0:0:0:0:
231,380,9033,1,2,3:0:0:0:
101,298,9183,2,0,L|4:284,1,83.9999974365235,0|0,0:0|1:0,0:0:0:0:
105,86,9483,2,0,P|119:152|119:191,1,83.9999974365235,0|2,0:0|3:0,0:0:0:0:
263,200,9783,6,0,L|346:211,1,83.9999974365235,0|2,0:0|3:0,0:0:0:0:
443,286,10083,2,0,L|459:341,2,41.9999987182618,2|2|2,0:0|0:0|3:0,0:0:0:0:
406,150,10383,2,0,L|422:95,2,41.9999987182618,2|2|2,0:0|0:0|3:0,0:0:0:0:
350,317,10683,1,2,3:0:0:0:
217,203,10833,1,8,0:0:0:0:
213,182,10908,1,8,0:0:0:0:
211,161,10983,1,8,0:0:0:0:
212,140,11058,1,8,0:0:0:0:
216,119,11133,5,8,0:0:0:0:
289,71,11433,5,8,0:0:0:0:
286,53,12033,1,8,0:0:0:0:
138,79,12633,5,8,0:0:0:0:
135,97,13233,1,8,0:0:0:0:
285,182,13833,5,8,0:0:0:0:
282,164,14433,1,8,0:0:0:0:
91,219,15033,5,8,0:0:0:0:
220,266,15333,1,2,0:0:0:0:
220,266,15483,2,0,L|238:386,2,83.9999974365235,8|8|8,0:0|0:0|0:0,0:0:0:0:
319,351,15933,5,12,0:0:0:0:
99,274,16233,2,0,L|89:207,1,56,2|2,0:0|0:0,0:0:0:0:
20,158,16533,1,0,1:0:0:0:
20,158,16683,2,0,L|10:91,1,56,2|2,0:0|0:0,0:0:0:0:
206,36,17133,6,0,L|199:104,1,56,0|2,1:0|0:0,0:0:0:0:
273,157,17433,2,0,L|266:225,1,56,2|2,0:0|0:0,0:0:0:0:
361,111,17733,1,0,1:0:0:0:
361,111,17883,2,0,L|434:98,1,56,2|2,0:0|0:0,0:0:0:0:
484,270,18333,5,0,1:0:0:0:
484,270,18483,2,0,L|410:257,2,56,0|2|2,0:0|0:0|0:0,0:0:0:0:
512,190,18933,1,0,1:0:0:0:
512,190,19083,2,0,L|438:177,1,56,2|2,0:0|0:0,0:0:0:0:
328,334,19533,5,0,1:0:0:0:
328,334,19683,2,0,P|325:288|336:259,2,56,0|2|2,0:0|0:0|0:0,0:0:0:0:
227,359,20133,1,0,1:0:0:0:
227,359,20283,2,0,P|207:303|175:273,2,83.9999974365235,8|8|8,0:0|0:0|0:0,0:0:0:0:
94,383,20733,6,0,L|116:226,1,140,0|8,1:0|0:0,0:0:0:0:
56,182,21183,1,0,0:0:0:0:
117,124,21333,1,0,1:0:0:0:
199,140,21483,2,0,P|263:141|329:93,1,140,0|0,1:0|0:0,0:0:0:0:
330,15,21933,6,0,L|339:98,1,70,0|0,1:0|0:0,0:0:0:0:
400,139,22233,1,8,0:0:0:0:
341,198,22383,2,0,L|332:281,1,70
384,334,22683,2,0,L|459:319,2,70,0|8|0,1:0|0:0|0:0,0:0:0:0:
300,346,23133,6,0,L|173:320,1,105,0|0,1:0|0:0,0:0:0:0:
156,335,23433,2,0,P|148:268|174:229,1,105,8|0,0:0|0:0,0:0:0:0:
166,194,23733,2,0,P|161:144|142:108,1,70,0|0,1:0|1:0,0:0:0:0:
222,71,24033,1,8,0:0:0:0:
143,39,24183,6,0,L|65:23,1,70,0|0,0:0|1:0,0:0:0:0:
238,3,24483,2,0,P|235:37|222:70,1,70,0|8,1:0|0:0,0:0:0:0:
279,130,24783,2,0,L|293:282,1,140,8|0,0:0|1:0,0:0:0:0:
227,323,25233,1,8,1:2:0:0:
306,348,25383,1,0,1:0:0:0:
372,297,25533,6,0,P|404:252|501:217,1,140,4|8,1:0|0:0,0:0:0:0:
485,133,25983,1,0,0:0:0:0:
464,51,26133,1,0,1:0:0:0:
383,28,26283,2,0,L|228:55,1,140
164,29,26733,6,0,P|167:80|183:109,1,70,0|0,1:0|0:0,0:0:0:0:
225,163,27033,1,8,0:0:0:0:
271,232,27183,2,0,P|268:283|252:312,1,70,8|0,0:0|1:0,0:0:0:0:
177,315,27483,2,0,L|168:399,2,70,0|8|0,1:0|0:0|0:0,0:0:0:0:
122,251,27933,6,0,L|-1:225,1,105,0|0,1:0|0:0,0:0:0:0:
6,188,28233,2,0,P|4:137|43:73,1,105,8|0,0:0|0:0,0:0:0:0:
66,74,28533,2,0,L|155:63,1,70,0|0,1:0|0:0,0:0:0:0:
198,8,28833,2,0,P|214:46|210:99,1,70,8|0,0:0|0:0,0:0:0:0:
260,144,29133,5,0,1:0:0:0:
340,168,29283,1,0,1:0:0:0:
204,211,29433,2,0,P|188:249|192:302,1,70,8|8,0:0|0:0,0:0:0:0:
230,349,29733,1,0,0:0:0:0:
313,336,29883,2,0,L|406:321,2,70,0|8|8,1:0|0:0|0:0,0:0:0:0:
147,362,30333,6,0,B|127:344|127:344|101:348|101:348|83:330|83:330|58:335|58:335|47:321|47:321|30:322|30:322|10:310,1,146.999995513916,2|0,1:0|0:0,0:0:0:0:
11,277,30933,5,8,1:0:0:0:
115,48,31158,5,8,1:0:0:0:
261,252,31383,5,8,1:0:0:0:
335,197,31533,6,0,P|351:247|339:299,1,83.9999974365235,4|0,1:0|0:0,0:0:0:0:
187,307,31833,2,0,P|171:257|183:205,1,83.9999974365235,2|0,3:0|0:0,0:0:0:0:
233,86,32133,2,0,P|248:125|246:167,1,83.9999974365235,0|0,1:0|0:0,0:0:0:0:
87,188,32433,1,2,3:0:0:0:
68,60,32583,1,0,0:0:0:0:
168,135,32733,5,0,1:0:0:0:
0,180,32883,2,0,P|11:228|51:275,1,83.9999974365235,0|2,0:0|3:0,0:0:0:0:
243,199,33183,2,0,L|229:339,1,125.999996154785,0|0,1:0|0:0,0:0:0:0:
225,365,33483,1,0,1:0:0:0:
141,297,33633,1,2,3:0:0:0:
326,275,33783,1,0,0:0:0:0:
283,129,33933,6,0,P|243:117|203:129,1,83.9999974365235,0|0,1:0|0:0,0:0:0:0:
370,190,34233,2,0,L|475:167,1,83.9999974365235,2|0,3:0|0:0,0:0:0:0:
323,26,34533,2,0,P|303:84|305:131,1,83.9999974365235,0|0,1:0|0:0,0:0:0:0:
229,243,34833,1,2,3:0:0:0:
397,207,34983,6,0,P|397:276|351:372,1,167.999994873047
229,243,35433,1,2,3:0:0:0:
315,163,35583,2,0,P|317:121|307:80,1,83.9999974365235,0|0,0:0|1:0,0:0:0:0:
182,75,35883,1,8,1:2:0:0:
143,167,36033,1,8,1:2:0:0:
33,106,36183,1,0,1:0:0:0:
45,211,36333,6,0,L|163:189,1,83.9999974365235,4|0,1:0|0:0,0:0:0:0:
182,75,36633,2,0,L|64:53,1,83.9999974365235,2|0,3:0|0:0,0:0:0:0:
232,178,36933,2,0,L|350:156,1,83.9999974365235,0|0,1:0|0:0,0:0:0:0:
423,58,37233,1,2,3:0:0:0:
302,42,37383,1,0,0:0:0:0:
343,192,37533,5,0,1:0:0:0:
465,166,37683,2,0,P|465:213|445:267,1,83.9999974365235,0|2,0:0|3:0,0:0:0:0:
302,314,37983,2,0,L|146:296,1,125.999996154785,0|0,1:0|0:0,0:0:0:0:
135,294,38283,1,0,1:0:0:0:
76,197,38433,1,8,1:2:0:0:
16,323,38583,1,8,1:2:0:0:
194,209,38733,6,0,P|191:167|174:129,1,83.9999974365235,6|0,1:0|0:0,0:0:0:0:
37,88,39033,1,0,1:0:0:0:
230,39,39183,2,0,L|320:50,1,83.9999974365235,2|0,1:0|0:0,0:0:0:0:
369,123,39483,2,0,L|459:112,1,83.9999974365235,2|0,1:0|0:0,0:0:0:0:
306,36,39783,6,2,L|223:26,1,83.9999974365235,6|0,1:0|0:0,0:0:0:0:
369,123,40083,1,2,1:0:0:0:
250,166,40233,1,0,3:0:0:0:
395,214,40383,2,0,L|444:202,2,41.9999987182618,0|0|0,1:0|1:0|1:0,0:0:0:0:
316,272,40683,2,0,L|267:260,2,41.9999987182618,2|2|2,3:0|3:0|3:0,0:0:0:0:
406,345,40983,1,8,0:0:0:0:
406,345,41058,1,8,0:0:0:0:
406,345,41133,6,0,L|493:323,1,83.9999974365235,4|0,1:0|0:0,0:0:0:0:
468,153,41433,2,0,P|482:192|486:234,1,83.9999974365235,2|0,3:0|0:0,0:0:0:0:
297,353,41733,2,0,P|301:311|316:272,1,83.9999974365235,0|0,1:0|0:0,0:0:0:0:
323,106,42033,1,2,3:0:0:0:
395,214,42183,1,0,0:0:0:0:
205,175,42333,5,0,1:0:0:0:
289,269,42483,2,0,L|296:352,1,83.9999974365235,0|2,0:0|3:0,0:0:0:0:
140,303,42783,2,0,P|74:286|38:237,1,125.999996154785,0|0,1:0|0:0,0:0:0:0:
39,199,43083,1,0,1:0:0:0:
190,166,43233,1,2,3:0:0:0:
74,109,43383,1,0,1:0:0:0:
220,1,43533,6,0,P|234:57|230:105,1,83.9999974365235,4|0,1:2|0:0,0:0:0:0:
176,247,43833,2,0,P|177:205|189:165,1,83.9999974365235,2|0,3:0|0:0,0:0:0:0:
353,120,44133,2,0,L|475:105,1,83.9999974365235,0|0,1:0|1:0,0:0:0:0:
504,233,44433,1,2,3:0:0:0:
305,230,44583,6,0,P|315:321|361:388,1,167.999994873047,2|0,0:0|1:0,0:0:0:0:
504,233,45033,1,2,3:0:0:0:
436,130,45183,2,0,L|314:115,1,83.9999974365235,0|0,1:0|1:0,0:0:0:0:
157,94,45483,1,8,1:2:0:0:
271,33,45633,1,8,1:2:0:0:
254,174,45783,1,0,1:0:0:0:
71,116,45933,6,0,P|76:65|97:25,1,83.9999974365235,4|0,1:0|0:0,0:0:0:0:
233,171,46233,2,0,L|238:265,1,83.9999974365235,2|0,3:0|0:0,0:0:0:0:
83,314,46533,2,0,L|87:230,1,83.9999974365235,0|0,1:0|1:0,0:0:0:0:
157,94,46833,1,2,3:0:0:0:
254,174,46983,1,0,0:0:0:0:
351,80,47133,6,0,P|364:24|375:1,2,83.9999974365235,0|0|2,1:0|1:0|3:0,0:0:0:0:
254,174,47583,2,0,L|259:268,1,83.9999974365235,0|0,1:0|1:0,0:0:0:0:
340,349,47883,1,0,1:0:0:0:
410,242,48033,1,8,0:0:0:0:
273,179,48183,1,8,0:0:0:0:
468,118,48333,6,0,B|462:114|457:113|444:107|435:103|425:105|411:104|401:104|386:107|374:113|356:122|342:129|328:135|307:146|286:146|269:145|251:142|241:141|223:133|211:126|202:117|196:112,1,251.999992309571,12|2,1:0|0:0,0:0:0:0:
340,314,49983,5,2,3:0:0:0:
340,314,50058,1,2,3:0:0:0:
340,314,50133,2,0,L|348:371,3,41.9999987182618,8|8|8|8,0:0|0:0|0:0|0:0,0:0:0:0:
391,243,50433,1,8,0:0:0:0:
411,253,50733,6,0,L|499:238,1,83.9999974365235,4|0,1:0|0:0,0:0:0:0:
512,97,51033,1,2,3:0:0:0:
335,98,51183,2,0,P|329:139|337:180,1,83.9999974365235,0|0,0:0|1:0,0:0:0:0:
245,335,51483,2,0,L|157:320,1,83.9999974365235,0|2,0:0|3:0,0:0:0:0:
197,75,51783,6,0,P|224:151|232:242,1,167.999994873047,2|0,0:1|0:0,0:0:0:0:
82,274,52233,2,0,L|-6:289,1,83.9999974365235,2|0,3:0|0:0,0:0:0:0:
100,132,52533,2,0,P|129:179|138:210,1,83.9999974365235,0|2,1:0|0:0,0:0:0:0:
180,382,52833,1,2,3:0:0:0:
73,356,52983,1,2,0:0:0:0:
233,267,53133,6,0,L|315:252,1,83.9999974365235,4|0,1:0|0:0,0:0:0:0:
403,126,53433,1,2,3:0:0:0:
265,98,53583,2,0,B|255:91|255:91|245:95|245:95|236:89|236:89|225:92|225:92|221:85|221:85|213:89|213:89|203:82|203:82|197:86|197:86|182:83,1,83.9999974365235,2|0,0:0|1:0,0:0:0:0:
315,251,53883,2,0,L|329:145,1,83.9999974365235,0|2,0:0|3:0,0:0:0:0:
476,3,54183,6,0,P|500:71|507:182,1,167.999994873047,2|0,0:1|0:0,0:0:0:0:
405,287,54633,2,0,L|419:393,1,83.9999974365235,2|0,3:0|0:0,0:0:0:0:
243,315,54933,2,0,P|196:310|153:283,1,83.9999974365235,0|0,1:0|0:0,0:0:0:0:
228,113,55233,1,8,0:0:0:0:
127,132,55383,1,8,0:0:0:0:
295,199,55533,6,0,P|342:194|385:167,1,83.9999974365235,0|0,1:0|0:0,0:0:0:0:
319,26,55833,1,2,3:0:0:0:
452,99,55983,2,0,B|455:107|455:107|449:112|449:112|453:118|453:118|448:120|448:120|452:123|452:123|448:126|448:126|447:140,1,41.9999987182618,2|2,0:0|0:0,0:0:0:0:
497,25,56133,1,0,1:0:0:0:
280,116,56283,2,0,L|298:220,1,83.9999974365235,0|2,0:0|3:0,0:0:0:0:
501,204,56583,6,0,P|497:271|463:385,1,167.999994873047,2|2,0:1|0:0,0:0:0:0:
292,299,57033,2,0,L|183:286,1,83.9999974365235,2|2,3:0|0:0,0:0:0:0:
417,213,57333,2,0,L|526:200,1,83.9999974365235,0|2,1:0|0:0,0:0:0:0:
294,331,57633,2,0,L|217:321,1,41.9999987182618,0|0,1:0|1:0,0:0:0:0:
167,314,57783,2,0,L|90:304,1,41.9999987182618,0|0,1:0|1:0,0:0:0:0:
93,229,57933,6,0,P|101:175|129:128,1,83.9999974365235,4|0,1:0|0:0,0:0:0:0:
299,48,58233,1,2,3:0:0:0:
210,18,58383,2,0,L|222:126,1,83.9999974365235,0|2,0:0|1:2,0:0:0:0:
302,231,58683,2,0,L|314:123,1,83.9999974365235,0|2,0:0|3:0,0:0:0:0:
139,151,58983,6,0,B|96:150|46:120|46:120|73:169|73:169|59:174|59:174|64:190|64:190|51:209|51:209|65:227|65:227|51:236|51:236|63:259|63:259|57:303,1,293.999991027832
134,334,59583,1,2,3:0:0:0:
154,331,59658,1,2,3:0:0:0:
170,329,59733,2,0,L|248:321,3,41.9999987182618,2|2|2|2,3:0|3:0|3:0|3:0,0:0:0:0:
260,226,60033,2,0,L|338:233,1,41.9999987182618,8|8,0:0|0:0,0:0:0:0:
308,316,60183,2,0,L|386:308,1,41.9999987182618,8|8,0:0|0:0,0:0:0:0:
