osu file format v14

[General]
AudioFilename: audio.mp3
AudioLeadIn: 0
PreviewTime: 30858
Countdown: 0
SampleSet: Soft
StackLeniency: 0.5
Mode: 0
LetterboxInBreaks: 0
WidescreenStoryboard: 1

[Editor]
DistanceSpacing: 1.2
BeatDivisor: 4
GridSize: 16
TimelineZoom: 3.599998

[Metadata]
Title:Kuuchuu Bunkai
TitleUnicode:空中分解
Artist:Three
ArtistUnicode:すりぃ
Creator:Ryuusei Aika
Version:Yoshino's Hard
Source:
Tags:Collage Japanese Rock J-Rock JRock Male Vocal Surii ボーカロイド ボカロ VOCALOID 鏡音レン Kagamine Len 真ひろ まめでん ま子 Akitoshi Ujimatcha -ClariS- Yorita Yoshino Yorita_Yoshino Dored Yugu Skyflame Cami wyrio Firika AncuL -Eriri- Laura -Laura- Corinn -Mikan Mikan Bazz Bazz_B X Light X_Light XLT Reform Kujinn Seto Kousuke Seto_Kousuke Djulus -MikanMyMommy gary00737 HabiHolic Haruto Haruto_Aizawa Armin A_r_M_i_N Agatsu Garden kanor Error- -Keitaro SnowNiNo_ Sylas TheKoala CoLouRed GlaZeE CoLouRed_GlaZeE caren_sk CRN
BeatmapID:2041894
BeatmapSetID:952132

[Difficulty]
HPDrainRate:4.5
CircleSize:4
OverallDifficulty:6
ApproachRate:8
SliderMultiplier:1.4
SliderTickRate:1

[Events]
//Background and Video events
Video,3,"video.mp4"
0,0,"BG.jpg",0,0
//Break Periods
//Storyboard Layer 0 (Background)
//Storyboard Layer 1 (Fail)
//Storyboard Layer 2 (Pass)
//Storyboard Layer 3 (Foreground)
//Storyboard Layer 4 (Overlay)
//Storyboard Sound Samples

[TimingPoints]
333,300,4,2,1,55,1,0
1233,-83.3333333333333,4,2,1,99,0,0
1533,-100,4,2,1,77,0,0
5733,-100,4,2,1,77,0,0
6033,-83.3333333333333,4,2,1,55,0,0
6333,-100,4,2,1,77,0,0
11433,-100,4,2,0,44,0,0
15483,-100,4,2,1,66,0,0
15933,-100,4,2,1,55,0,0
20283,-100,4,2,1,77,0,0
20733,-90.9090909090909,4,2,1,66,0,0
30333,-90.9090909090909,4,2,88,55,0,0
30933,-90.9090909090909,4,2,88,77,0,0
31533,-83.3333333333333,4,2,1,99,0,1
48333,-83.3333333333333,4,2,99,99,0,0
48633,-83.3333333333333,4,2,1,77,0,0
49983,-83.3333333333333,4,2,1,77,0,0
50133,-83.3333333333333,4,2,1,88,0,0
50733,-100,4,2,1,77,0,0
55233,-83.3333333333333,4,2,1,55,0,0
55533,-100,4,2,1,55,0,0
59583,-83.3333333333333,4,2,1,55,0,0

[Colours]
Combo1 : 255,120,55
Combo2 : 0,49,98
Combo3 : 128,64,64

[HitObjects]
113,250,333,6,0,P|93:197|105:121,2,105,8|8|8,2:0|2:0|2:0,0:0:0:0:
187,289,933,1,8,0:0:0:0:
187,289,1233,6,2,L|301:273,1,83.9999974365235,2|0,0:0|0:0,3:3:0:0:
454,279,1533,6,0,P|471:239|467:202,1,70,4|0,1:0|0:0,0:0:0:0:
392,228,1833,2,0,P|386:184|364:154,1,70,2|0,3:0|0:0,0:0:0:0:
262,167,2133,2,0,P|292:185|312:214,1,70,0|0,1:0|0:0,0:0:0:0:
133,347,2583,5,2,0:1:0:0:
133,347,2733,2,0,L|43:350,1,70,0|0,1:0|0:0,0:0:0:0:
85,268,3033,2,0,L|175:265,1,70,2|0,3:0|0:0,0:0:0:0:
141,361,3333,2,0,L|71:363,1,70,0|0,1:0|0:0,0:0:0:0:
215,320,3633,1,2,3:0:0:0:
215,320,3708,1,0,0:0:0:0:
215,320,3783,1,0,0:0:0:0:
154,265,3933,6,0,P|137:225|141:188,1,70,0|0,1:0|0:0,0:0:0:0:
62,212,4233,2,0,P|67:168|89:138,1,70,2|0,3:0|0:0,0:0:0:0:
54,69,4533,2,0,P|24:87|5:116,1,70,0|0,1:0|0:0,0:0:0:0:
219,145,4983,5,2,0:1:0:0:
219,145,5133,2,0,L|213:61,1,70,0|0,1:0|0:0,0:0:0:0:
313,104,5433,2,0,L|307:188,1,70,2|0,3:0|0:0,0:0:0:0:
200,140,5733,2,2,L|194:56,1,70,0|0,1:0|0:0,0:0:0:0:
266,21,6033,6,2,P|326:11|402:71,1,125.999996154785,8|0,3:2|0:0,0:0:0:0:
409,66,6333,6,0,P|465:77|502:69,1,70,4|0,1:0|0:0,0:0:0:0:
506,145,6633,2,0,P|468:187|456:224,1,70,2|0,3:0|0:0,0:0:0:0:
363,124,6933,2,0,P|380:155|389:189,1,70,0|0,1:0|0:0,0:0:0:0:
363,350,7383,5,2,0:1:0:0:
363,350,7533,2,0,L|366:256,1,70,0|0,1:0|0:0,0:0:0:0:
453,256,7833,2,0,L|450:350,1,70,2|0,3:0|0:0,0:0:0:0:
344,358,8133,2,0,L|347:264,1,70,0|0,1:0|0:0,0:0:0:0:
257,381,8433,1,2,3:0:0:0:
257,381,8508,1,0,0:0:0:0:
257,381,8583,1,0,0:0:0:0:
171,345,8733,6,0,P|115:350|82:336,1,70,0|0,1:0|0:0,0:0:0:0:
50,273,9033,2,0,P|73:222|102:200,1,70,2|0,3:0|0:0,0:0:0:0:
207,262,9333,2,0,P|195:229|172:204,1,70,0|0,1:0|0:0,0:0:0:0:
34,93,9783,5,0,0:0:0:0:
34,93,9933,2,0,L|47:2,1,70,2|2,3:0|0:0,0:0:0:0:
128,137,10233,2,0,L|115:46,1,70,2|2,3:0|0:0,0:0:0:0:
201,101,10533,2,0,L|214:10,1,70,2|2,3:0|3:0,0:0:0:0:
295,145,10833,2,0,L|282:54,1,70,8|8,0:0|0:0,0:0:0:0:
363,25,11133,6,0,P|429:20|483:76,1,140,8|8,0:0|0:0,0:0:0:0:
477,83,12033,1,8,0:0:0:0:
475,100,12633,1,8,0:0:0:0:
472,117,13233,1,8,0:0:0:0:
378,331,13833,5,8,0:0:0:0:
376,314,14433,1,8,0:0:0:0:
373,296,15033,1,8,0:0:0:0:
277,104,15483,6,0,P|215:99|193:107,1,70,8|8,0:0|0:0,0:0:0:0:
165,178,15783,2,0,P|231:183|251:177,1,70,8|12,0:0|0:0,0:0:0:0:
75,130,16233,6,0,L|80:218,1,70,2|2,0:0|0:0,0:0:0:0:
216,331,16683,6,0,L|211:243,1,70,2|2,0:0|0:0,0:0:0:0:
351,175,17133,6,0,P|413:181|433:193,1,70,0|2,1:0|0:0,0:0:0:0:
449,267,17433,2,0,P|383:261|364:251,1,70,2|2,0:0|0:0,0:0:0:0:
464,31,17883,6,0,L|457:118,1,70,2|2,0:0|0:0,0:0:0:0:
322,199,18333,6,0,L|315:112,2,70,0|0|2,1:0|0:0|0:0,0:0:0:0:
304,284,18783,1,2,0:0:0:0:
232,132,19083,5,2,0:0:0:0:
214,47,19233,1,2,0:0:0:0:
137,196,19533,6,0,L|130:109,2,70,0|0|2,1:0|0:0|0:0,0:0:0:0:
119,281,19983,1,2,0:0:0:0:
277,335,20283,6,0,L|186:342,1,70,8|8,0:0|0:0,0:0:0:0:
141,287,20583,1,8,0:0:0:0:
72,349,20733,6,0,P|27:365|-24:356,1,77.0000023498536,0|0,1:0|0:0,0:0:0:0:
20,273,21033,2,0,P|42:231|87:203,1,77.0000023498536,8|0,0:0|0:0,0:0:0:0:
81,121,21333,1,0,1:0:0:0:
152,179,21483,1,0,1:0:0:0:
244,177,21633,2,0,P|285:166|346:173,1,77.0000023498536,8|0,0:0|0:0,0:0:0:0:
378,95,21933,6,0,L|368:-6,1,77.0000023498536,0|0,1:0|0:0,0:0:0:0:
473,84,22233,1,8,0:0:0:0:
473,84,22383,2,0,L|463:185,1,77.0000023498536
377,190,22683,1,0,1:0:0:0:
438,249,22833,2,0,P|475:262|538:258,1,77.0000023498536,8|0,0:0|0:0,0:0:0:0:
378,316,23133,6,0,P|341:303|278:307,1,77.0000023498536,0|0,1:0|0:0,0:0:0:0:
218,338,23433,2,0,P|181:351|118:347,1,77.0000023498536,8|0,0:0|0:0,0:0:0:0:
68,312,23733,1,0,1:0:0:0:
68,312,23883,1,0,1:0:0:0:
114,231,24033,2,0,L|103:143,1,77.0000023498536,8|0,0:0|0:0,0:0:0:0:
126,54,24333,5,0,1:0:0:0:
194,116,24483,1,0,1:0:0:0:
125,67,24633,1,8,0:0:0:0:
193,129,24783,2,0,P|242:137|286:129,1,77.0000023498536,8|0,0:0|0:0,0:0:0:0:
342,77,25083,2,0,L|332:-23,2,77.0000023498536,0|8|0,1:0|1:2|1:0,0:0:0:0:
416,138,25533,6,0,L|406:238,1,77.0000023498536,4|0,1:0|0:0,0:0:0:0:
322,249,25833,2,0,L|332:149,1,77.0000023498536,8|0,0:0|0:0,0:0:0:0:
429,169,26133,2,0,L|419:269,1,77.0000023498536,0|0,1:0|0:0,0:0:0:0:
335,280,26433,2,0,L|345:180,1,77.0000023498536,8|0,0:0|0:0,0:0:0:0:
407,338,26733,5,0,1:0:0:0:
407,338,26883,1,0,0:0:0:0:
335,280,27033,1,8,0:0:0:0:
251,325,27183,2,0,P|172:339|88:300,1,154.000004699707,8|0,0:0|1:0,0:0:0:0:
54,242,27633,2,0,L|58:162,1,77.0000023498536,8|0,0:0|0:0,0:0:0:0:
124,109,27933,6,0,P|84:82|40:80,1,77.0000023498536,0|0,1:0|0:0,0:0:0:0:
137,201,28233,2,0,P|177:174|221:172,1,77.0000023498536,8|0,0:0|0:0,0:0:0:0:
280,217,28533,1,0,1:0:0:0:
205,268,28683,1,0,0:0:0:0:
283,313,28833,2,0,P|322:306|353:282,1,77.0000023498536,8|0,0:0|0:0,0:0:0:0:
418,224,29133,6,0,L|502:229,1,77.0000023498536,0|0,1:0|1:0,0:0:0:0:
412,137,29433,1,8,0:0:0:0:
412,137,29583,2,0,L|328:142,1,77.0000023498536,8|0,0:0|0:0,0:0:0:0:
258,204,29883,2,0,P|261:245|290:299,2,77.0000023498536,0|8|8,1:0|0:0|0:0,0:0:0:0:
231,115,30333,1,2,1:0:0:0:
231,115,30933,6,0,L|89:124,2,115.50000352478,8|8|8,1:0|1:0|1:0,0:0:0:0:
309,51,31533,6,0,P|366:48|416:76,1,83.9999974365235,4|0,1:0|0:0,0:0:0:0:
461,102,31833,2,0,P|404:99|354:127,1,83.9999974365235,2|0,3:0|0:0,0:0:0:0:
309,153,32133,2,0,P|366:150|416:178,1,83.9999974365235,0|0,1:0|0:0,0:0:0:0:
455,212,32433,1,2,3:0:0:0:
455,212,32583,1,0,0:0:0:0:
379,247,32733,6,0,P|322:250|272:222,1,83.9999974365235,0|0,1:0|0:0,0:0:0:0:
231,189,33033,1,2,3:0:0:0:
171,247,33183,2,0,L|175:352,1,83.9999974365235,0|0,1:0|0:0,0:0:0:0:
83,289,33483,1,0,1:0:0:0:
83,289,33633,2,0,L|87:184,1,83.9999974365235,2|0,3:0|0:0,0:0:0:0:
71,122,33933,6,0,P|152:156|157:250,1,167.999994873047,0|2,1:0|3:0,0:0:0:0:
106,286,34383,1,0,0:0:0:0:
167,342,34533,2,0,L|268:346,1,83.9999974365235,0|0,1:0|0:0,0:0:0:0:
317,294,34833,1,2,3:0:0:0:
389,336,34983,6,0,P|443:355|438:265,1,167.999994873047
397,206,35433,2,0,L|399:102,1,83.9999974365235,2|0,3:0|1:0,0:0:0:0:
478,94,35733,1,0,1:0:0:0:
374,131,35883,2,0,L|372:214,2,83.9999974365235,8|8|0,1:2|1:2|1:0,0:0:0:0:
328,60,36333,6,0,P|298:98|299:161,1,83.9999974365235,4|0,1:0|0:0,0:0:0:0:
245,202,36633,2,0,P|215:164|216:101,1,83.9999974365235,2|0,3:0|0:0,0:0:0:0:
162,60,36933,2,0,P|132:98|133:161,1,83.9999974365235,0|0,1:0|0:0,0:0:0:0:
75,198,37233,1,2,3:0:0:0:
75,198,37383,1,0,0:0:0:0:
116,270,37533,6,0,P|70:279|32:267,1,83.9999974365235,0|0,1:0|0:0,0:0:0:0:
196,264,37833,1,2,3:0:0:0:
196,264,37983,2,0,L|189:357,1,83.9999974365235,0|0,1:0|1:0,0:0:0:0:
281,278,38283,2,0,L|274:184,2,83.9999974365235,0|8|8,1:0|1:2|1:2,0:0:0:0:
368,269,38733,6,0,P|438:292|494:198,1,167.999994873047,6|0,1:0|1:0,0:0:0:0:
496,229,39183,1,2,1:0:0:0:
368,269,39483,1,2,1:0:0:0:
397,138,39783,6,2,B|357:109|313:134|313:134|262:163|214:123,1,167.999994873047,6|2,1:0|1:0,0:0:0:0:
169,87,40233,1,0,3:0:0:0:
234,147,40383,2,2,B|274:176|318:151|318:151|369:122|417:162,1,167.999994873047,2|2,1:0|1:0,0:0:0:0:
462,198,40833,2,0,P|476:151|462:102,1,83.9999974365235,2|8,3:0|0:0,0:0:0:0:
362,221,41133,6,0,P|340:269|356:326,1,83.9999974365235,4|0,1:0|0:0,0:0:0:0:
362,376,41433,2,0,P|340:328|356:271,1,83.9999974365235,2|0,3:0|0:0,0:0:0:0:
279,248,41733,2,0,P|313:287|371:297,1,83.9999974365235,0|0,1:0|0:0,0:0:0:0:
271,355,42033,1,2,3:0:0:0:
271,355,42183,1,0,0:0:0:0:
194,298,42333,6,0,P|122:306|108:322,1,83.9999974365235,0|0,1:0|0:0,0:0:0:0:
60,374,42633,1,2,3:0:0:0:
27,296,42783,2,0,L|20:203,1,83.9999974365235,0|0,1:0|0:0,0:0:0:0:
110,131,43083,1,0,1:0:0:0:
110,131,43233,2,0,L|103:224,1,83.9999974365235,2|0,3:0|1:0,0:0:0:0:
52,66,43533,6,0,P|141:49|193:104,1,167.999994873047,4|2,1:2|3:0,0:0:0:0:
254,153,43983,1,0,0:0:0:0:
176,185,44133,2,0,P|165:251|178:295,1,83.9999974365235,0|0,1:0|1:0,0:0:0:0:
236,315,44433,1,2,3:0:0:0:
320,288,44583,6,0,B|400:256|400:256|480:288,1,167.999994873047,2|0,0:0|1:0,0:0:0:0:
492,203,45033,2,0,L|401:167,1,83.9999974365235,2|0,3:0|1:0,0:0:0:0:
334,142,45333,1,0,1:0:0:0:
402,90,45483,2,0,P|440:75|466:43,2,83.9999974365235,8|8|0,1:2|1:2|1:0,0:0:0:0:
327,65,45933,6,0,P|288:79|263:112,1,83.9999974365235,4|0,1:0|0:0,0:0:0:0:
198,64,46233,2,0,P|237:78|262:111,1,83.9999974365235,2|0,3:0|0:0,0:0:0:0:
334,142,46533,2,0,P|302:115|261:110,1,83.9999974365235,0|0,1:0|1:0,0:0:0:0:
186,144,46833,1,2,3:0:0:0:
186,144,46983,1,0,0:0:0:0:
256,189,47133,5,0,1:0:0:0:
183,230,47283,1,2,3:0:0:0:
272,196,47433,1,0,1:0:0:0:
189,247,47583,2,0,L|78:232,1,83.9999974365235,0|0,1:0|1:0,0:0:0:0:
73,331,47883,2,0,L|156:319,2,83.9999974365235,0|8|8,1:0|0:0|0:0,0:0:0:0:
11,251,48333,6,0,P|51:145|118:125,1,167.999994873047,12|2,1:0|0:0,0:0:0:0:
83,121,49983,5,2,3:0:0:0:
83,121,50058,1,2,3:0:0:0:
83,121,50133,2,0,L|77:167,4,41.9999987182618,8|8|8|8|8,0:0|0:0|0:0|0:0|0:0,0:0:0:0:
225,313,50733,6,0,P|273:278|282:243,1,70,4|0,1:0|0:0,0:0:0:0:
333,328,51033,2,0,P|357:274|348:240,1,70,2|0,3:0|0:0,0:0:0:0:
425,222,51333,2,0,P|438:254|435:289,1,70,0|0,1:0|0:0,0:0:0:0:
316,107,51783,5,2,0:1:0:0:
316,107,51933,2,0,L|322:17,1,70,0|0,1:0|0:0,0:0:0:0:
403,78,52233,2,0,L|409:168,1,70,2|0,3:0|0:0,0:0:0:0:
300,100,52533,2,0,L|306:10,1,70,0|2,1:0|0:0,0:0:0:0:
248,181,52833,2,0,L|253:224,3,35,2|0|2|0,0:3|0:0|0:0|0:0,0:0:0:0:
235,157,53133,6,0,P|161:165|145:178,1,70,4|0,1:0|0:0,0:0:0:0:
158,85,53433,2,0,P|98:128|91:148,1,70,2|2,3:0|0:0,0:0:0:0:
24,121,53733,2,0,P|33:87|55:61,1,70,0|0,1:0|0:0,0:0:0:0:
114,251,54183,5,2,0:1:0:0:
114,251,54333,2,0,L|105:343,1,70,0|0,1:0|0:0,0:0:0:0:
203,268,54633,2,0,L|194:176,1,70,2|0,3:0|0:0,0:0:0:0:
95,256,54933,2,0,L|86:348,1,70,0|0,1:0|0:0,0:0:0:0:
202,356,55233,6,0,P|271:329|289:257,1,125.999996154785,8|0,0:0|0:0,0:0:0:0:
291,247,55533,6,0,P|356:242|386:249,1,70,0|0,1:0|0:0,0:0:0:0:
404,330,55833,1,2,3:0:0:0:
474,263,55983,2,0,L|477:242,4,17.5,2|0|2|0|0,0:0|0:0|0:0|0:0|1:0,0:0:0:0:
429,167,56283,1,0,0:0:0:0:
204,250,56583,5,2,0:1:0:0:
204,250,56733,2,0,P|140:232|113:233,1,70,0|2,1:0|0:0,0:0:0:0:
30,164,57033,2,0,P|64:158|96:145,1,70,2|2,3:0|0:0,0:0:0:0:
150,81,57333,1,0,1:0:0:0:
150,81,57408,1,0,0:0:0:0:
150,81,57483,1,2,0:0:0:0:
214,135,57633,2,0,L|213:198,3,35,0|0|0|0,1:0|1:0|1:0|1:0,0:0:0:0:
228,113,57933,6,0,P|271:85|365:111,1,140,4|2,1:0|3:0,0:0:0:0:
425,156,58383,2,0,P|382:184|288:158,1,140
217,143,58833,1,2,3:0:0:0:
235,225,58983,1,0,0:0:0:0:
153,204,59133,6,0,L|152:263,4,35,2|2|2|2|2,3:2|0:0|0:0|0:0|0:0,0:0:0:0:
84,129,59583,6,0,L|82:60,5,41.9999987182618,2|2|2|2|2|2,3:0|3:0|3:0|3:0|3:0|3:0,0:0:0:0:
84,54,60033,2,0,P|132:33|195:51,1,83.9999974365235,8|8,0:0|0:0,0:0:0:0:
