osu file format v14

[General]
AudioFilename: audio.mp3
AudioLeadIn: 0
PreviewTime:30858
Countdown: 0
SampleSet: Soft
StackLeniency: 0.7
Mode: 0
LetterboxInBreaks: 0
WidescreenStoryboard: 1

[Editor]
DistanceSpacing: 0.8
BeatDivisor: 4
GridSize: 16
TimelineZoom: 2.4

[Metadata]
Title:Kuuchuu Bunkai
TitleUnicode:空中分解
Artist:Three
ArtistUnicode:すりぃ
Creator:Ryuusei Aika
Version:XLT's Insane
Source:
Tags:Collage Japanese Rock J-Rock JRock Male Vocal Surii ボーカロイド ボカロ VOCALOID 鏡音レン Kagamine Len 真ひろ まめでん ま子 Akitoshi Ujimatcha -ClariS- Yorita Yoshino Yorita_Yoshino Dored Yugu Skyflame Cami wyrio Firika AncuL -Eriri- Laura -Laura- Corinn -Mikan Mikan Bazz Bazz_B X Light X_Light XLT Reform Kujinn Seto Kousuke Seto_Kousuke Djulus -MikanMyMommy gary00737 HabiHolic Haruto Haruto_Aizawa Armin A_r_M_i_N Agatsu Garden kanor Error- -Keitaro SnowNiNo_ Sylas TheKoala CoLouRed GlaZeE CoLouRed_GlaZeE caren_sk CRN
BeatmapID:1989965
BeatmapSetID:952132

[Difficulty]
HPDrainRate:6
CircleSize:3.8
OverallDifficulty:8
ApproachRate:9
SliderMultiplier:1.6
SliderTickRate:1

[Events]
//Background and Video events
0,0,"BG.jpg",0,0
Video,3,"video.mp4"
//Break Periods
//Storyboard Layer 0 (Background)
//Storyboard Layer 1 (Fail)
//Storyboard Layer 2 (Pass)
//Storyboard Layer 3 (Foreground)
//Storyboard Layer 4 (Overlay)
//Storyboard Sound Samples

[TimingPoints]
333,300,4,2,1,55,1,0
1233,-100,4,2,1,99,0,0
1458,-100,4,2,1,5,0,0
1533,-100,4,2,1,77,0,0
5733,-100,4,2,1,77,0,0
6333,-100,4,2,1,77,0,0
8733,-100,4,2,1,77,0,0
11133,-250,4,2,1,77,0,0
11433,-250,4,2,0,44,0,0
15483,-100,4,2,1,66,0,0
15933,-142.857142857143,4,2,1,55,0,0
17583,-111.111111111111,4,2,1,55,0,0
20283,-111.111111111111,4,2,1,77,0,0
20733,-111.111111111111,4,2,1,66,0,0
21033,-100,4,2,1,66,0,0
30333,-100,4,2,88,55,0,0
30933,-100,4,2,88,77,0,0
31533,-100,4,2,1,99,0,0
31683,-100,4,2,1,99,0,0
38733,-166.666666666667,4,2,1,88,0,0
38883,-166.666666666667,4,2,1,88,0,0
39783,-100,4,2,1,88,0,0
40383,-100,4,2,1,66,0,0
40683,-166.666666666667,4,2,1,77,0,0
41133,-100,4,2,1,99,0,0
41283,-100,4,2,1,99,0,0
47883,-100,4,2,1,99,0,0
48333,-100,4,2,99,99,0,0
48633,-100,4,2,99,99,0,0
49983,-100,4,2,1,66,0,0
50133,-100,4,2,1,88,0,0
50283,-100,4,2,1,66,0,0
50733,-125,4,2,1,77,0,0
51183,-100,4,2,1,77,0,0
57670,-100,4,2,1,11,0,0
57708,-100,4,2,1,77,0,0
57745,-100,4,2,1,11,0,0
57783,-100,4,2,1,77,0,0
57820,-100,4,2,1,11,0,0
57858,-100,4,2,1,77,0,0
57895,-100,4,2,1,11,0,0
57933,-100,4,2,1,77,0,0

[Colours]
Combo1 : 255,120,55
Combo2 : 0,49,98
Combo3 : 128,64,64

[HitObjects]
331,374,1533,6,0,P|332:324|321:292,1,80,4|2,1:0|0:0,0:0:0:0:
319,288,1758,1,2,0:0:0:0:
316,280,1833,1,2,3:0:0:0:
303,179,1983,1,0,0:0:0:0:
325,184,2058,1,0,0:0:0:0:
347,191,2133,1,0,1:0:0:0:
429,288,2283,2,0,L|435:187,1,80,2|2,0:0|3:0,0:0:0:0:
354,78,2583,5,2,0:1:0:0:
426,123,2733,2,0,P|475:114|504:109,1,80,0|0,1:0|0:0,0:0:0:0:
345,81,3033,2,0,P|305:87|266:95,1,80,2|0,3:0|0:0,0:0:0:0:
145,58,3333,5,0,1:0:0:0:
205,171,3483,1,0,0:0:0:0:
254,93,3633,5,2,3:0:0:0:
256,77,3708,1,2,0:0:0:0:
258,61,3783,1,2,0:0:0:0:
122,145,3933,6,0,P|107:187|114:237,1,80,4|0,1:2|0:0,0:0:0:0:
120,245,4158,1,0,0:0:0:0:
132,256,4233,1,2,3:0:0:0:
44,311,4383,1,0,0:0:0:0:
126,373,4533,1,2,1:2:0:0:
214,302,4683,2,0,P|262:297|308:294,1,80,0|2,0:0|3:0,0:0:0:0:
407,182,4983,5,2,0:1:0:0:
404,330,5133,2,0,P|392:277|364:255,1,80,0|0,1:0|0:0,0:0:0:0:
242,199,5433,2,0,P|300:187|325:181,1,80,2|0,3:0|0:0,0:0:0:0:
344,18,5733,6,0,L|336:106,1,80,0|2,1:0|0:0,0:0:0:0:
173,249,6033,2,0,L|158:170,1,80,8|10,3:2|0:0,0:0:0:0:
175,39,6333,5,4,1:0:0:0:
96,88,6483,1,0,0:0:0:0:
84,84,6558,1,0,0:0:0:0:
72,81,6633,1,2,3:0:0:0:
246,106,6783,1,0,0:0:0:0:
161,150,6933,5,2,1:2:0:0:
325,53,7083,2,0,P|373:65|413:73,1,80,0|2,0:0|3:0,0:0:0:0:
460,143,7383,5,2,0:1:0:0:
388,225,7533,2,0,P|375:177|360:130,1,80,0|0,1:0|0:0,0:0:0:0:
480,233,7833,2,0,P|472:296|469:329,1,80,2|0,3:0|0:0,0:0:0:0:
408,384,8133,5,0,1:0:0:0:
262,314,8283,1,2,0:0:0:0:
384,303,8433,5,2,3:0:0:0:
372,306,8508,1,2,0:0:0:0:
360,309,8583,1,2,0:0:0:0:
170,345,8733,6,0,P|231:350|272:354,1,80,4|0,1:2|0:0,0:0:0:0:
260,357,8958,1,0,0:0:0:0:
270,362,9033,2,0,L|266:280,1,80,2|2,3:0|0:0,0:0:0:0:
217,135,9333,1,0,1:0:0:0:
332,183,9483,2,0,P|378:188|424:194,1,80,0|2,0:0|3:0,0:0:0:0:
178,235,9783,6,0,P|113:235|64:158,1,160,2|2,0:0|0:0,0:0:0:0:
154,45,10233,2,0,P|149:91|141:142,1,80,2|2,3:0|0:0,0:0:0:0:
21,93,10533,5,2,3:0:0:0:
132,204,10683,1,2,3:0:0:0:
17,240,10833,5,8,0:0:0:0:
127,128,10983,1,8,0:0:0:0:
25,224,11133,5,8,0:0:0:0:
107,354,11433,5,8,0:0:0:0:
163,284,11583,5,0,0:0:0:0:
166,274,11733,1,0,0:0:0:0:
169,265,11883,1,0,0:0:0:0:
242,332,12033,5,8,0:0:0:0:
293,257,12333,5,0,0:0:0:0:
294,249,12483,1,0,0:0:0:0:
366,309,12633,5,8,0:0:0:0:
406,233,12783,5,0,0:0:0:0:
407,224,13083,1,0,0:0:0:0:
478,284,13233,6,0,L|477:318,1,32,8|0,0:0|0:0,0:0:0:0:
448,147,13533,6,0,L|484:143,1,32
332,243,13833,6,0,L|331:277,1,32,8|0,0:0|0:0,0:0:0:0:
315,99,14133,6,0,L|351:95,1,32
199,195,14433,5,8,0:0:0:0:
198,201,14583,1,0,0:0:0:0:
136,135,14733,5,0,0:0:0:0:
74,186,14883,2,0,L|32:190,1,32,0|8,0:0|0:0,0:0:0:0:
15,115,15183,2,0,L|46:111,1,32,0|2,0:0|1:2,0:0:0:0:
110,55,15483,5,8,0:0:0:0:
83,189,15633,1,8,0:0:0:0:
244,77,15783,5,8,0:0:0:0:
220,214,15933,2,0,P|225:278|229:341,1,111.999996582031,12|2,0:0|0:0,0:0:0:0:
154,384,16383,1,2,0:0:0:0:
116,301,16533,1,0,1:0:0:0:
56,360,16683,2,0,L|-3:368,1,55.9999982910157,2|2,0:0|0:0,0:0:0:0:
48,191,16983,6,0,L|107:184,1,55.9999982910157,0|0,0:0|1:0,0:0:0:0:
185,144,17283,2,0,L|191:73,1,55.9999982910157,2|2,0:0|0:0,0:0:0:0:
270,36,17583,2,0,P|309:85|394:76,1,143.999995605469,2|2,0:0|0:0,0:0:0:0:
511,103,18033,1,2,0:0:0:0:
464,19,18183,1,0,0:0:0:0:
443,170,18333,6,0,P|445:220|448:252,1,71.9999978027344,0|0,1:0|0:0,0:0:0:0:
358,364,18633,2,0,P|361:328|362:292,1,71.9999978027344,2|2,0:0|0:0,0:0:0:0:
278,130,18933,5,0,0:0:0:0:
365,206,19083,1,2,0:0:0:0:
257,256,19233,2,0,L|181:262,1,71.9999978027344,2|0,0:0|0:0,0:0:0:0:
139,190,19533,5,0,1:0:0:0:
108,319,19683,2,0,P|139:342|196:345,1,71.9999978027344,0|2,0:0|0:0,0:0:0:0:
139,190,19983,2,0,P|108:167|51:164,1,71.9999978027344,2|0,0:0|1:0,0:0:0:0:
76,245,20283,5,8,0:0:0:0:
214,213,20433,1,8,0:0:0:0:
102,374,20583,5,8,0:0:0:0:
239,350,20733,2,0,P|303:355|362:360,1,107.999996704102,4|0,1:2|0:0,0:0:0:0:
357,360,21033,1,8,0:0:0:0:
459,290,21183,1,0,0:0:0:0:
499,370,21333,5,0,1:0:0:0:
373,254,21483,2,0,P|368:211|365:172,1,80,2|8,1:2|0:0,0:0:0:0:
485,158,21783,5,0,0:0:0:0:
391,22,21933,2,0,B|408:59|408:59|395:99,1,80,0|0,1:0|0:0,0:0:0:0:
187,172,22233,1,8,0:0:0:0:
174,60,22383,6,0,P|225:45|294:119,1,160,0|0,0:0|1:0,0:0:0:0:
111,126,22833,2,0,P|66:133|21:141,1,80,8|0,0:0|0:0,0:0:0:0:
6,269,23133,6,0,P|71:262|146:253,1,120,0|0,1:0|0:0,0:0:0:0:
138,260,23433,2,0,L|131:357,1,80,8|0,0:0|0:0,0:0:0:0:
244,273,23733,1,0,1:0:0:0:
145,171,23883,1,0,1:0:0:0:
269,130,24033,2,0,P|313:128|348:140,1,80,8|0,0:0|0:0,0:0:0:0:
482,51,24333,6,0,L|402:58,2,80,0|0|8,1:0|1:0|0:0,0:0:0:0:
312,224,24783,2,0,L|392:216,1,80,8|0,0:0|0:0,0:0:0:0:
488,261,25083,5,0,1:0:0:0:
417,384,25233,1,8,1:2:0:0:
326,301,25383,1,0,1:0:0:0:
254,370,25533,6,0,P|250:292|243:227,1,120,4|0,1:0|0:0,0:0:0:0:
243,242,25833,2,0,L|149:249,1,80,8|0,0:0|0:0,0:0:0:0:
326,301,26133,1,0,1:0:0:0:
338,120,26283,2,0,P|333:159|333:199,1,80,0|8,0:0|0:0,0:0:0:0:
427,169,26583,6,0,L|506:174,1,80,0|0,0:0|1:0,0:0:0:0:
420,75,26883,1,0,0:0:0:0:
337,207,27033,1,8,0:0:0:0:
256,144,27183,2,0,P|254:104|251:65,1,80,8|0,0:0|1:0,0:0:0:0:
145,52,27483,6,0,P|94:74|66:69,2,80,0|8|0,1:0|0:0|0:0,0:0:0:0:
1,140,27933,6,0,P|73:185|90:245,1,120,4|0,1:0|0:0,0:0:0:0:
89,244,28233,1,8,0:0:0:0:
12,317,28383,1,0,0:0:0:0:
151,355,28533,6,0,L|242:349,1,80,0|0,1:0|0:0,0:0:0:0:
383,250,28833,2,0,L|304:248,1,80,8|0,0:0|0:0,0:0:0:0:
274,147,29133,5,0,1:0:0:0:
274,139,29283,1,0,1:0:0:0:
219,277,29433,1,8,0:0:0:0:
144,182,29583,2,0,P|107:156|55:150,1,80,8|0,0:0|0:0,0:0:0:0:
191,101,29883,5,0,1:0:0:0:
268,226,30033,1,8,0:0:0:0:
353,105,30183,2,0,P|390:79|442:73,1,80,8|2,0:0|1:0,0:0:0:0:
97,176,30933,5,8,1:0:0:0:
88,322,31158,6,0,L|97:202,1,120,8|8,1:0|1:0,0:0:0:0:
160,117,31533,6,0,P|127:80|136:34,1,80,4|0,1:0|0:0,0:0:0:0:
173,137,31833,2,0,P|157:183|123:201,1,80,2|0,3:0|0:0,0:0:0:0:
177,124,32133,6,0,P|226:114|256:143,1,80,0|0,1:0|0:0,0:0:0:0:
306,203,32433,1,2,3:0:0:0:
347,64,32583,1,0,0:0:0:0:
248,129,32733,5,0,1:0:0:0:
391,187,32883,1,0,0:0:0:0:
254,279,33033,1,2,3:0:0:0:
381,183,33183,2,0,L|466:175,1,80,0|0,1:0|0:0,0:0:0:0:
322,273,33483,5,0,1:0:0:0:
323,258,33558,1,0,1:0:0:0:
325,243,33633,1,2,3:0:0:0:
408,384,33783,1,0,0:0:0:0:
270,342,33933,6,0,L|173:349,1,80,0|0,1:0|0:0,0:0:0:0:
17,292,34233,1,2,3:0:0:0:
17,292,34383,1,0,0:0:0:0:
131,258,34533,5,0,1:0:0:0:
94,379,34683,1,0,0:0:0:0:
190,347,34833,1,2,3:0:0:0:
81,165,34983,6,0,B|162:169|162:169|183:180|183:180|252:184,1,160
344,190,35433,1,2,3:0:0:0:
231,110,35583,1,0,0:0:0:0:
384,106,35733,5,0,1:0:0:0:
218,104,35883,1,8,1:2:0:0:
349,181,36033,2,0,L|255:187,1,80,8|0,1:2|1:0,0:0:0:0:
184,243,36333,6,0,P|216:277|270:283,1,80,4|0,1:0|0:0,0:0:0:0:
183,225,36633,2,0,P|127:240|104:279,1,80,2|0,3:0|0:0,0:0:0:0:
198,231,36933,6,0,P|206:181|190:136,1,80,0|0,1:0|0:0,0:0:0:0:
65,245,37233,1,2,3:0:0:0:
140,374,37383,1,0,0:0:0:0:
55,353,37533,5,0,1:0:0:0:
233,295,37683,2,0,L|323:287,1,80,0|2,0:0|3:0,0:0:0:0:
140,245,37983,2,0,L|117:150,1,80,2|0,0:0|0:0,0:0:0:0:
161,339,38283,5,0,1:0:0:0:
159,354,38358,1,0,1:0:0:0:
157,369,38433,1,8,1:2:0:0:
230,188,38583,1,8,1:2:0:0:
65,211,38733,6,0,L|31:217,1,23.9999992675781,6|0,1:0|0:0,0:0:0:0:
219,184,38883,2,0,L|179:190,1,23.9999992675781
159,116,39033,5,0,1:0:0:0:
237,317,39183,6,0,L|230:274,1,23.9999992675781,2|0,1:0|0:0,0:0:0:0:
268,20,39483,2,0,L|266:57,1,23.9999992675781,2|0,1:0|0:0,0:0:0:0:
271,52,39783,6,2,P|340:47|418:39,1,120,6|0,1:0|0:0,0:0:0:0:
417,36,40083,1,2,1:0:0:0:
392,190,40233,1,0,3:0:0:0:
332,257,40383,5,0,1:0:0:0:
335,271,40458,1,0,1:0:0:0:
338,285,40533,1,0,1:0:0:0:
457,143,40683,5,2,3:0:0:0:
475,137,40758,1,2,3:0:0:0:
493,131,40833,1,2,3:0:0:0:
330,96,40983,5,8,0:0:0:0:
330,96,41058,1,8,0:0:0:0:
330,96,41133,2,0,P|282:95|249:121,1,80,4|0,1:0|0:0,0:0:0:0:
230,211,41433,2,0,P|253:169|242:122,1,80,2|0,3:0|0:0,0:0:0:0:
180,70,41733,6,0,P|202:109|249:125,1,80,0|0,1:0|0:0,0:0:0:0:
316,185,42033,1,2,3:0:0:0:
333,23,42183,1,0,0:0:0:0:
249,116,42333,5,0,1:0:0:0:
380,104,42483,2,0,P|420:102|460:98,1,80,0|2,0:0|3:0,0:0:0:0:
441,263,42783,2,0,P|398:260|354:257,1,80,0|0,1:0|0:0,0:0:0:0:
477,347,43083,5,0,1:0:0:0:
477,347,43158,1,0,1:0:0:0:
477,347,43233,1,2,3:0:0:0:
376,239,43383,1,0,1:0:0:0:
320,365,43533,6,0,P|270:367|241:342,1,80,4|0,1:2|0:0,0:0:0:0:
171,243,43833,1,2,3:0:0:0:
171,243,43983,1,0,0:0:0:0:
79,296,44133,2,0,L|-1:301,1,80,0|0,1:0|1:0,0:0:0:0:
170,375,44433,1,2,3:0:0:0:
96,216,44583,6,0,B|93:151|93:151|84:136|84:136|80:53,1,160,2|0,0:0|1:0,0:0:0:0:
244,13,45033,1,2,3:0:0:0:
192,165,45183,1,0,1:0:0:0:
160,84,45333,5,0,1:0:0:0:
331,138,45483,1,8,1:2:0:0:
248,108,45633,1,8,1:2:0:0:
379,49,45783,1,0,1:0:0:0:
387,198,45933,6,0,L|374:288,1,80,4|0,1:0|0:0,0:0:0:0:
455,321,46233,2,0,L|380:265,1,80,2|0,3:0|0:0,0:0:0:0:
309,334,46533,6,0,L|393:297,1,80,0|0,1:0|1:0,0:0:0:0:
237,377,46833,1,2,3:0:0:0:
262,260,46983,1,0,0:0:0:0:
374,322,47133,5,0,1:0:0:0:
306,189,47283,2,0,P|262:173|225:183,1,80,0|2,1:0|3:0,0:0:0:0:
365,329,47583,2,0,P|403:335|440:319,1,80,0|0,1:0|0:0,0:0:0:0:
490,221,47883,5,0,1:0:0:0:
478,224,47958,1,0,1:0:0:0:
466,227,48033,1,8,0:0:0:0:
366,169,48183,1,8,0:0:0:0:
452,102,48333,5,12,1:0:0:0:
450,94,48483,1,0,0:0:0:0:
383,58,48633,5,0,0:0:0:0:
303,100,48783,5,0,0:0:0:0:
301,107,48933,1,0,0:0:0:0:
238,46,49083,5,0,0:0:0:0:
215,130,49233,5,0,0:0:0:0:
213,137,49383,1,0,0:0:0:0:
233,227,49533,5,0,0:0:0:0:
234,219,49683,1,0,0:0:0:0:
215,334,49833,5,0,0:0:0:0:
150,282,49983,5,2,3:0:0:0:
140,274,50058,1,2,3:0:0:0:
128,269,50133,1,8,0:0:0:0:
116,265,50208,1,8,0:0:0:0:
104,266,50283,1,8,0:0:0:0:
157,292,50433,6,0,P|178:233|138:188,1,120,8|0,0:0|0:0,0:0:0:0:
127,178,50733,5,4,1:0:0:0:
96,257,50883,2,0,L|65:263,2,32,0|0|2,0:0|0:0|3:0,0:0:0:0:
111,92,51183,2,0,P|150:92|183:113,1,80,0|0,0:0|1:0,0:0:0:0:
333,153,51483,2,0,P|335:114|339:58,1,80,0|2,0:0|3:0,0:0:0:0:
253,197,51783,5,2,0:1:0:0:
246,54,51933,1,0,1:0:0:0:
333,153,52083,1,0,0:0:0:0:
173,168,52233,2,0,L|80:179,1,80,2|0,3:0|0:0,0:0:0:0:
9,284,52533,5,0,1:0:0:0:
94,356,52683,1,2,0:0:0:0:
146,292,52833,5,2,3:0:0:0:
148,284,52908,1,0,0:0:0:0:
150,276,52983,1,2,0:0:0:0:
215,353,53133,6,0,P|261:372|305:354,1,80,4|0,1:0|0:0,0:0:0:0:
295,360,53358,1,0,0:0:0:0:
302,358,53433,2,0,L|383:348,1,80,2|2,3:0|0:0,0:0:0:0:
400,252,53733,5,0,1:0:0:0:
465,328,53883,1,0,0:0:0:0:
473,337,53958,2,0,L|469:379,1,40,0|2,0:0|3:0,0:0:0:0:
494,201,54183,1,2,0:1:0:0:
426,133,54333,6,0,L|336:143,1,80,0|0,1:0|0:0,0:0:0:0:
247,239,54633,2,0,P|276:266|314:280,1,80,2|0,3:0|0:0,0:0:0:0:
215,117,54933,6,0,L|217:24,1,80,2|2,1:3|3:0,0:0:0:0:
76,66,55233,2,0,L|74:145,1,80,10|10,0:0|0:0,0:0:0:0:
168,213,55533,5,4,1:0:0:0:
50,290,55683,1,0,0:0:0:0:
134,360,55833,1,2,3:0:0:0:
57,276,55983,6,0,L|36:278,4,20,2|0|2|0|0,0:0|0:0|0:0|0:0|1:0,0:0:0:0:
228,380,56283,2,0,P|228:342|224:297,1,80,2|2,0:0|3:0,0:0:0:0:
188,124,56583,1,2,0:1:0:0:
277,181,56733,6,0,L|368:172,1,80,0|2,1:0|0:0,0:0:0:0:
314,300,57033,2,0,L|235:308,1,80,2|2,3:0|0:0,0:0:0:0:
389,372,57333,5,0,1:0:0:0:
512,356,57483,1,2,0:0:0:0:
445,287,57633,5,2,1:2:0:0:
446,267,57708,1,2,1:2:0:0:
447,247,57783,1,2,1:2:0:0:
448,227,57858,1,2,1:2:0:0:
449,207,57933,1,4,1:0:0:0:
352,239,58083,6,0,P|342:195|328:161,1,80,0|2,0:0|3:0,0:0:0:0:
420,117,58383,2,0,L|505:111,1,80,0|2,0:0|1:2,0:0:0:0:
340,57,58683,5,0,0:0:0:0:
341,49,58833,1,2,3:0:0:0:
238,102,58983,6,0,P|181:145|88:108,1,160,2|2,0:0|0:0,0:0:0:0:
29,270,59583,1,2,3:0:0:0:
36,272,59658,1,2,3:0:0:0:
43,274,59733,1,2,3:0:0:0:
2,159,59883,5,2,3:0:0:0:
131,245,60033,5,8,0:0:0:0:
14,378,60183,5,8,0:0:0:0:
