osu file format v14

[General]
AudioFilename: audio.mp3
AudioLeadIn: 0
PreviewTime: 30858
Countdown: 0
SampleSet: Soft
StackLeniency: 0.7
Mode: 0
LetterboxInBreaks: 0
WidescreenStoryboard: 1

[Editor]
Bookmarks: 10833
DistanceSpacing: 1.3
BeatDivisor: 4
GridSize: 8
TimelineZoom: 3.599998

[Metadata]
Title:Kuuchuu Bunkai
TitleUnicode:空中分解
Artist:Three
ArtistUnicode:すりぃ
Creator:Ryuusei Aika
Version:UjiMatcha's Advanced
Source:
Tags:Collage Japanese Rock J-Rock JRock Male Vocal Surii ボーカロイド ボカロ VOCALOID 鏡音レン Kagamine Len 真ひろ まめでん ま子 Akitoshi Ujimatcha -ClariS- Yorita Yoshino Yorita_Yoshino Dored Yugu Skyflame Cami wyrio Firika AncuL -Eriri- Laura -Laura- Corinn -Mikan Mikan Bazz Bazz_B X Light X_Light XLT Reform Kujinn Seto Kousuke Seto_Kousuke Djulus -MikanMyMommy gary00737 HabiHolic Haruto Haruto_Aizawa Armin A_r_M_i_N Agatsu Garden kanor Error- -Keitaro SnowNiNo_ Sylas TheKoala CoLouRed GlaZeE CoLouRed_GlaZeE caren_sk CRN
BeatmapID:2045060
BeatmapSetID:952132

[Difficulty]
HPDrainRate:4.5
CircleSize:3.5
OverallDifficulty:5
ApproachRate:7
SliderMultiplier:1.3
SliderTickRate:1

[Events]
//Background and Video events
Video,3,"video.mp4"
0,0,"BG.jpg",0,0
//Break Periods
2,11333,14583
//Storyboard Layer 0 (Background)
//Storyboard Layer 1 (Fail)
//Storyboard Layer 2 (Pass)
//Storyboard Layer 3 (Foreground)
//Storyboard Layer 4 (Overlay)
//Storyboard Sound Samples

[TimingPoints]
333,300,4,2,1,55,1,0
1233,-100,4,2,1,99,0,0
1458,-100,4,2,1,5,0,0
1533,-100,4,2,1,77,0,0
5733,-100,4,2,1,77,0,0
6033,-100,4,2,1,77,0,0
6333,-100,4,2,1,77,0,0
11433,-100,4,2,0,44,0,0
15483,-100,4,2,1,66,0,0
15933,-100,4,2,1,55,0,0
20283,-100,4,2,1,77,0,0
20733,-100,4,2,1,66,0,0
30333,-100,4,2,88,55,0,0
30933,-100,4,2,88,77,0,0
31533,-100,4,2,1,99,0,0
38733,-100,4,2,1,88,0,0
41133,-100,4,2,1,99,0,0
48333,-100,4,2,99,99,0,0
48633,-100,4,2,99,99,0,0
49983,-100,4,2,1,66,0,0
50133,-100,4,2,1,88,0,0
50283,-100,4,2,1,66,0,0
50733,-100,4,2,1,77,0,0
55233,-100,4,2,1,77,0,0
57670,-100,4,2,1,11,0,0
57708,-100,4,2,1,77,0,0
57745,-100,4,2,1,11,0,0
57783,-100,4,2,1,77,0,0
57820,-100,4,2,1,11,0,0
57858,-100,4,2,1,77,0,0
57895,-100,4,2,1,11,0,0
57933,-100,4,2,1,77,0,0

[Colours]
Combo1 : 255,120,55
Combo2 : 0,49,98
Combo3 : 128,64,64

[HitObjects]
181,108,333,6,0,L|187:10,2,97.5,8|8|8,2:0|2:0|2:0,0:0:0:0:
223,181,933,1,8,2:0:0:0:
357,283,1233,2,2,L|430:277,1,65,2|0,0:0|0:0,3:3:0:0:
484,221,1533,6,0,P|506:160|473:89,1,130,4|2,1:0|3:0,0:0:0:0:
425,41,1983,1,0,0:0:0:0:
341,27,2133,2,0,L|276:21,1,65,0|2,1:0|0:0,0:0:0:0:
144,128,2583,2,0,L|278:116,1,130,2|0,0:1|0:0,0:0:0:0:
306,194,3033,2,0,L|228:202,1,65,2|0,3:0|0:0,0:0:0:0:
182,261,3333,2,0,L|109:269,2,65,0|0|2,1:0|0:0|3:0,0:0:0:0:
257,301,3783,1,2,0:0:0:0:
184,346,3933,6,0,P|121:371|59:352,1,130,4|2,1:2|3:0,0:0:0:0:
5,292,4383,1,0,0:0:0:0:
8,207,4533,2,0,L|13:142,1,65,2|0,1:2|0:0,0:0:0:0:
104,0,4983,2,0,L|114:129,1,130,2|0,0:1|0:0,0:0:0:0:
196,149,5433,2,0,L|190:84,1,65,2|0,3:0|0:0,0:0:0:0:
266,47,5733,1,0,1:0:0:0:
266,47,5883,1,2,0:0:0:0:
266,47,6033,2,0,L|271:111,1,65,8|10,3:2|0:0,0:0:0:0:
272,196,6333,6,0,P|215:233|150:227,1,130,4|2,1:0|3:0,0:0:0:0:
76,201,6783,1,0,0:0:0:0:
85,285,6933,2,0,L|90:349,1,65,2|0,1:2|0:0,0:0:0:0:
259,351,7383,2,0,L|388:341,1,130,2|0,0:1|0:0,0:0:0:0:
414,260,7833,2,0,L|341:266,1,65,2|0,3:0|0:0,0:0:0:0:
280,217,8133,2,0,L|215:223,2,65,0|2|2,1:0|0:0|3:0,0:0:0:0:
341,158,8583,1,2,0:0:0:0:
294,87,8733,6,0,P|232:68|172:88,1,130,4|2,1:2|3:0,0:0:0:0:
122,158,9183,1,2,0:0:0:0:
87,81,9333,2,0,L|93:16,1,65,0|0,1:0|0:0,0:0:0:0:
14,165,9783,2,0,L|24:294,1,130,2|2,0:0|0:0,0:0:0:0:
104,319,10233,2,0,L|98:384,1,65,2|2,3:0|0:0,0:0:0:0:
188,368,10533,1,2,3:0:0:0:
188,368,10683,1,2,3:0:0:0:
187,368,10833,2,0,L|193:303,1,65,8|8,0:0|0:0,0:0:0:0:
281,281,11133,5,8,0:0:0:0:
479,150,15483,6,0,L|485:85,2,65,8|8|8,0:0|0:0|0:0,0:0:0:0:
470,234,15933,1,12,0:0:0:0:
197,234,16383,2,0,L|203:299,2,65,2|0|2,0:0|1:0|0:0,0:0:0:0:
306,85,16983,1,0,0:0:0:0:
306,85,17133,2,0,L|300:150,1,65,0|2,1:0|0:0,0:0:0:0:
300,234,17433,2,0,L|306:299,1,65,2|2,0:0|0:0,0:0:0:0:
197,150,17883,6,0,L|203:85,2,65,2|2|0,0:0|0:0|0:0,0:0:0:0:
128,199,18333,2,0,L|-1:209,1,130,0|2,1:0|0:0,0:0:0:0:
149,285,18933,2,0,L|214:279,1,65,0|2,0:0|0:0,0:0:0:0:
298,279,19233,2,0,L|363:285,1,65,2|0,0:0|0:0,0:0:0:0:
362,370,19533,2,0,L|233:360,1,130,0|2,1:0|0:0,0:0:0:0:
148,368,19983,1,2,0:0:0:0:
37,240,20283,5,8,0:0:0:0:
37,240,20433,2,0,L|43:305,1,65,8|8,0:0|0:0,0:0:0:0:
121,273,20733,2,0,P|109:183|59:150,1,130,4|8,1:2|0:0,0:0:0:0:
0,138,21183,1,0,0:0:0:0:
0,138,21333,2,0,L|6:73,1,65,0|2,1:0|1:2,0:0:0:0:
163,11,21783,1,0,0:0:0:0:
163,11,21933,2,0,L|169:76,1,65,0|0,1:0|0:0,0:0:0:0:
211,148,22233,2,0,L|205:213,1,65,8|0,0:0|0:0,0:0:0:0:
342,311,22683,5,0,1:0:0:0:
342,311,22833,2,0,L|407:317,1,65,8|0,0:0|0:0,0:0:0:0:
485,347,23133,2,0,P|473:257|423:224,1,130,0|8,1:0|0:0,0:0:0:0:
321,121,23733,2,0,L|327:186,1,65,0|0,1:0|1:0,0:0:0:0:
408,160,24033,2,0,L|414:95,1,65,8|0,0:0|0:0,0:0:0:0:
498,87,24333,2,0,L|499:163,2,65,0|0|8,1:0|1:0|0:0,0:0:0:0:
448,18,24783,1,8,0:0:0:0:
280,41,25083,5,0,1:0:0:0:
280,41,25233,2,0,L|215:47,1,65,8|0,1:2|1:0,0:0:0:0:
137,13,25533,2,0,P|149:103|199:136,1,130,4|8,1:0|0:0,0:0:0:0:
244,174,25983,1,0,0:0:0:0:
244,174,26133,2,0,L|238:239,1,65,0|0,1:0|0:0,0:0:0:0:
127,367,26583,1,0,0:0:0:0:
127,367,26733,2,0,L|192:373,1,65,0|0,1:0|0:0,0:0:0:0:
276,375,27033,2,0,L|341:369,1,65,8|8,0:0|0:0,0:0:0:0:
465,253,27483,5,0,1:0:0:0:
465,253,27633,2,0,L|471:188,1,65,8|0,0:0|0:0,0:0:0:0:
508,112,27933,2,0,P|444:109|394:150,1,130,4|8,1:0|0:0,0:0:0:0:
309,295,28533,2,0,L|315:230,1,65,0|0,1:0|0:0,0:0:0:0:
291,148,28833,2,0,L|285:83,1,65,8|0,0:0|0:0,0:0:0:0:
331,12,29133,2,0,L|396:6,2,65,0|0|8,1:0|1:0|0:0,0:0:0:0:
245,9,29583,1,8,0:0:0:0:
144,144,29883,6,0,L|143:208,2,65,0|8|8,1:0|0:0|0:0,0:0:0:0:
104,69,30333,1,2,1:0:0:0:
441,101,30933,6,0,B|442:67|442:67|437:46|437:46|441:-7,2,97.5,8|8|8,1:0|1:0|1:0,0:0:0:0:
505,156,31533,6,0,L|499:221,1,65,4|0,1:0|0:0,0:0:0:0:
476,302,31833,2,0,L|411:308,1,65,2|0,3:0|0:0,0:0:0:0:
332,276,32133,2,0,P|270:257|209:277,1,130,0|2,1:0|3:0,0:0:0:0:
144,331,32583,1,0,0:0:0:0:
125,248,32733,2,0,L|131:183,1,65,0|0,1:0|0:0,0:0:0:0:
160,103,33033,1,2,3:0:0:0:
244,94,33183,2,0,L|309:88,1,65,0|0,1:0|0:0,0:0:0:0:
336,168,33483,2,0,L|401:174,2,65,0|2|0,1:0|3:0|0:0,0:0:0:0:
253,182,33933,6,0,P|191:201|130:183,1,130,0|2,1:0|3:0,0:0:0:0:
77,117,34383,1,0,0:0:0:0:
12,171,34533,2,0,L|6:236,1,65,0|0,1:0|0:0,0:0:0:0:
0,320,34833,1,2,3:0:0:0:
79,292,34983,2,0,P|141:273|202:291,1,130
251,360,35433,1,2,3:0:0:0:
319,308,35583,2,0,L|384:314,1,65,0|0,0:0|1:0,0:0:0:0:
470,299,35883,2,0,L|483:389,2,65,8|8|0,1:2|1:2|1:0,0:0:0:0:
482,214,36333,6,0,L|488:149,1,65,4|0,1:0|0:0,0:0:0:0:
497,64,36633,2,0,L|432:58,1,65,2|0,3:0|0:0,0:0:0:0:
362,105,36933,2,0,P|300:124|239:106,1,130,0|2,1:0|3:0,0:0:0:0:
175,51,37383,1,0,0:0:0:0:
157,133,37533,2,0,L|151:198,1,65,0|0,1:0|0:0,0:0:0:0:
94,261,37833,1,2,3:0:0:0:
30,205,37983,2,0,L|24:140,1,65,2|0,0:0|0:0,0:0:0:0:
62,64,38283,2,0,L|64:-16,2,65,0|8|8,1:0|1:2|1:2,0:0:0:0:
141,92,38733,6,0,B|192:90|192:90|221:104|221:104|276:102,1,130,6|0,1:0|1:0,0:0:0:0:
243,20,39183,1,2,1:0:0:0:
171,173,39483,1,2,1:0:0:0:
253,318,39783,2,0,L|262:188,1,130,6|2,1:0|1:0,0:0:0:0:
267,102,40233,1,0,3:0:0:0:
351,97,40383,2,0,L|341:226,1,130,0|2,1:0|3:0,0:0:0:0:
337,313,40833,1,2,3:0:0:0:
483,229,41133,6,0,L|489:164,1,65,4|0,1:0|0:0,0:0:0:0:
508,80,41433,2,0,L|443:86,1,65,2|0,3:0|0:0,0:0:0:0:
404,161,41733,2,0,P|342:180|281:160,1,130,0|2,1:0|3:0,0:0:0:0:
216,106,42183,1,0,0:0:0:0:
200,189,42333,2,0,L|194:254,1,65,0|0,1:0|0:0,0:0:0:0:
234,328,42633,1,2,3:0:0:0:
149,332,42783,2,0,L|84:338,1,65,0|0,1:0|0:0,0:0:0:0:
63,255,43083,2,0,L|-2:249,2,65,0|2|0,1:0|3:0|1:0,0:0:0:0:
127,199,43533,6,0,P|146:137|127:76,1,130,4|2,1:2|3:0,0:0:0:0:
80,6,43983,1,0,0:0:0:0:
164,0,44133,2,0,L|229:6,1,65,0|0,1:0|1:0,0:0:0:0:
290,64,44433,1,2,3:0:0:0:
233,127,44583,2,0,L|223:256,1,130,2|0,0:0|1:0,0:0:0:0:
212,340,45033,1,2,3:0:0:0:
295,330,45183,2,0,L|360:336,1,65,0|0,1:0|1:0,0:0:0:0:
415,272,45483,2,0,L|405:207,2,65,8|8|0,1:2|1:2|1:0,0:0:0:0:
490,311,45933,6,0,L|496:246,1,65,4|0,1:0|0:0,0:0:0:0:
494,161,46233,2,0,L|488:96,1,65,2|0,3:0|0:0,0:0:0:0:
452,19,46533,2,0,P|390:1|329:20,1,130,0|2,1:0|3:0,0:0:0:0:
267,77,46983,1,0,0:0:0:0:
319,143,47133,2,0,L|313:208,1,65,0|0,1:0|1:0,0:0:0:0:
257,272,47433,1,2,3:0:0:0:
180,236,47583,2,0,L|174:171,1,65,0|0,1:0|0:0,0:0:0:0:
95,137,47883,2,0,L|97:57,2,65,0|8|8,1:0|0:0|0:0,0:0:0:0:
42,203,48333,5,12,1:0:0:0:
424,202,49983,6,0,L|437:288,2,65,2|8|8,3:0|0:0|0:0,0:0:0:0:
359,148,50433,1,8,0:0:0:0:
224,249,50733,6,0,P|163:271|92:238,1,130,4|2,1:0|3:0,0:0:0:0:
44,190,51183,1,0,0:0:0:0:
30,106,51333,2,0,L|24:41,1,65,0|0,1:0|0:0,0:0:0:0:
192,31,51783,2,0,L|326:19,1,130,2|0,0:1|0:0,0:0:0:0:
354,98,52233,2,0,L|289:103,1,65,2|0,3:0|0:0,0:0:0:0:
231,165,52533,2,0,L|166:170,2,65,0|2|2,1:0|0:0|3:0,0:0:0:0:
305,204,52983,1,2,0:0:0:0:
232,249,53133,6,0,P|169:274|107:255,1,130,4|2,1:0|3:0,0:0:0:0:
44,205,53583,1,2,0:0:0:0:
26,287,53733,2,0,L|21:352,1,65,0|0,1:0|0:0,0:0:0:0:
190,365,54183,2,0,L|319:355,1,130,2|0,0:1|0:0,0:0:0:0:
339,273,54633,2,0,L|265:278,1,65,2|0,3:0|0:0,0:0:0:0:
296,196,54933,1,2,1:3:0:0:
296,196,55083,1,2,3:0:0:0:
296,196,55233,2,0,L|365:193,1,65,10|10,0:0|0:0,0:0:0:0:
425,138,55533,6,0,P|432:74|395:22,1,130,4|2,1:0|3:0,0:0:0:0:
314,0,55983,1,2,0:0:0:0:
262,67,56133,2,0,L|194:73,1,65,0|2,1:0|0:0,0:0:0:0:
112,218,56583,2,0,L|102:347,1,130,2|2,0:1|0:0,0:0:0:0:
21,373,57033,2,0,L|27:308,1,65,2|2,3:0|0:0,0:0:0:0:
34,224,57333,2,0,L|40:159,1,65,0|2,1:0|0:0,0:0:0:0:
39,159,57933,6,0,P|94:127|154:146,1,130,4|2,1:0|3:0,0:0:0:0:
207,212,58383,2,0,P|267:231|322:200,1,130
382,140,58833,1,2,3:0:0:0:
456,180,58983,1,2,0:0:0:0:
456,180,59583,6,0,B|454:234|454:234|462:262|462:262|459:318,1,130,2|2,3:0|3:0,0:0:0:0:
391,359,60033,1,8,0:0:0:0:
