osu file format v14

[General]
AudioFilename: audio.mp3
AudioLeadIn: 0
PreviewTime:30858
Countdown: 0
SampleSet: Soft
StackLeniency: 0.2
Mode: 0
LetterboxInBreaks: 0
WidescreenStoryboard: 1

[Editor]
Bookmarks: 24033
DistanceSpacing: 1
BeatDivisor: 4
GridSize: 32
TimelineZoom: 1.7

[Metadata]
Title:Kuuchuu Bunkai
TitleUnicode:空中分解
Artist:Three
ArtistUnicode:すりぃ
Creator:Ryuusei Aika
Version:Sylas' Extra
Source:
Tags:Collage Japanese Rock J-Rock JRock Male Vocal Surii ボーカロイド ボカロ VOCALOID 鏡音レン Kagamine Len 真ひろ まめでん ま子 Akitoshi Ujimatcha -ClariS- Yorita Yoshino Yorita_Yoshino Dored Yugu Skyflame Cami wyrio Firika AncuL -Eriri- Laura -Laura- Corinn -Mikan Mikan Bazz Bazz_B X Light X_Light XLT Reform Kujinn Seto Kousuke Seto_Kousuke Djulus -MikanMyMommy gary00737 HabiHolic Haruto Haruto_Aizawa Armin A_r_M_i_N Agatsu Garden kanor Error- -Keitaro SnowNiNo_ Sylas TheKoala CoLouRed GlaZeE CoLouRed_GlaZeE caren_sk CRN
BeatmapID:1994790
BeatmapSetID:952132

[Difficulty]
HPDrainRate:6
CircleSize:4
OverallDifficulty:9.2
ApproachRate:9.4
SliderMultiplier:2
SliderTickRate:1

[Events]
//Background and Video events
Video,3,"video.mp4"
0,0,"BG.jpg",0,0
//Break Periods
//Storyboard Layer 0 (Background)
//Storyboard Layer 1 (Fail)
//Storyboard Layer 2 (Pass)
//Storyboard Layer 3 (Foreground)
//Storyboard Layer 4 (Overlay)
//Storyboard Sound Samples

[TimingPoints]
333,300,4,2,1,55,1,0
933,-153.846153846153,4,2,1,55,0,0
1008,-153.846153846153,4,2,1,5,0,0
1233,-76.9230769230769,4,2,1,80,0,0
1458,-76.9230769230769,4,2,1,5,0,0
1533,-100,4,2,1,80,0,0
2208,-100,4,2,1,5,0,0
2283,-100,4,2,1,80,0,0
2358,-100,4,2,1,5,0,0
2433,-100,4,2,1,80,0,0
2808,-100,4,2,1,5,0,0
2883,-100,4,2,1,80,0,0
4158,-100,4,2,1,5,0,0
4233,-100,4,2,1,80,0,0
4608,-100,4,2,1,5,0,0
4683,-100,4,2,1,80,0,0
4758,-100,4,2,1,5,0,0
4833,-100,4,2,1,80,0,0
5208,-100,4,2,1,5,0,0
5283,-100,4,2,1,80,0,0
5883,-76.9230769230769,4,2,1,80,0,0
5958,-76.9230769230769,4,2,1,5,0,0
6033,-76.9230769230769,4,2,1,80,0,0
6333,-90.9090909090909,4,2,1,80,0,0
6558,-90.9090909090909,4,2,1,5,0,0
6633,-90.9090909090909,4,2,1,80,0,0
7008,-90.9090909090909,4,2,1,5,0,0
7083,-90.9090909090909,4,2,1,80,0,0
7158,-90.9090909090909,4,2,1,5,0,0
7233,-90.9090909090909,4,2,1,80,0,0
7608,-90.9090909090909,4,2,1,5,0,0
7683,-90.9090909090909,4,2,1,80,0,0
8733,-142.857142857143,4,2,1,80,0,0
8958,-142.857142857143,4,2,1,5,0,0
9033,-90.9090909090909,4,2,1,80,0,0
9408,-90.9090909090909,4,2,1,5,0,0
9483,-90.9090909090909,4,2,1,80,0,0
9558,-90.9090909090909,4,2,1,5,0,0
9633,-90.9090909090909,4,2,1,80,0,0
9783,-76.9230769230769,4,2,1,80,0,0
9858,-76.9230769230769,4,2,1,5,0,0
9933,-76.9230769230769,4,2,1,80,0,0
10008,-76.9230769230769,4,2,1,5,0,0
10083,-76.9230769230769,4,2,1,80,0,0
10308,-76.9230769230769,4,2,1,5,0,0
10383,-76.9230769230769,4,2,1,80,0,0
11133,-66.6666666666667,4,2,1,80,0,0
11358,-66.6666666666667,4,2,1,5,0,0
11433,-333.333333333333,4,2,0,64,0,0
15333,-66.6666666666667,4,2,1,75,0,0
15558,-66.6666666666667,4,2,0,5,0,0
15633,-66.6666666666667,4,2,1,75,0,0
15708,-66.6666666666667,4,2,0,5,0,0
15783,-66.6666666666667,4,2,1,75,0,0
15858,-66.6666666666667,4,2,0,5,0,0
15933,-117.647058823529,4,2,1,80,0,0
16158,-117.647058823529,4,2,1,5,0,0
16233,-117.647058823529,4,2,1,80,0,0
16308,-117.647058823529,4,2,1,5,0,0
16383,-117.647058823529,4,2,1,80,0,0
16758,-117.647058823529,4,2,1,5,0,0
16833,-117.647058823529,4,2,1,80,0,0
17658,-117.647058823529,4,2,1,5,0,0
17733,-117.647058823529,4,2,1,80,0,0
18708,-117.647058823529,4,2,1,5,0,0
18783,-117.647058823529,4,2,1,80,0,0
19158,-117.647058823529,4,2,1,5,0,0
19233,-117.647058823529,4,2,1,80,0,0
19533,-100,4,2,1,85,0,0
19908,-100,4,2,1,5,0,0
19983,-100,4,2,1,85,0,0
20283,-66.6666666666667,4,2,1,85,0,0
20358,-66.6666666666667,4,2,1,5,0,0
20433,-66.6666666666667,4,2,1,85,0,0
20508,-66.6666666666667,4,2,1,5,0,0
20583,-66.6666666666667,4,2,1,85,0,0
20658,-66.6666666666667,4,2,1,5,0,0
20733,-90.9090909090909,4,2,1,85,0,0
20958,-90.9090909090909,4,2,1,5,0,0
21033,-90.9090909090909,4,2,1,85,0,0
21558,-90.9090909090909,4,2,1,5,0,0
21633,-90.9090909090909,4,2,1,85,0,0
22758,-90.9090909090909,4,2,1,5,0,0
22833,-90.9090909090909,4,2,1,85,0,0
23508,-90.9090909090909,4,2,1,5,0,0
23583,-90.9090909090909,4,2,1,85,0,0
23658,-90.9090909090909,4,2,1,5,0,0
23733,-90.9090909090909,4,2,1,85,0,0
23808,-90.9090909090909,4,2,1,5,0,0
23883,-90.9090909090909,4,2,1,85,0,0
23958,-90.9090909090909,4,2,1,5,0,0
24033,-90.9090909090909,4,2,1,85,0,0
24108,-90.9090909090909,4,2,1,5,0,0
24183,-76.9230769230769,4,2,1,85,0,0
24408,-76.9230769230769,4,2,1,5,0,0
24483,-76.9230769230769,4,2,1,85,0,0
24858,-76.9230769230769,4,2,1,5,0,0
24933,-500,4,2,1,85,0,0
25533,-83.3333333333333,4,2,1,85,0,0
30333,-200,4,2,88,85,0,0
31533,-76.9230769230769,4,2,1,90,0,1
31758,-76.9230769230769,4,2,1,5,0,1
31833,-71.4285714285714,4,2,1,90,0,1
32058,-71.4285714285714,4,2,1,5,0,1
32133,-76.9230769230769,4,2,1,90,0,1
32433,-250,4,2,1,90,0,1
32470,-250,4,2,1,5,0,1
32583,-76.9230769230769,4,2,1,90,0,1
36558,-76.9230769230769,4,2,1,5,0,1
36633,-71.4285714285714,4,2,1,90,0,1
36858,-71.4285714285714,4,2,1,5,0,1
36933,-76.9230769230769,4,2,1,90,0,1
37233,-250,4,2,1,90,0,1
37270,-250,4,2,1,5,0,1
37383,-76.9230769230769,4,2,1,90,0,1
39183,-200,4,2,1,90,0,0
39220,-200,4,2,1,5,0,0
39483,-200,4,2,1,90,0,0
39520,-200,4,2,1,5,0,0
39783,-71.4285714285714,4,2,1,90,0,0
40008,-71.4285714285714,4,2,1,5,0,0
40083,-71.4285714285714,4,2,1,90,0,0
40158,-71.4285714285714,4,2,1,5,0,0
40233,-71.4285714285714,4,2,1,90,0,0
40308,-71.4285714285714,4,2,1,5,0,0
40383,-71.4285714285714,4,2,1,90,0,0
41133,-76.9230769230769,4,2,1,90,0,1
41358,-76.9230769230769,4,2,1,5,0,1
41433,-71.4285714285714,4,2,1,90,0,1
41658,-71.4285714285714,4,2,1,5,0,1
41733,-76.9230769230769,4,2,1,90,0,1
42033,-250,4,2,1,90,0,1
42070,-250,4,2,1,5,0,1
42183,-76.9230769230769,4,2,1,90,0,1
46158,-76.9230769230769,4,2,1,5,0,1
46233,-71.4285714285714,4,2,1,90,0,1
46458,-71.4285714285714,4,2,1,5,0,1
46533,-76.9230769230769,4,2,1,90,0,1
46983,-250,4,2,1,90,0,1
47020,-250,4,2,1,5,0,1
47133,-76.9230769230769,4,2,1,90,0,1
48333,-200,4,2,88,90,0,0
48408,-200,4,2,1,60,0,0
50733,-76.9230769230769,4,2,1,80,0,0
50958,-76.9230769230769,4,2,1,5,0,0
51033,-76.9230769230769,4,2,1,80,0,0
51408,-76.9230769230769,4,2,1,5,0,0
51483,-76.9230769230769,4,2,1,80,0,0
51558,-76.9230769230769,4,2,1,5,0,0
51633,-76.9230769230769,4,2,1,80,0,0
52008,-76.9230769230769,4,2,1,5,0,0
52083,-76.9230769230769,4,2,1,80,0,0
53358,-76.9230769230769,4,2,1,5,0,0
53433,-76.9230769230769,4,2,1,80,0,0
53808,-76.9230769230769,4,2,1,5,0,0
53883,-76.9230769230769,4,2,1,80,0,0
53958,-76.9230769230769,4,2,1,5,0,0
54033,-76.9230769230769,4,2,1,80,0,0
54408,-76.9230769230769,4,2,1,5,0,0
54483,-76.9230769230769,4,2,1,80,0,0
55158,-76.9230769230769,4,2,1,5,0,0
55233,-76.9230769230769,4,2,1,80,0,0
55758,-76.9230769230769,4,2,1,5,0,0
55833,-250,4,2,1,80,0,0
56133,-76.9230769230769,4,2,1,80,0,0
56208,-76.9230769230769,4,2,1,5,0,0
56283,-76.9230769230769,4,2,1,80,0,0
56358,-76.9230769230769,4,2,1,5,0,0
56433,-76.9230769230769,4,2,1,80,0,0
56808,-76.9230769230769,4,2,1,5,0,0
56883,-250,4,2,1,80,0,0
57933,-71.4285714285714,4,2,1,80,0,0
58158,-71.4285714285714,4,2,1,5,0,0
58233,-71.4285714285714,4,2,1,80,0,0
58533,-250,4,2,1,80,0,0
60033,-47.6190476190476,4,2,1,80,0,0

[Colours]
Combo1 : 255,120,55
Combo2 : 0,49,98
Combo3 : 128,64,64

[HitObjects]
105,247,333,5,8,2:0:0:0:
231,151,558,5,8,2:0:0:0:
298,306,783,5,8,2:0:0:0:
362,234,933,6,0,L|418:240,1,32.4999985122681,8|8,2:0|2:0,0:0:0:0:
374,218,1233,6,0,L|162:240,1,194.999991073609,2|0,0:0|0:0,0:0:0:0:
105,247,1533,5,4,1:0:0:0:
231,151,1683,1,0,0:0:0:0:
298,306,1833,1,2,3:0:0:0:
139,157,1983,1,2,0:0:0:0:
139,142,2058,1,0,0:0:0:0:
143,127,2133,2,0,P|146:84|140:57,1,50,0|0,1:0|0:0,0:0:0:0:
321,178,2283,2,0,P|318:221|324:248,1,50
303,226,2583,6,0,P|367:184|469:213,1,150,2|0,2:1|0:0,0:0:0:0:
490,245,2883,1,0,0:0:0:0:
369,90,3033,1,2,3:0:0:0:
298,306,3183,1,0,0:0:0:0:
450,139,3333,5,0,1:0:0:0:
303,226,3483,1,0,0:0:0:0:
283,57,3633,1,2,3:0:0:0:
274,84,3708,1,0,0:0:0:0:
283,113,3783,1,0,0:0:0:0:
211,273,3933,6,0,B|119:263|174:327|48:313,1,150,0|0,1:0|0:0,0:0:0:0:
85,238,4233,1,2,3:0:0:0:
244,356,4383,1,0,0:0:0:0:
262,359,4458,1,0,0:0:0:0:
280,358,4533,2,0,P|312:357|338:346,1,50,0|0,1:0|0:0,0:0:0:0:
220,178,4683,2,0,P|188:179|162:190,1,50
172,171,4983,6,0,P|253:191|344:198,1,150,2|0,2:1|0:0,0:0:0:0:
392,163,5283,1,0,0:0:0:0:
230,288,5433,1,2,3:0:0:0:
173,71,5583,1,0,0:0:0:0:
168,50,5658,1,0,0:0:0:0:
174,29,5733,5,0,1:0:0:0:
82,211,5883,2,0,P|48:222|6:218,1,64.9999970245363
252,52,6033,1,8,3:2:0:0:
132,284,6183,1,8,0:0:0:0:
424,76,6333,6,0,B|404:15|344:74|364:141|399:170,1,165.000005035401,4|0,1:0|0:0,0:0:0:0:
441,222,6633,1,2,3:0:0:0:
259,126,6783,1,0,0:0:0:0:
244,130,6858,1,0,0:0:0:0:
233,139,6933,2,0,P|225:174|237:211,1,55.0000016784668,0|0,1:0|0:0,0:0:0:0:
351,311,7083,2,0,P|359:276|347:239,1,55.0000016784668
376,273,7383,6,0,P|301:301|173:311,1,165.000005035401,2|0,2:1|0:0,0:0:0:0:
142,294,7683,1,0,0:0:0:0:
456,338,7833,2,0,P|404:318|316:311,1,110.000003356934,2|0,3:0|0:0,0:0:0:0:
68,121,8133,5,0,1:0:0:0:
142,294,8283,1,0,0:0:0:0:
350,310,8433,1,2,3:0:0:0:
367,295,8508,1,0,0:0:0:0:
379,272,8583,1,0,0:0:0:0:
211,212,8733,6,0,P|215:255|243:314,1,104.999996795654,0|0,1:0|0:0,0:0:0:0:
294,366,9033,5,2,3:0:0:0:
449,234,9183,1,0,0:0:0:0:
441,214,9258,1,0,0:0:0:0:
430,200,9333,2,0,P|404:190|376:187,1,55.0000016784668,0|0,1:0|0:0,0:0:0:0:
213,129,9483,2,0,P|216:101|225:75,1,55.0000016784668
202,149,9783,6,0,L|305:133,1,64.9999970245363
382,70,9933,2,0,L|366:173,1,64.9999970245363,2|0,3:0|0:0,0:0:0:0:
117,169,10083,1,2,0:0:0:0:
119,182,10158,1,2,0:0:0:0:
121,194,10233,2,0,L|137:297,1,64.9999970245363,2|0,3:0|0:0,0:0:0:0:
403,296,10383,1,2,0:0:0:0:
402,310,10458,1,2,0:0:0:0:
397,320,10533,5,2,3:0:0:0:
353,312,10608,1,2,3:0:0:0:
312,327,10683,1,2,3:0:0:0:
323,340,10758,1,2,3:0:0:0:
339,345,10833,5,8,0:0:0:0:
355,291,10908,1,8,0:0:0:0:
329,242,10983,1,8,0:0:0:0:
275,226,11058,1,8,0:0:0:0:
227,254,11133,6,0,P|329:283|491:283,1,225.000008583069,8|0,0:0|0:0,0:0:0:0:
456,283,11433,6,0,B|466:163,6,119.999996337891,8|8|8|8|8|8|8,0:0|0:0|0:0|0:0|0:0|0:0|0:0,0:0:0:0:
456,283,15333,1,2,0:0:0:0:
305,166,15483,6,0,P|300:210|345:255,1,75.0000028610231,8|0,0:0|0:0,0:0:0:0:
460,290,15633,2,0,P|424:263|362:280,1,75.0000028610231,8|0,0:0|0:0,0:0:0:0:
275,362,15783,2,0,P|315:344|332:282,1,75.0000028610231,8|0,0:0|0:0,0:0:0:0:
213,164,15933,6,0,L|53:177,1,127.50000243187,12|0,0:0|0:0,0:0:0:0:
33,289,16233,2,0,L|38:247,1,42.5000008106232,2|0,0:0|0:0,0:0:0:0:
46,240,16383,2,0,L|38:328,1,85.0000016212464,2|0,0:0|1:0,0:0:0:0:
157,326,16683,2,0,L|154:284,1,42.5000008106232,2|0,0:0|0:0,0:0:0:0:
146,277,16833,2,0,L|153:365,1,85.0000016212464,2|0,0:0|0:0,0:0:0:0:
272,249,17133,5,0,1:0:0:0:
339,210,17283,1,2,0:0:0:0:
340,134,17433,1,2,0:0:0:0:
284,79,17583,2,0,L|222:62,1,42.5000008106232,2|0,0:0|0:0,0:0:0:0:
348,126,17733,5,0,1:0:0:0:
420,121,17883,1,2,0:0:0:0:
437,112,17958,1,0,0:0:0:0:
446,100,18033,1,2,0:0:0:0:
383,56,18183,1,0,0:0:0:0:
237,168,18333,6,0,P|195:154|152:154,1,85.0000016212464,0|0,1:0|0:0,0:0:0:0:
262,325,18633,2,0,P|270:300|270:274,1,42.5000008106232,2|0,0:0|0:0,0:0:0:0:
265,266,18783,2,0,P|251:307|251:350,1,85.0000016212464,2|0,0:0|1:0,0:0:0:0:
369,157,19083,2,0,P|377:182|377:208,1,42.5000008106232,2|0,0:0|0:0,0:0:0:0:
372,216,19233,2,0,P|358:174|358:131,1,85.0000016212464,2|0,0:0|0:0,0:0:0:0:
458,140,19533,6,0,L|358:132,1,100,0|0,1:0|0:0,0:0:0:0:
192,75,19833,2,0,L|261:69,1,50,2|0,0:0|0:0,0:0:0:0:
248,81,19983,2,0,L|148:88,1,100,2|0,0:0|1:0,0:0:0:0:
36,342,20283,6,0,B|14:357|42:374|63:363|54:293,1,75.0000028610231,8|0,0:0|0:0,0:0:0:0:
64,162,20433,2,0,B|61:135|33:151|31:175|96:202,1,75.0000028610231,8|0,0:0|0:0,0:0:0:0:
204,276,20583,2,0,B|228:286|228:254|209:241|152:283,1,75.0000028610231,8|0,0:0|0:0,0:0:0:0:
87,47,20733,6,0,P|159:71|292:77,1,165.000005035401,0|0,1:0|0:0,0:0:0:0:
339,149,21033,2,0,P|395:121|471:114,1,110.000003356934,8|0,0:0|0:0,0:0:0:0:
165,176,21333,1,0,1:0:0:0:
435,250,21483,2,0,P|407:235|369:232,1,55.0000016784668,0|0,1:0|0:0,0:0:0:0:
204,276,21633,2,0,P|148:304|72:311,1,110.000003356934,8|0,0:0|0:0,0:0:0:0:
373,351,21933,5,0,1:0:0:0:
339,149,22083,1,0,0:0:0:0:
101,311,22233,2,0,L|240:328,1,110.000003356934,8|0,0:0|0:0,0:0:0:0:
373,351,22533,1,0,0:0:0:0:
233,141,22683,2,0,L|239:195,1,55.0000016784668,0|0,1:0|0:0,0:0:0:0:
435,250,22833,2,0,L|448:140,1,110.000003356934,8|0,0:0|0:0,0:0:0:0:
162,69,23133,5,0,1:0:0:0:
339,149,23283,1,0,0:0:0:0:
72,94,23433,6,0,P|78:129|94:155,1,55.0000016784668,8|0,0:0|0:0,0:0:0:0:
60,138,23583,2,0,P|54:173|38:199,1,55.0000016784668
90,190,23733,2,0,P|96:225|112:251,1,55.0000016784668,0|0,1:0|0:0,0:0:0:0:
39,244,23883,2,0,P|33:279|17:305,1,55.0000016784668,0|0,1:0|0:0,0:0:0:0:
100,313,24033,2,0,P|106:348|122:374,1,55.0000016784668,8|0,0:0|0:0,0:0:0:0:
162,69,24183,6,0,B|274:53|211:116|376:82,1,194.999991073609
363,73,24483,1,0,1:0:0:0:
242,307,24633,1,8,0:0:0:0:
203,152,24783,2,0,P|205:187|199:229,1,64.9999970245363,8|0,0:0|0:0,0:0:0:0:
412,353,24933,6,0,B|430:352|430:352|438:355|438:355|454:352,1,40,0|0,0:0|1:0,0:0:0:0:
343,180,25383,1,0,0:0:0:0:
66,288,25533,6,0,P|167:252|164:361,1,239.999992675781,4|8,1:0|0:0,0:0:0:0:
58,177,25983,1,0,0:0:0:0:
160,363,26133,1,0,1:0:0:0:
180,138,26283,2,0,L|320:150,1,119.999996337891,0|8,0:0|0:0,0:0:0:0:
64,90,26583,5,0,0:0:0:0:
222,226,26733,1,0,1:0:0:0:
135,56,26883,1,0,0:0:0:0:
150,264,27033,1,8,0:0:0:0:
270,32,27183,2,0,P|293:96|299:161,1,119.999996337891,8|0,0:0|1:0,0:0:0:0:
150,264,27483,5,0,1:0:0:0:
376,163,27633,1,8,0:0:0:0:
218,355,27783,1,0,0:0:0:0:
143,89,27933,6,0,P|184:152|200:203,1,119.999996337891,0|0,1:0|0:0,0:0:0:0:
376,163,28233,2,0,P|341:212|320:268,1,119.999996337891,8|0,0:0|0:0,0:0:0:0:
150,264,28533,1,0,1:0:0:0:
335,356,28683,1,0,0:0:0:0:
222,185,28833,1,8,0:0:0:0:
131,368,28983,1,0,0:0:0:0:
376,163,29133,5,0,1:0:0:0:
256,275,29283,1,0,1:0:0:0:
325,87,29433,1,8,0:0:0:0:
426,268,29583,1,8,0:0:0:0:
426,268,29883,5,0,1:0:0:0:
157,193,30033,1,8,0:0:0:0:
431,83,30183,1,8,0:0:0:0:
311,228,30333,6,0,L|316:259,3,25,2|0|0|0,1:0|0:0|0:0|0:0,0:0:0:0:
274,317,30633,6,0,L|243:312,1,25
160,341,30783,6,0,L|129:346,1,25
40,132,30933,5,8,1:0:0:0:
274,317,31158,5,8,1:0:0:0:
445,218,31383,5,8,1:0:0:0:
120,237,31533,6,0,P|191:180|309:202,1,194.999991073609,4|0,1:0|0:0,0:0:0:0:
113,235,31833,6,0,P|188:174|313:197,1,209.999993591309,2|0,3:0|0:0,0:0:0:0:
345,251,32133,5,0,1:0:0:0:
198,80,32283,1,0,0:0:0:0:
450,69,32433,6,0,L|456:35,1,20,2|0,3:0|0:0,0:0:0:0:
324,51,32583,6,0,B|408:37|364:82|490:66,1,129.999994049073,0|0,0:0|1:0,0:0:0:0:
198,80,32883,1,0,0:0:0:0:
345,251,33033,1,2,3:0:0:0:
450,69,33183,2,0,P|494:126|492:184,1,129.999994049073,0|0,1:0|0:0,0:0:0:0:
402,338,33483,5,0,1:0:0:0:
324,51,33633,1,2,3:0:0:0:
214,290,33783,1,0,0:0:0:0:
133,160,33933,6,0,L|-3:173,1,129.999994049073,0|0,1:0|0:0,0:0:0:0:
433,277,34233,1,2,3:0:0:0:
357,75,34383,1,0,0:0:0:0:
321,319,34533,1,0,1:0:0:0:
245,118,34683,1,0,0:0:0:0:
209,361,34833,1,2,3:0:0:0:
133,160,34983,6,0,P|117:92|117:26,1,129.999994049073,0|0,0:0|1:0,0:0:0:0:
321,319,35283,1,0,0:0:0:0:
78,283,35433,1,2,3:0:0:0:
331,178,35583,2,0,L|476:197,1,129.999994049073,0|0,1:0|1:0,0:0:0:0:
427,338,35883,5,2,3:0:0:0:
273,45,36033,1,2,3:0:0:0:
180,345,36183,1,0,1:0:0:0:
439,82,36333,6,0,B|447:22|352:29|329:138|449:187,1,194.999991073609,0|0,1:0|0:0,0:0:0:0:
441,80,36633,6,0,B|449:17|347:23|323:139|447:191,1,209.999993591309,2|0,3:0|0:0,0:0:0:0:
481,220,36933,5,0,1:0:0:0:
273,45,37083,1,0,0:0:0:0:
226,313,37233,6,0,L|232:348,1,20,2|0,3:0|0:0,0:0:0:0:
305,235,37383,5,0,0:0:0:0:
106,315,37533,1,0,1:0:0:0:
366,339,37683,2,0,L|506:356,1,129.999994049073,0|2,0:0|3:0,0:0:0:0:
203,190,37983,2,0,P|200:262|243:331,1,129.999994049073,0|0,1:0|1:0,0:0:0:0:
374,84,38283,5,0,0:0:0:0:
225,312,38433,1,2,3:0:0:0:
246,28,38583,1,0,0:0:0:0:
507,219,38733,5,2,3:1:0:0:
238,115,38883,1,0,1:0:0:0:
24,299,39033,1,0,0:0:0:0:
92,237,39183,6,0,L|88:219,1,12.5,2|0,3:1|0:0,0:0:0:0:
260,233,39483,6,0,L|244:223,1,12.5,2|0,3:1|0:0,0:0:0:0:
374,84,39783,6,0,L|113:143,1,209.999993591309,2|0,3:1|0:0,0:0:0:0:
158,113,40083,2,0,P|158:154|146:214,1,69.9999978637696,2|0,1:0|0:0,0:0:0:0:
249,306,40233,2,0,P|249:347|261:407,1,69.9999978637696,0|0,3:0|0:0,0:0:0:0:
381,178,40383,5,0,1:0:0:0:
417,171,40458,1,0,1:0:0:0:
445,155,40533,1,0,1:0:0:0:
437,149,40608,1,0,1:0:0:0:
425,148,40683,5,2,3:0:0:0:
381,178,40758,1,2,3:0:0:0:
359,226,40833,1,2,3:0:0:0:
364,278,40908,1,2,3:0:0:0:
395,321,40983,1,8,0:0:0:0:
443,343,41058,1,8,0:0:0:0:
496,337,41133,6,0,B|443:310|393:343|412:345|361:377|298:342,1,194.999991073609,4|0,1:0|0:0,0:0:0:0:
503,342,41433,6,0,B|447:313|396:348|415:350|362:383|297:347,1,209.999993591309,2|0,3:0|0:0,0:0:0:0:
259,280,41733,5,0,1:0:0:0:
489,182,41883,1,0,0:0:0:0:
240,118,42033,6,0,L|243:92,1,20,2|0,3:0|0:0,0:0:0:0:
134,304,42183,5,0,0:0:0:0:
346,189,42333,1,0,1:0:0:0:
144,26,42483,2,0,P|78:18|2:51,1,129.999994049073,0|2,0:0|3:0,0:0:0:0:
360,80,42783,2,0,P|426:88|502:55,1,129.999994049073,0|0,1:0|0:0,0:0:0:0:
89,112,43083,5,0,1:0:0:0:
192,332,43233,1,2,3:0:0:0:
299,158,43383,1,0,1:0:0:0:
350,269,43533,6,0,L|495:281,1,129.999994049073,4|0,1:2|0:0,0:0:0:0:
299,158,43833,1,2,3:0:0:0:
85,233,43983,1,0,0:0:0:0:
350,269,44133,1,0,1:0:0:0:
136,344,44283,1,0,1:0:0:0:
299,158,44433,1,2,3:0:0:0:
34,122,44583,6,0,P|109:125|190:168,1,129.999994049073,2|0,0:0|1:0,0:0:0:0:
338,61,44883,1,0,1:0:0:0:
214,232,45033,1,2,3:0:0:0:
424,134,45183,2,0,P|363:156|298:157,1,129.999994049073,0|0,1:0|0:0,0:0:0:0:
180,57,45483,5,0,1:0:0:0:
246,321,45633,1,2,3:0:0:0:
338,61,45783,1,0,1:0:0:0:
75,231,45933,6,0,B|85:212|91:171|91:171|112:203|110:271|96:311,1,194.999991073609,4|0,1:0|0:0,0:0:0:0:
71,237,46233,6,0,B|83:209|89:168|89:168|116:192|114:275|97:317,1,209.999993591309,2|0,3:0|0:0,0:0:0:0:
57,373,46533,5,0,1:0:0:0:
144,97,46683,1,0,1:0:0:0:
394,215,46833,1,2,3:0:0:0:
260,120,46983,6,0,L|258:151,1,20
186,233,47133,5,0,1:0:0:0:
378,103,47283,1,0,0:0:0:0:
63,171,47433,1,2,3:0:0:0:
394,215,47583,2,0,L|557:234,1,129.999994049073,0|0,1:0|0:0,0:0:0:0:
133,54,47883,5,0,1:0:0:0:
192,365,48033,1,2,3:0:0:0:
331,23,48183,1,0,1:0:0:0:
388,336,48333,6,0,P|392:291|418:228,1,100,12|0,1:0|0:0,0:0:0:0:
489,165,48783,1,0,0:0:0:0:
312,175,48933,5,0,0:0:0:0:
387,156,49083,1,0,0:0:0:0:
396,79,49233,1,0,0:0:0:0:
328,43,49383,1,0,0:0:0:0:
256,246,49533,5,0,0:0:0:0:
217,184,49683,1,0,0:0:0:0:
247,117,49833,1,0,0:0:0:0:
159,252,49983,5,2,3:0:0:0:
107,260,50058,1,2,3:0:0:0:
59,241,50133,1,8,0:0:0:0:
66,231,50208,1,8,0:0:0:0:
77,227,50283,5,8,0:0:0:0:
92,288,50358,1,8,0:0:0:0:
86,349,50433,1,8,0:0:0:0:
72,339,50733,6,0,B|200:311|128:381|304:349,1,194.999991073609,4|2,1:0|0:0,0:0:0:0:
323,308,51033,1,2,3:0:0:0:
170,202,51183,1,0,0:0:0:0:
176,186,51258,1,2,0:0:0:0:
180,170,51333,2,0,P|184:141|179:98,1,64.9999970245363,0|0,1:0|0:0,0:0:0:0:
398,196,51483,2,0,P|394:225|399:268,1,64.9999970245363,0|2,0:0|0:0,0:0:0:0:
416,241,51783,6,0,P|335:245|188:299,1,194.999991073609,2|0,2:1|0:0,0:0:0:0:
176,334,52083,1,0,0:0:0:0:
307,157,52233,1,2,3:0:0:0:
103,269,52383,1,0,0:0:0:0:
305,347,52533,5,0,1:0:0:0:
180,170,52683,1,2,0:0:0:0:
88,383,52833,1,2,3:0:0:0:
95,365,52908,1,0,0:0:0:0:
95,347,52983,1,2,0:0:0:0:
13,106,53133,6,0,P|75:166|193:163,1,194.999991073609,4|0,1:0|0:0,0:0:0:0:
230,113,53433,1,2,3:0:0:0:
25,251,53583,1,2,0:0:0:0:
19,265,53658,1,2,0:0:0:0:
16,280,53733,2,0,P|13:326|21:363,1,64.9999970245363,0|0,1:0|0:0,0:0:0:0:
278,257,53883,2,0,P|281:211|273:174,1,64.9999970245363
265,217,54183,6,0,L|458:237,1,194.999991073609,2|0,2:1|0:0,0:0:0:0:
512,178,54483,1,0,0:0:0:0:
333,89,54633,1,2,3:0:0:0:
359,317,54783,1,0,0:0:0:0:
365,332,54858,1,0,0:0:0:0:
365,346,54933,5,0,1:0:0:0:
444,114,55083,2,0,P|485:89|525:80,1,64.9999970245363
276,347,55233,1,8,0:0:0:0:
512,178,55383,1,8,0:0:0:0:
144,310,55533,6,0,B|123:208|200:258|151:88,1,194.999991073609,0|0,1:0|0:0,0:0:0:0:
100,75,55833,6,0,L|82:71,1,10,2|0,3:0|0:0,0:0:0:0:
231,275,55983,2,0,L|249:271,2,10,2|0|2,0:0|0:0|0:0,0:0:0:0:
84,173,56133,6,0,L|-3:185,1,64.9999970245363,0|0,1:0|0:0,0:0:0:0:
312,240,56283,2,0,L|399:228,1,64.9999970245363
369,244,56583,6,0,P|341:162|219:66,1,194.999991073609,2|0,2:1|0:0,0:0:0:0:
188,81,56883,6,0,L|174:83,2,10,2|0|2,0:0|0:0|0:0,0:0:0:0:
393,65,57033,1,2,3:0:0:0:
188,196,57183,1,2,0:0:0:0:
184,186,57258,1,2,0:0:0:0:
180,178,57333,6,0,L|174:232,1,40,0|0,1:0|0:0,0:0:0:0:
203,334,57633,5,2,0:0:0:0:
217,332,57708,1,2,0:0:0:0:
232,330,57783,1,2,0:0:0:0:
247,328,57858,1,2,0:0:0:0:
263,326,57933,6,0,B|385:293|331:382|491:336,1,209.999993591309,4|0,1:0|0:0,0:0:0:0:
512,287,58233,1,2,3:0:0:0:
220,246,58383,1,0,0:0:0:0:
417,243,58533,6,0,L|416:258,2,10,2|0|2,1:2|0:0|0:0,0:0:0:0:
319,234,58683,5,0,0:0:0:0:
510,181,58833,1,2,3:0:0:0:
292,113,58983,1,0,0:0:0:0:
113,361,59133,5,2,3:2:0:0:
154,322,59208,1,2,0:0:0:0:
166,275,59283,1,2,0:0:0:0:
155,241,59358,1,2,0:0:0:0:
135,222,59433,1,2,0:0:0:0:
120,219,59508,1,0,0:0:0:0:
114,224,59583,5,2,3:0:0:0:
170,249,59658,5,2,3:0:0:0:
229,267,59733,5,2,3:0:0:0:
290,279,59808,5,2,3:0:0:0:
352,283,59883,5,2,3:0:0:0:
413,281,59958,5,2,3:0:0:0:
475,271,60033,6,0,B|494:222|494:222|474:161,1,104.999996795654,8|8,0:0|0:0,0:0:0:0:
97,29,60183,6,0,B|78:78|78:78|98:139,1,104.999996795654,8|8,0:0|0:0,0:0:0:0:
